  0
SECTION
  2
HEADER
  9
$ACADVER
  1
AC1009
  9
$INSBASE
 10
0.0
 20
0.0
 30
0.0
  9
$EXTMIN
 10
2397.873498
 20
913.617574
 30
0.0
  9
$EXTMAX
 10
3529.224072
 20
1692.704703
 30
0.0
  9
$LIMMIN
 10
0.0
 20
0.0
  9
$LIMMAX
 10
4200.0
 20
2970.0
  9
$ORTHOMODE
 70
     1
  9
$REGENMODE
 70
     1
  9
$FILLMODE
 70
     1
  9
$QTEXTMODE
 70
     0
  9
$MIRRTEXT
 70
     1
  9
$DRAGMODE
 70
     2
  9
$LTSCALE
 40
0.3
  9
$OSMODE
 70
   191
  9
$ATTMODE
 70
     1
  9
$TEXTSIZE
 40
2.5
  9
$TRACEWID
 40
1.0
  9
$TEXTSTYLE
  7
STANDARD
  9
$CLAYER
  8
MATEN
  9
$CELTYPE
  6
DASHED
  9
$CECOLOR
 62
   256
  9
$DIMSCALE
 40
0.0
  9
$DIMASZ
 40
2.0
  9
$DIMEXO
 40
0.625
  9
$DIMDLI
 40
3.75
  9
$DIMRND
 40
0.0
  9
$DIMDLE
 40
0.0
  9
$DIMEXE
 40
1.25
  9
$DIMTP
 40
0.0
  9
$DIMTM
 40
0.0
  9
$DIMTXT
 40
3.0
  9
$DIMCEN
 40
2.5
  9
$DIMTSZ
 40
0.0
  9
$DIMTOL
 70
     0
  9
$DIMLIM
 70
     0
  9
$DIMTIH
 70
     0
  9
$DIMTOH
 70
     0
  9
$DIMSE1
 70
     0
  9
$DIMSE2
 70
     0
  9
$DIMTAD
 70
     1
  9
$DIMZIN
 70
     8
  9
$DIMBLK
  1

  9
$DIMASO
 70
     1
  9
$DIMSHO
 70
     1
  9
$DIMPOST
  1

  9
$DIMAPOST
  1

  9
$DIMALT
 70
     0
  9
$DIMALTD
 70
     4
  9
$DIMALTF
 40
0.0394
  9
$DIMLFAC
 40
1.0
  9
$DIMTOFL
 70
     1
  9
$DIMTVP
 40
0.0
  9
$DIMTIX
 70
     0
  9
$DIMSOXD
 70
     0
  9
$DIMSAH
 70
     0
  9
$DIMBLK1
  1

  9
$DIMBLK2
  1

  9
$DIMSTYLE
  2
STANDARD
  9
$DIMCLRD
 70
     0
  9
$DIMCLRE
 70
     0
  9
$DIMCLRT
 70
     0
  9
$DIMTFAC
 40
1.0
  9
$DIMGAP
 40
1.625
  9
$LUNITS
 70
     2
  9
$LUPREC
 70
     4
  9
$SKETCHINC
 40
1.0
  9
$FILLETRAD
 40
2.0
  9
$AUNITS
 70
     0
  9
$AUPREC
 70
     0
  9
$MENU
  1
acad
  9
$ELEVATION
 40
0.0
  9
$PELEVATION
 40
0.0
  9
$THICKNESS
 40
0.0
  9
$LIMCHECK
 70
     0
  9
$BLIPMODE
 70
     0
  9
$CHAMFERA
 40
0.0
  9
$CHAMFERB
 40
0.0
  9
$SKPOLY
 70
     0
  9
$TDCREATE
 40
2451801.38001
  9
$TDUPDATE
 40
2451978.672976
  9
$TDINDWG
 40
3.259861
  9
$TDUSRTIMER
 40
3.259861
  9
$USRTIMER
 70
     1
  9
$ANGBASE
 50
0.0
  9
$ANGDIR
 70
     0
  9
$PDMODE
 70
     0
  9
$PDSIZE
 40
0.0
  9
$PLINEWID
 40
0.0
  9
$COORDS
 70
     1
  9
$SPLFRAME
 70
     0
  9
$SPLINETYPE
 70
     6
  9
$SPLINESEGS
 70
     8
  9
$ATTDIA
 70
     0
  9
$ATTREQ
 70
     1
  9
$HANDLING
 70
     1
  9
$HANDSEED
  5
59EF
  9
$SURFTAB1
 70
     6
  9
$SURFTAB2
 70
     6
  9
$SURFTYPE
 70
     6
  9
$SURFU
 70
     6
  9
$SURFV
 70
     6
  9
$UCSNAME
  2

  9
$UCSORG
 10
0.0
 20
0.0
 30
0.0
  9
$UCSXDIR
 10
1.0
 20
0.0
 30
0.0
  9
$UCSYDIR
 10
0.0
 20
1.0
 30
0.0
  9
$PUCSNAME
  2

  9
$PUCSORG
 10
0.0
 20
0.0
 30
0.0
  9
$PUCSXDIR
 10
1.0
 20
0.0
 30
0.0
  9
$PUCSYDIR
 10
0.0
 20
1.0
 30
0.0
  9
$USERI1
 70
     0
  9
$USERI2
 70
     0
  9
$USERI3
 70
     0
  9
$USERI4
 70
     0
  9
$USERI5
 70
     0
  9
$USERR1
 40
0.0
  9
$USERR2
 40
0.0
  9
$USERR3
 40
0.0
  9
$USERR4
 40
0.0
  9
$USERR5
 40
0.0
  9
$WORLDVIEW
 70
     1
  9
$SHADEDGE
 70
     3
  9
$SHADEDIF
 70
    70
  9
$TILEMODE
 70
     1
  9
$MAXACTVP
 70
    48
  9
$PLIMCHECK
 70
     0
  9
$PEXTMIN
 10
1.000000E+020
 20
1.000000E+020
 30
1.000000E+020
  9
$PEXTMAX
 10
-1.000000E+020
 20
-1.000000E+020
 30
-1.000000E+020
  9
$PLIMMIN
 10
0.0
 20
0.0
  9
$PLIMMAX
 10
420.0
 20
297.0
  9
$UNITMODE
 70
     0
  9
$VISRETAIN
 70
     1
  9
$PLINEGEN
 70
     0
  9
$PSLTSCALE
 70
     1
  0
ENDSEC
  0
SECTION
  2
TABLES
  0
TABLE
  2
VPORT
 70
     2
  0
VPORT
  2
*ACTIVE
 70
     0
 10
0.0
 20
0.0
 11
1.0
 21
1.0
 12
2899.359328
 22
1267.326864
 13
0.0
 23
0.0
 14
10.0
 24
10.0
 15
25.0
 25
25.0
 16
0.0
 26
0.0
 36
1.0
 17
0.0
 27
0.0
 37
0.0
 40
760.695578
 41
1.700368
 42
50.0
 43
0.0
 44
0.0
 50
0.0
 51
0.0
 71
     0
 72
   100
 73
     1
 74
     1
 75
     0
 76
     0
 77
     0
 78
     0
  0
ENDTAB
  0
TABLE
  2
LTYPE
 70
     3
  0
LTYPE
  2
CONTINUOUS
 70
     0
  3
Solid line
 72
    65
 73
     0
 40
0.0
  0
LTYPE
  2
DASHED
 70
     0
  3
Dashed __ __ __ __ __ __ __ __ __ __ __ __ __ _
 72
    65
 73
     2
 40
19.05
 49
12.7
 49
-6.35
  0
LTYPE
  2
ACAD_ISO02W100
 70
     0
  3
ISO dash __ __ __ __ __ __ __ __ __ __ __ __ __
 72
    65
 73
     2
 40
15.0
 49
12.0
 49
-3.0
  0
ENDTAB
  0
TABLE
  2
LAYER
 70
     4
  0
LAYER
  2
0
 70
     0
 62
     7
  6
CONTINUOUS
  0
LAYER
  2
DEFPOINTS
 70
     0
 62
     7
  6
CONTINUOUS
  0
LAYER
  2
MATEN
 70
     0
 62
     1
  6
CONTINUOUS
  0
LAYER
  2
HULPLIJN
 70
     0
 62
     2
  6
CONTINUOUS
  0
ENDTAB
  0
TABLE
  2
STYLE
 70
     1
  0
STYLE
  2
STANDARD
 70
     0
 40
0.0
 41
1.0
 50
0.0
 71
     0
 42
2.5
  3
txt
  4

  0
ENDTAB
  0
TABLE
  2
VIEW
 70
     0
  0
ENDTAB
  0
TABLE
  2
UCS
 70
     0
  0
ENDTAB
  0
TABLE
  2
APPID
 70
     6
  0
APPID
  2
ACAD
 70
     0
  0
APPID
  2
CONTENTBLOCKDESCRIPTION
 70
     0
  0
APPID
  2
CONTENTBLOCKICON
 70
     0
  0
APPID
  2
CONTENTTABDATA
 70
     0
  0
APPID
  2
CONTENTCURRENTTAB
 70
     0
  0
APPID
  2
DRAWINGVARIABLESXDATA
 70
     0
  0
ENDTAB
  0
TABLE
  2
DIMSTYLE
 70
     1
  0
DIMSTYLE
  2
STANDARD
 70
     0
  3

  4

  5

  6

  7

 40
1.0
 41
0.18
 42
0.0625
 43
0.38
 44
0.18
 45
0.0
 46
0.0
 47
0.0
 48
0.0
140
0.18
141
0.09
142
0.0
143
25.4
144
1.0
145
0.0
146
1.0
147
0.09
 71
     0
 72
     0
 73
     1
 74
     1
 75
     0
 76
     0
 77
     0
 78
     0
170
     0
171
     2
172
     0
173
     0
174
     0
175
     0
176
     0
177
     0
178
     0
  0
ENDTAB
  0
ENDSEC
  0
SECTION
  2
BLOCKS
  0
BLOCK
  8
0
  2
$MODEL_SPACE
 70
     0
 10
0.0
 20
0.0
 30
0.0
  3
$MODEL_SPACE
  1

  0
ENDBLK
  5
1A
  8
0
  0
BLOCK
 67
     1
  8
0
  2
$PAPER_SPACE
 70
     0
 10
0.0
 20
0.0
 30
0.0
  3
$PAPER_SPACE
  1

  0
ENDBLK
  5
17
 67
     1
  8
0
  0
BLOCK
  8
0
  2
*D0
 70
     1
 10
0.0
 20
0.0
 30
0.0
  3
*D0
  1

  0
LINE
  5
4B01
  8
0
  6
BYBLOCK
 62
     0
 10
2588.113448
 20
1231.491994
 30
0.0
 11
2610.530601
 21
1231.491994
 31
0.0
  0
LINE
  5
4B02
  8
0
  6
BYBLOCK
 62
     0
 10
2588.113448
 20
981.491994
 30
0.0
 11
2610.530601
 21
981.491994
 31
0.0
  0
LINE
  5
4B03
  8
0
  6
BYBLOCK
 62
     0
 10
2609.280601
 20
1229.491994
 30
0.0
 11
2609.280601
 21
983.491994
 31
0.0
  0
SOLID
  5
4B04
  8
0
  6
BYBLOCK
 62
     0
 10
2608.947268
 20
1229.491994
 30
0.0
 11
2609.613934
 21
1229.491994
 31
0.0
 12
2609.280601
 22
1231.491994
 32
0.0
 13
2609.280601
 23
1231.491994
 33
0.0
  0
SOLID
  5
4B05
  8
0
  6
BYBLOCK
 62
     0
 10
2608.947268
 20
983.491994
 30
0.0
 11
2609.613934
 21
983.491994
 31
0.0
 12
2609.280601
 22
981.491994
 32
0.0
 13
2609.280601
 23
981.491994
 33
0.0
  0
TEXT
  8
0
  40
3
  5
59BE
  62
0
  72
0
  71
0
 10
2600.16
 20
1101.18
 30
0.000000
  1
250
  0
POINT
  5
4B07
  8
DEFPOINTS
  6
BYBLOCK
 62
     0
 10
2587.488448
 20
1231.491994
 30
0.0
  0
POINT
  5
4B08
  8
DEFPOINTS
  6
BYBLOCK
 62
     0
 10
2587.488448
 20
981.491994
 30
0.0
  0
POINT
  5
4B09
  8
DEFPOINTS
  6
BYBLOCK
 62
     0
 10
2609.280601
 20
981.491994
 30
0.0
  0
ENDBLK
  5
4B0A
  8
0
  0
BLOCK
  8
0
  2
*D1
 70
     1
 10
0.0
 20
0.0
 30
0.0
  3
*D1
  1

  0
LINE
  5
4B58
  8
0
  6
BYBLOCK
 62
     0
 10
2724.173981
 20
1227.291994
 30
0.0
 11
2762.434234
 21
1227.291994
 31
0.0
  0
LINE
  5
4B59
  8
0
  6
BYBLOCK
 62
     0
 10
2724.173981
 20
985.691994
 30
0.0
 11
2762.434234
 21
985.691994
 31
0.0
  0
LINE
  5
4B5A
  8
0
  6
BYBLOCK
 62
     0
 10
2761.184234
 20
1225.291994
 30
0.0
 11
2761.184234
 21
987.691994
 31
0.0
  0
SOLID
  5
4B5B
  8
0
  6
BYBLOCK
 62
     0
 10
2760.850901
 20
1225.291994
 30
0.0
 11
2761.517567
 21
1225.291994
 31
0.0
 12
2761.184234
 22
1227.291994
 32
0.0
 13
2761.184234
 23
1227.291994
 33
0.0
  0
SOLID
  5
4B5C
  8
0
  6
BYBLOCK
 62
     0
 10
2760.850901
 20
987.691994
 30
0.0
 11
2761.517567
 21
987.691994
 31
0.0
 12
2761.184234
 22
985.691994
 32
0.0
 13
2761.184234
 23
985.691994
 33
0.0
  0
TEXT
  8
0
  40
3
  5
59BF
  62
0
  72
0
  71
0
 10
2752.06
 20
1101.18
 30
0.000000
  1
241.6
  0
POINT
  5
4B5E
  8
DEFPOINTS
  6
BYBLOCK
 62
     0
 10
2723.548981
 20
1227.291994
 30
0.0
  0
POINT
  5
4B5F
  8
DEFPOINTS
  6
BYBLOCK
 62
     0
 10
2723.548981
 20
985.691994
 30
0.0
  0
POINT
  5
4B60
  8
DEFPOINTS
  6
BYBLOCK
 62
     0
 10
2761.184234
 20
985.691994
 30
0.0
  0
ENDBLK
  5
4B61
  8
0
  0
BLOCK
  8
0
  2
*D2
 70
     1
 10
0.0
 20
0.0
 30
0.0
  3
*D2
  1

  0
LINE
  5
4B6E
  8
0
  6
BYBLOCK
 62
     0
 10
2721.923981
 20
1249.491994
 30
0.0
 11
2762.330007
 21
1249.491994
 31
0.0
  0
LINE
  5
4B6F
  8
0
  6
BYBLOCK
 62
     0
 10
2724.173981
 20
1227.291994
 30
0.0
 11
2762.330007
 21
1227.291994
 31
0.0
  0
LINE
  5
4B70
  8
0
  6
BYBLOCK
 62
     0
 10
2761.080007
 20
1247.491994
 30
0.0
 11
2761.080007
 21
1229.291994
 31
0.0
  0
SOLID
  5
4B71
  8
0
  6
BYBLOCK
 62
     0
 10
2760.746674
 20
1247.491994
 30
0.0
 11
2761.41334
 21
1247.491994
 31
0.0
 12
2761.080007
 22
1249.491994
 32
0.0
 13
2761.080007
 23
1249.491994
 33
0.0
  0
SOLID
  5
4B72
  8
0
  6
BYBLOCK
 62
     0
 10
2760.746674
 20
1229.291994
 30
0.0
 11
2761.41334
 21
1229.291994
 31
0.0
 12
2761.080007
 22
1227.291994
 32
0.0
 13
2761.080007
 23
1227.291994
 33
0.0
  0
TEXT
  8
0
  40
3
  5
59C0
  62
0
  72
0
  71
0
 10
2751.96
 20
1233.08
 30
0.000000
  1
22.2
  0
POINT
  5
4B74
  8
DEFPOINTS
  6
BYBLOCK
 62
     0
 10
2721.298981
 20
1249.491994
 30
0.0
  0
POINT
  5
4B75
  8
DEFPOINTS
  6
BYBLOCK
 62
     0
 10
2723.548981
 20
1227.291994
 30
0.0
  0
POINT
  5
4B76
  8
DEFPOINTS
  6
BYBLOCK
 62
     0
 10
2761.080007
 20
1227.291994
 30
0.0
  0
ENDBLK
  5
4B77
  8
0
  0
BLOCK
  8
0
  2
*D3
 70
     1
 10
0.0
 20
0.0
 30
0.0
  3
*D3
  1

  0
LINE
  5
4B63
  8
0
  6
BYBLOCK
 62
     0
 10
2721.923981
 20
972.491994
 30
0.0
 11
2762.64882
 21
972.491994
 31
0.0
  0
LINE
  5
4B64
  8
0
  6
BYBLOCK
 62
     0
 10
2724.173981
 20
985.691994
 30
0.0
 11
2762.64882
 21
985.691994
 31
0.0
  0
LINE
  5
4B65
  8
0
  6
BYBLOCK
 62
     0
 10
2761.39882
 20
974.491994
 30
0.0
 11
2761.39882
 21
983.691994
 31
0.0
  0
SOLID
  5
4B66
  8
0
  6
BYBLOCK
 62
     0
 10
2761.065486
 20
974.491994
 30
0.0
 11
2761.732153
 21
974.491994
 31
0.0
 12
2761.39882
 22
972.491994
 32
0.0
 13
2761.39882
 23
972.491994
 33
0.0
  0
SOLID
  5
4B67
  8
0
  6
BYBLOCK
 62
     0
 10
2761.065486
 20
983.691994
 30
0.0
 11
2761.732153
 21
983.691994
 31
0.0
 12
2761.39882
 22
985.691994
 32
0.0
 13
2761.39882
 23
985.691994
 33
0.0
  0
TEXT
  8
0
  40
3
  5
59C1
  62
0
  72
0
  71
0
 10
2752.27
 20
973.782
 30
0.000000
  1
13.2
  0
POINT
  5
4B69
  8
DEFPOINTS
  6
BYBLOCK
 62
     0
 10
2721.298981
 20
972.491994
 30
0.0
  0
POINT
  5
4B6A
  8
DEFPOINTS
  6
BYBLOCK
 62
     0
 10
2723.548981
 20
985.691994
 30
0.0
  0
POINT
  5
4B6B
  8
DEFPOINTS
  6
BYBLOCK
 62
     0
 10
2761.39882
 20
985.691994
 30
0.0
  0
ENDBLK
  5
4B6C
  8
0
  0
BLOCK
  8
0
  2
*D4
 70
     1
 10
0.0
 20
0.0
 30
0.0
  3
*D4
  1

  0
LINE
  5
4B86
  8
0
  6
BYBLOCK
 62
     0
 10
2715.473981
 20
1249.491994
 30
0.0
 11
2676.374943
 21
1249.491994
 31
0.0
  0
LINE
  5
4B87
  8
0
  6
BYBLOCK
 62
     0
 10
2715.473981
 20
972.491994
 30
0.0
 11
2676.374943
 21
972.491994
 31
0.0
  0
LINE
  5
4B88
  8
0
  6
BYBLOCK
 62
     0
 10
2677.624943
 20
1247.491994
 30
0.0
 11
2677.624943
 21
974.491994
 31
0.0
  0
SOLID
  5
4B89
  8
0
  6
BYBLOCK
 62
     0
 10
2677.291609
 20
1247.491994
 30
0.0
 11
2677.958276
 21
1247.491994
 31
0.0
 12
2677.624943
 22
1249.491994
 32
0.0
 13
2677.624943
 23
1249.491994
 33
0.0
  0
SOLID
  5
4B8A
  8
0
  6
BYBLOCK
 62
     0
 10
2677.291609
 20
974.491994
 30
0.0
 11
2677.958276
 21
974.491994
 31
0.0
 12
2677.624943
 22
972.491994
 32
0.0
 13
2677.624943
 23
972.491994
 33
0.0
  0
TEXT
  8
0
  40
3
  5
59C2
  62
0
  72
0
  71
0
 10
2668.50
 20
1105.68
 30
0.000000
  1
277
  0
POINT
  5
4B8C
  8
DEFPOINTS
  6
BYBLOCK
 62
     0
 10
2716.098981
 20
1249.491994
 30
0.0
  0
POINT
  5
4B8D
  8
DEFPOINTS
  6
BYBLOCK
 62
     0
 10
2716.098981
 20
972.491994
 30
0.0
  0
POINT
  5
4B8E
  8
DEFPOINTS
  6
BYBLOCK
 62
     0
 10
2677.624943
 20
972.491994
 30
0.0
  0
ENDBLK
  5
4B8F
  8
0
  0
BLOCK
  8
0
  2
*D5
 70
     1
 10
0.0
 20
0.0
 30
0.0
  3
*D5
  1

  0
LINE
  5
4E53
  8
0
  6
BYBLOCK
 62
     0
 10
2489.115229
 20
1436.405522
 30
0.0
 11
2489.115229
 21
1484.748949
 31
0.0
  0
LINE
  5
4E54
  8
0
  6
BYBLOCK
 62
     0
 10
2561.013448
 20
1436.405522
 30
0.0
 11
2561.013448
 21
1484.748949
 31
0.0
  0
LINE
  5
4E55
  8
0
  6
BYBLOCK
 62
     0
 10
2491.115229
 20
1483.498949
 30
0.0
 11
2559.013448
 21
1483.498949
 31
0.0
  0
SOLID
  5
4E56
  8
0
  6
BYBLOCK
 62
     0
 10
2491.115229
 20
1483.832282
 30
0.0
 11
2491.115229
 21
1483.165616
 31
0.0
 12
2489.115229
 22
1483.498949
 32
0.0
 13
2489.115229
 23
1483.498949
 33
0.0
  0
SOLID
  5
4E57
  8
0
  6
BYBLOCK
 62
     0
 10
2559.013448
 20
1483.832282
 30
0.0
 11
2559.013448
 21
1483.165616
 31
0.0
 12
2561.013448
 22
1483.498949
 32
0.0
 13
2561.013448
 23
1483.498949
 33
0.0
  0
TEXT
  8
0
  40
3
  5
59C3
  62
0
  72
0
  71
0
 10
2519.06
 20
1481.31
 30
0.000000
  1
71.9
  0
POINT
  5
4E59
  8
DEFPOINTS
  6
BYBLOCK
 62
     0
 10
2489.115229
 20
1435.780522
 30
0.0
  0
POINT
  5
4E5A
  8
DEFPOINTS
  6
BYBLOCK
 62
     0
 10
2561.013448
 20
1435.780522
 30
0.0
  0
POINT
  5
4E5B
  8
DEFPOINTS
  6
BYBLOCK
 62
     0
 10
2561.013448
 20
1483.498949
 30
0.0
  0
ENDBLK
  5
4E5C
  8
0
  0
BLOCK
  8
0
  2
*D6
 70
     1
 10
0.0
 20
0.0
 30
0.0
  3
*D6
  1

  0
LINE
  5
4EC1
  8
0
  6
BYBLOCK
 62
     0
 10
2573.994997
 20
1472.875115
 30
0.0
 11
2571.339718
 21
1443.747487
 31
0.0
  0
LINE
  5
4EC2
  8
0
  6
BYBLOCK
 62
     0
 10
2569.887179
 20
1427.813557
 30
0.0
 11
2569.705611
 21
1425.821816
 31
0.0
  0
TEXT
  8
0
  40
3
  5
59C4
  62
0
  72
0
  71
0
 10
2564.42
 20
1462.74
 30
0.000000
  1
%%c12
  0
LINE
  5
4EC4
  8
0
  6
BYBLOCK
 62
     0
 10
2570.068746
 20
1429.805298
 30
0.0
 11
2571.158151
 21
1441.755746
 31
0.0
  0
SOLID
  5
4EC5
  8
0
  6
BYBLOCK
 62
     0
 10
2569.555222
 20
1427.843818
 30
0.0
 11
2570.219135
 21
1427.783296
 31
0.0
 12
2570.068746
 22
1429.805298
 32
0.0
 13
2570.068746
 23
1429.805298
 33
0.0
  0
SOLID
  5
4EC6
  8
0
  6
BYBLOCK
 62
     0
 10
2571.007761
 20
1443.777748
 30
0.0
 11
2571.671675
 21
1443.717226
 31
0.0
 12
2571.158151
 22
1441.755746
 32
0.0
 13
2571.158151
 23
1441.755746
 33
0.0
  0
POINT
  5
4EC7
  8
DEFPOINTS
  6
BYBLOCK
 62
     0
 10
2571.158151
 20
1441.755746
 30
0.0
  0
POINT
  5
4EC8
  8
DEFPOINTS
  6
BYBLOCK
 62
     0
 10
2570.068746
 20
1429.805298
 30
0.0
  0
ENDBLK
  5
4EC9
  8
0
  0
BLOCK
  8
0
  2
*D7
 70
     1
 10
0.0
 20
0.0
 30
0.0
  3
*D7
  1

  0
LINE
  5
57FE
  8
0
  6
BYBLOCK
 62
     0
 10
3192.24723
 20
2707.083997
 30
0.0
 11
3192.24723
 21
2691.115449
 31
0.0
  0
LINE
  5
57FF
  8
0
  6
BYBLOCK
 62
     0
 10
3222.04723
 20
2707.083997
 30
0.0
 11
3222.04723
 21
2691.115449
 31
0.0
  0
LINE
  5
5800
  8
0
  6
BYBLOCK
 62
     0
 10
3194.24723
 20
2692.365449
 30
0.0
 11
3220.04723
 21
2692.365449
 31
0.0
  0
SOLID
  5
5801
  8
0
  6
BYBLOCK
 62
     0
 10
3194.24723
 20
2692.698782
 30
0.0
 11
3194.24723
 21
2692.032116
 31
0.0
 12
3192.24723
 22
2692.365449
 32
0.0
 13
3192.24723
 23
2692.365449
 33
0.0
  0
SOLID
  5
5802
  8
0
  6
BYBLOCK
 62
     0
 10
3220.04723
 20
2692.698782
 30
0.0
 11
3220.04723
 21
2692.032116
 31
0.0
 12
3222.04723
 22
2692.365449
 32
0.0
 13
3222.04723
 23
2692.365449
 33
0.0
  0
TEXT
  8
0
  40
3
  5
59C5
  62
0
  72
0
  71
0
 10
3201.15
 20
2690.18
 30
0.000000
  1
29.8
  0
POINT
  5
5804
  8
DEFPOINTS
  6
BYBLOCK
 62
     0
 10
3192.24723
 20
2707.708997
 30
0.0
  0
POINT
  5
5805
  8
DEFPOINTS
  6
BYBLOCK
 62
     0
 10
3222.04723
 20
2707.708997
 30
0.0
  0
POINT
  5
5806
  8
DEFPOINTS
  6
BYBLOCK
 62
     0
 10
3222.04723
 20
2692.365449
 30
0.0
  0
ENDBLK
  5
5807
  8
0
  0
BLOCK
  8
0
  2
*D8
 70
     1
 10
0.0
 20
0.0
 30
0.0
  3
*D8
  1

  0
LINE
  5
5809
  8
0
  6
BYBLOCK
 62
     0
 10
3205.34723
 20
2707.083997
 30
0.0
 11
3205.34723
 21
2698.852522
 31
0.0
  0
LINE
  5
580A
  8
0
  6
BYBLOCK
 62
     0
 10
3208.34723
 20
2707.083997
 30
0.0
 11
3208.34723
 21
2698.852522
 31
0.0
  0
LINE
  5
580B
  8
0
  6
BYBLOCK
 62
     0
 10
3203.34723
 20
2700.102522
 30
0.0
 11
3201.34723
 21
2700.102522
 31
0.0
  0
LINE
  5
580C
  8
0
  6
BYBLOCK
 62
     0
 10
3210.34723
 20
2700.102522
 30
0.0
 11
3217.59723
 21
2700.102522
 31
0.0
  0
LINE
  5
580D
  8
0
  6
BYBLOCK
 62
     0
 10
3205.34723
 20
2700.102522
 30
0.0
 11
3208.34723
 21
2700.102522
 31
0.0
  0
SOLID
  5
580E
  8
0
  6
BYBLOCK
 62
     0
 10
3203.34723
 20
2700.435856
 30
0.0
 11
3203.34723
 21
2699.769189
 31
0.0
 12
3205.34723
 22
2700.102522
 32
0.0
 13
3205.34723
 23
2700.102522
 33
0.0
  0
SOLID
  5
580F
  8
0
  6
BYBLOCK
 62
     0
 10
3210.34723
 20
2700.435856
 30
0.0
 11
3210.34723
 21
2699.769189
 31
0.0
 12
3208.34723
 22
2700.102522
 32
0.0
 13
3208.34723
 23
2700.102522
 33
0.0
  0
TEXT
  8
0
  40
3
  5
59C6
  62
0
  72
0
  71
0
 10
3208.97
 20
2697.92
 30
0.000000
  1
3
  0
POINT
  5
5811
  8
DEFPOINTS
  6
BYBLOCK
 62
     0
 10
3205.34723
 20
2707.708997
 30
0.0
  0
POINT
  5
5812
  8
DEFPOINTS
  6
BYBLOCK
 62
     0
 10
3208.34723
 20
2707.708997
 30
0.0
  0
POINT
  5
5813
  8
DEFPOINTS
  6
BYBLOCK
 62
     0
 10
3208.34723
 20
2700.102522
 30
0.0
  0
ENDBLK
  5
5814
  8
0
  0
BLOCK
  8
0
  2
*D9
 70
     1
 10
0.0
 20
0.0
 30
0.0
  3
*D9
  1

  0
LINE
  5
5816
  8
0
  6
BYBLOCK
 62
     0
 10
3192.87223
 20
2736.708997
 30
0.0
 11
3241.708533
 21
2736.708997
 31
0.0
  0
LINE
  5
5817
  8
0
  6
BYBLOCK
 62
     0
 10
3222.67223
 20
2742.708997
 30
0.0
 11
3241.708533
 21
2742.708997
 31
0.0
  0
LINE
  5
5818
  8
0
  6
BYBLOCK
 62
     0
 10
3240.458533
 20
2734.708997
 30
0.0
 11
3240.458533
 21
2732.708997
 31
0.0
  0
LINE
  5
5819
  8
0
  6
BYBLOCK
 62
     0
 10
3240.458533
 20
2744.708997
 30
0.0
 11
3240.458533
 21
2746.708997
 31
0.0
  0
LINE
  5
581A
  8
0
  6
BYBLOCK
 62
     0
 10
3240.458533
 20
2736.708997
 30
0.0
 11
3240.458533
 21
2742.708997
 31
0.0
  0
SOLID
  5
581B
  8
0
  6
BYBLOCK
 62
     0
 10
3240.125199
 20
2734.708997
 30
0.0
 11
3240.791866
 21
2734.708997
 31
0.0
 12
3240.458533
 22
2736.708997
 32
0.0
 13
3240.458533
 23
2736.708997
 33
0.0
  0
SOLID
  5
581C
  8
0
  6
BYBLOCK
 62
     0
 10
3240.125199
 20
2744.708997
 30
0.0
 11
3240.791866
 21
2744.708997
 31
0.0
 12
3240.458533
 22
2742.708997
 32
0.0
 13
3240.458533
 23
2742.708997
 33
0.0
  0
TEXT
  8
0
  40
3
  5
59C7
  62
0
  72
0
  71
0
 10
3231.33
 20
2734.40
 30
0.000000
  1
6
  0
POINT
  5
581E
  8
DEFPOINTS
  6
BYBLOCK
 62
     0
 10
3192.24723
 20
2736.708997
 30
0.0
  0
POINT
  5
581F
  8
DEFPOINTS
  6
BYBLOCK
 62
     0
 10
3222.04723
 20
2742.708997
 30
0.0
  0
POINT
  5
5820
  8
DEFPOINTS
  6
BYBLOCK
 62
     0
 10
3240.458533
 20
2742.708997
 30
0.0
  0
ENDBLK
  5
5821
  8
0
  0
BLOCK
  8
0
  2
*D10
 70
     1
 10
0.0
 20
0.0
 30
0.0
  3
*D10
  1

  0
LINE
  5
5823
  8
0
  6
BYBLOCK
 62
     0
 10
3108.04723
 20
2609.274651
 30
0.0
 11
3108.04723
 21
2593.819134
 31
0.0
  0
LINE
  5
5824
  8
0
  6
BYBLOCK
 62
     0
 10
3222.04723
 20
2609.274651
 30
0.0
 11
3222.04723
 21
2593.819134
 31
0.0
  0
LINE
  5
5825
  8
0
  6
BYBLOCK
 62
     0
 10
3110.04723
 20
2595.069134
 30
0.0
 11
3220.04723
 21
2595.069134
 31
0.0
  0
SOLID
  5
5826
  8
0
  6
BYBLOCK
 62
     0
 10
3110.04723
 20
2595.402467
 30
0.0
 11
3110.04723
 21
2594.735801
 31
0.0
 12
3108.04723
 22
2595.069134
 32
0.0
 13
3108.04723
 23
2595.069134
 33
0.0
  0
SOLID
  5
5827
  8
0
  6
BYBLOCK
 62
     0
 10
3220.04723
 20
2595.402467
 30
0.0
 11
3220.04723
 21
2594.735801
 31
0.0
 12
3222.04723
 22
2595.069134
 32
0.0
 13
3222.04723
 23
2595.069134
 33
0.0
  0
TEXT
  8
0
  40
3
  5
59C8
  62
0
  72
0
  71
0
 10
3159.15
 20
2592.88
 30
0.000000
  1
114
  0
POINT
  5
5829
  8
DEFPOINTS
  6
BYBLOCK
 62
     0
 10
3108.04723
 20
2609.899651
 30
0.0
  0
POINT
  5
582A
  8
DEFPOINTS
  6
BYBLOCK
 62
     0
 10
3222.04723
 20
2609.899651
 30
0.0
  0
POINT
  5
582B
  8
DEFPOINTS
  6
BYBLOCK
 62
     0
 10
3222.04723
 20
2595.069134
 30
0.0
  0
ENDBLK
  5
582C
  8
0
  0
BLOCK
  8
0
  2
*D11
 70
     1
 10
0.0
 20
0.0
 30
0.0
  3
*D11
  1

  0
LINE
  5
582E
  8
0
  6
BYBLOCK
 62
     0
 10
3122.84723
 20
2609.274651
 30
0.0
 11
3122.84723
 21
2599.675754
 31
0.0
  0
LINE
  5
582F
  8
0
  6
BYBLOCK
 62
     0
 10
3108.04723
 20
2609.274651
 30
0.0
 11
3108.04723
 21
2599.675754
 31
0.0
  0
LINE
  5
5830
  8
0
  6
BYBLOCK
 62
     0
 10
3120.84723
 20
2600.925754
 30
0.0
 11
3110.04723
 21
2600.925754
 31
0.0
  0
SOLID
  5
5831
  8
0
  6
BYBLOCK
 62
     0
 10
3120.84723
 20
2601.259087
 30
0.0
 11
3120.84723
 21
2600.592421
 31
0.0
 12
3122.84723
 22
2600.925754
 32
0.0
 13
3122.84723
 23
2600.925754
 33
0.0
  0
SOLID
  5
5832
  8
0
  6
BYBLOCK
 62
     0
 10
3110.04723
 20
2601.259087
 30
0.0
 11
3110.04723
 21
2600.592421
 31
0.0
 12
3108.04723
 22
2600.925754
 32
0.0
 13
3108.04723
 23
2600.925754
 33
0.0
  0
TEXT
  8
0
  40
3
  5
59C9
  62
0
  72
0
  71
0
 10
3109.45
 20
2598.74
 30
0.000000
  1
14.8
  0
POINT
  5
5834
  8
DEFPOINTS
  6
BYBLOCK
 62
     0
 10
3122.84723
 20
2609.899651
 30
0.0
  0
POINT
  5
5835
  8
DEFPOINTS
  6
BYBLOCK
 62
     0
 10
3108.04723
 20
2609.899651
 30
0.0
  0
POINT
  5
5836
  8
DEFPOINTS
  6
BYBLOCK
 62
     0
 10
3108.04723
 20
2600.925754
 30
0.0
  0
ENDBLK
  5
5837
  8
0
  0
BLOCK
  8
0
  2
*D12
 70
     1
 10
0.0
 20
0.0
 30
0.0
  3
*D12
  1

  0
LINE
  5
5839
  8
0
  6
BYBLOCK
 62
     0
 10
3107.42223
 20
2684.899651
 30
0.0
 11
3083.883121
 21
2684.899651
 31
0.0
  0
LINE
  5
583A
  8
0
  6
BYBLOCK
 62
     0
 10
3107.42223
 20
2609.899651
 30
0.0
 11
3083.883121
 21
2609.899651
 31
0.0
  0
LINE
  5
583B
  8
0
  6
BYBLOCK
 62
     0
 10
3085.133121
 20
2682.899651
 30
0.0
 11
3085.133121
 21
2611.899651
 31
0.0
  0
SOLID
  5
583C
  8
0
  6
BYBLOCK
 62
     0
 10
3084.799788
 20
2682.899651
 30
0.0
 11
3085.466454
 21
2682.899651
 31
0.0
 12
3085.133121
 22
2684.899651
 32
0.0
 13
3085.133121
 23
2684.899651
 33
0.0
  0
SOLID
  5
583D
  8
0
  6
BYBLOCK
 62
     0
 10
3084.799788
 20
2611.899651
 30
0.0
 11
3085.466454
 21
2611.899651
 31
0.0
 12
3085.133121
 22
2609.899651
 32
0.0
 13
3085.133121
 23
2609.899651
 33
0.0
  0
TEXT
  8
0
  40
3
  5
59CA
  62
0
  72
0
  71
0
 10
3076.01
 20
2642.09
 30
0.000000
  1
75
  0
POINT
  5
583F
  8
DEFPOINTS
  6
BYBLOCK
 62
     0
 10
3108.04723
 20
2684.899651
 30
0.0
  0
POINT
  5
5840
  8
DEFPOINTS
  6
BYBLOCK
 62
     0
 10
3108.04723
 20
2609.899651
 30
0.0
  0
POINT
  5
5841
  8
DEFPOINTS
  6
BYBLOCK
 62
     0
 10
3085.133121
 20
2609.899651
 30
0.0
  0
ENDBLK
  5
5842
  8
0
  0
BLOCK
  8
0
  2
*D13
 70
     1
 10
0.0
 20
0.0
 30
0.0
  3
*D13
  1

  0
LINE
  5
5844
  8
0
  6
BYBLOCK
 62
     0
 10
3108.04723
 20
2707.083997
 30
0.0
 11
3108.04723
 21
2695.571079
 31
0.0
  0
LINE
  5
5845
  8
0
  6
BYBLOCK
 62
     0
 10
3137.84723
 20
2707.083997
 30
0.0
 11
3137.84723
 21
2695.571079
 31
0.0
  0
LINE
  5
5846
  8
0
  6
BYBLOCK
 62
     0
 10
3110.04723
 20
2696.821079
 30
0.0
 11
3135.84723
 21
2696.821079
 31
0.0
  0
SOLID
  5
5847
  8
0
  6
BYBLOCK
 62
     0
 10
3110.04723
 20
2697.154412
 30
0.0
 11
3110.04723
 21
2696.487745
 31
0.0
 12
3108.04723
 22
2696.821079
 32
0.0
 13
3108.04723
 23
2696.821079
 33
0.0
  0
SOLID
  5
5848
  8
0
  6
BYBLOCK
 62
     0
 10
3135.84723
 20
2697.154412
 30
0.0
 11
3135.84723
 21
2696.487745
 31
0.0
 12
3137.84723
 22
2696.821079
 32
0.0
 13
3137.84723
 23
2696.821079
 33
0.0
  0
TEXT
  8
0
  40
3
  5
59CB
  62
0
  72
0
  71
0
 10
3116.95
 20
2694.64
 30
0.000000
  1
29.8
  0
POINT
  5
584A
  8
DEFPOINTS
  6
BYBLOCK
 62
     0
 10
3108.04723
 20
2707.708997
 30
0.0
  0
POINT
  5
584B
  8
DEFPOINTS
  6
BYBLOCK
 62
     0
 10
3137.84723
 20
2707.708997
 30
0.0
  0
POINT
  5
584C
  8
DEFPOINTS
  6
BYBLOCK
 62
     0
 10
3137.84723
 20
2696.821079
 30
0.0
  0
ENDBLK
  5
584D
  8
0
  0
BLOCK
  8
0
  2
*D14
 70
     1
 10
0.0
 20
0.0
 30
0.0
  3
*D14
  1

  0
LINE
  5
584F
  8
0
  6
BYBLOCK
 62
     0
 10
3122.22223
 20
2729.508997
 30
0.0
 11
3086.013072
 21
2729.508997
 31
0.0
  0
LINE
  5
5850
  8
0
  6
BYBLOCK
 62
     0
 10
3107.42223
 20
2742.708997
 30
0.0
 11
3086.013072
 21
2742.708997
 31
0.0
  0
LINE
  5
5851
  8
0
  6
BYBLOCK
 62
     0
 10
3087.263072
 20
2731.508997
 30
0.0
 11
3087.263072
 21
2740.708997
 31
0.0
  0
SOLID
  5
5852
  8
0
  6
BYBLOCK
 62
     0
 10
3086.929739
 20
2731.508997
 30
0.0
 11
3087.596406
 21
2731.508997
 31
0.0
 12
3087.263072
 22
2729.508997
 32
0.0
 13
3087.263072
 23
2729.508997
 33
0.0
  0
SOLID
  5
5853
  8
0
  6
BYBLOCK
 62
     0
 10
3086.929739
 20
2740.708997
 30
0.0
 11
3087.596406
 21
2740.708997
 31
0.0
 12
3087.263072
 22
2742.708997
 32
0.0
 13
3087.263072
 23
2742.708997
 33
0.0
  0
TEXT
  8
0
  40
3
  5
59CC
  62
0
  72
0
  71
0
 10
3078.14
 20
2730.80
 30
0.000000
  1
13.2
  0
POINT
  5
5855
  8
DEFPOINTS
  6
BYBLOCK
 62
     0
 10
3122.84723
 20
2729.508997
 30
0.0
  0
POINT
  5
5856
  8
DEFPOINTS
  6
BYBLOCK
 62
     0
 10
3108.04723
 20
2742.708997
 30
0.0
  0
POINT
  5
5857
  8
DEFPOINTS
  6
BYBLOCK
 62
     0
 10
3087.263072
 20
2742.708997
 30
0.0
  0
ENDBLK
  5
5858
  8
0
  0
BLOCK
  8
0
  2
*D15
 70
     1
 10
0.0
 20
0.0
 30
0.0
  3
*D15
  1

  0
LINE
  5
585A
  8
0
  6
BYBLOCK
 62
     0
 10
3136.598082
 20
2762.825737
 30
0.0
 11
3127.272785
 21
2740.231611
 31
0.0
  0
LINE
  5
585B
  8
0
  6
BYBLOCK
 62
     0
 10
3118.421674
 20
2718.786383
 30
0.0
 11
3117.658647
 21
2716.937656
 31
0.0
  0
TEXT
  8
0
  40
3
  5
59CD
  62
0
  72
0
  71
0
 10
3124.99
 20
2752.12
 30
0.000000
  1
%%c19.2
  0
LINE
  5
585D
  8
0
  6
BYBLOCK
 62
     0
 10
3119.184701
 20
2720.635109
 30
0.0
 11
3126.509759
 21
2738.382885
 31
0.0
  0
SOLID
  5
585E
  8
0
  6
BYBLOCK
 62
     0
 10
3118.113553
 20
2718.913554
 30
0.0
 11
3118.729795
 21
2718.659212
 31
0.0
 12
3119.184701
 22
2720.635109
 32
0.0
 13
3119.184701
 23
2720.635109
 33
0.0
  0
SOLID
  5
585F
  8
0
  6
BYBLOCK
 62
     0
 10
3126.964664
 20
2740.358782
 30
0.0
 11
3127.580906
 21
2740.10444
 31
0.0
 12
3126.509759
 22
2738.382885
 32
0.0
 13
3126.509759
 23
2738.382885
 33
0.0
  0
POINT
  5
5860
  8
DEFPOINTS
  6
BYBLOCK
 62
     0
 10
3126.509759
 20
2738.382885
 30
0.0
  0
POINT
  5
5861
  8
DEFPOINTS
  6
BYBLOCK
 62
     0
 10
3119.184701
 20
2720.635109
 30
0.0
  0
ENDBLK
  5
5862
  8
0
  0
BLOCK
  8
0
  2
*D16
 70
     1
 10
0.0
 20
0.0
 30
0.0
  3
*D16
  1

  0
LINE
  5
5864
  8
0
  6
BYBLOCK
 62
     0
 10
3250.307104
 20
2678.899651
 30
0.0
 11
3237.351026
 21
2678.899651
 31
0.0
  0
LINE
  5
5865
  8
0
  6
BYBLOCK
 62
     0
 10
3244.148148
 20
2684.899651
 30
0.0
 11
3237.351026
 21
2684.899651
 31
0.0
  0
LINE
  5
5866
  8
0
  6
BYBLOCK
 62
     0
 10
3238.601026
 20
2676.899651
 30
0.0
 11
3238.601026
 21
2674.899651
 31
0.0
  0
LINE
  5
5867
  8
0
  6
BYBLOCK
 62
     0
 10
3238.601026
 20
2686.899651
 30
0.0
 11
3238.601026
 21
2688.899651
 31
0.0
  0
LINE
  5
5868
  8
0
  6
BYBLOCK
 62
     0
 10
3238.601026
 20
2678.899651
 30
0.0
 11
3238.601026
 21
2684.899651
 31
0.0
  0
SOLID
  5
5869
  8
0
  6
BYBLOCK
 62
     0
 10
3238.267693
 20
2676.899651
 30
0.0
 11
3238.93436
 21
2676.899651
 31
0.0
 12
3238.601026
 22
2678.899651
 32
0.0
 13
3238.601026
 23
2678.899651
 33
0.0
  0
SOLID
  5
586A
  8
0
  6
BYBLOCK
 62
     0
 10
3238.267693
 20
2686.899651
 30
0.0
 11
3238.93436
 21
2686.899651
 31
0.0
 12
3238.601026
 22
2684.899651
 32
0.0
 13
3238.601026
 23
2684.899651
 33
0.0
  0
TEXT
  8
0
  40
3
  5
59CE
  62
0
  72
0
  71
0
 10
3229.48
 20
2676.59
 30
0.000000
  1
6
  0
POINT
  5
586C
  8
DEFPOINTS
  6
BYBLOCK
 62
     0
 10
3250.932104
 20
2678.899651
 30
0.0
  0
POINT
  5
586D
  8
DEFPOINTS
  6
BYBLOCK
 62
     0
 10
3244.773148
 20
2684.899651
 30
0.0
  0
POINT
  5
586E
  8
DEFPOINTS
  6
BYBLOCK
 62
     0
 10
3238.601026
 20
2684.899651
 30
0.0
  0
ENDBLK
  5
586F
  8
0
  0
BLOCK
  8
0
  2
*D17
 70
     1
 10
0.0
 20
0.0
 30
0.0
  3
*D17
  1

  0
LINE
  5
5871
  8
0
  6
BYBLOCK
 62
     0
 10
3244.773148
 20
2685.524651
 30
0.0
 11
3244.773148
 21
2694.509721
 31
0.0
  0
LINE
  5
5872
  8
0
  6
BYBLOCK
 62
     0
 10
3279.773148
 20
2685.524651
 30
0.0
 11
3279.773148
 21
2694.509721
 31
0.0
  0
LINE
  5
5873
  8
0
  6
BYBLOCK
 62
     0
 10
3246.773148
 20
2693.259721
 30
0.0
 11
3277.773148
 21
2693.259721
 31
0.0
  0
SOLID
  5
5874
  8
0
  6
BYBLOCK
 62
     0
 10
3246.773148
 20
2693.593054
 30
0.0
 11
3246.773148
 21
2692.926387
 31
0.0
 12
3244.773148
 22
2693.259721
 32
0.0
 13
3244.773148
 23
2693.259721
 33
0.0
  0
SOLID
  5
5875
  8
0
  6
BYBLOCK
 62
     0
 10
3277.773148
 20
2693.593054
 30
0.0
 11
3277.773148
 21
2692.926387
 31
0.0
 12
3279.773148
 22
2693.259721
 32
0.0
 13
3279.773148
 23
2693.259721
 33
0.0
  0
TEXT
  8
0
  40
3
  5
59CF
  62
0
  72
0
  71
0
 10
3256.27
 20
2691.07
 30
0.000000
  1
35
  0
POINT
  5
5877
  8
DEFPOINTS
  6
BYBLOCK
 62
     0
 10
3244.773148
 20
2684.899651
 30
0.0
  0
POINT
  5
5878
  8
DEFPOINTS
  6
BYBLOCK
 62
     0
 10
3279.773148
 20
2684.899651
 30
0.0
  0
POINT
  5
5879
  8
DEFPOINTS
  6
BYBLOCK
 62
     0
 10
3279.773148
 20
2693.259721
 30
0.0
  0
ENDBLK
  5
587A
  8
0
  0
BLOCK
  8
0
  2
*D18
 70
     1
 10
0.0
 20
0.0
 30
0.0
  3
*D18
  1

  0
LINE
  5
587C
  8
0
  6
BYBLOCK
 62
     0
 10
3244.773148
 20
2685.524651
 30
0.0
 11
3244.773148
 21
2689.003371
 31
0.0
  0
LINE
  5
587D
  8
0
  6
BYBLOCK
 62
     0
 10
3250.932104
 20
2679.524651
 30
0.0
 11
3250.932104
 21
2689.003371
 31
0.0
  0
LINE
  5
587E
  8
0
  6
BYBLOCK
 62
     0
 10
3242.773148
 20
2687.753371
 30
0.0
 11
3240.773148
 21
2687.753371
 31
0.0
  0
LINE
  5
587F
  8
0
  6
BYBLOCK
 62
     0
 10
3252.932104
 20
2687.753371
 30
0.0
 11
3266.182104
 21
2687.753371
 31
0.0
  0
LINE
  5
5880
  8
0
  6
BYBLOCK
 62
     0
 10
3244.773148
 20
2687.753371
 30
0.0
 11
3250.932104
 21
2687.753371
 31
0.0
  0
SOLID
  5
5881
  8
0
  6
BYBLOCK
 62
     0
 10
3242.773148
 20
2688.086705
 30
0.0
 11
3242.773148
 21
2687.420038
 31
0.0
 12
3244.773148
 22
2687.753371
 32
0.0
 13
3244.773148
 23
2687.753371
 33
0.0
  0
SOLID
  5
5882
  8
0
  6
BYBLOCK
 62
     0
 10
3252.932104
 20
2688.086705
 30
0.0
 11
3252.932104
 21
2687.420038
 31
0.0
 12
3250.932104
 22
2687.753371
 32
0.0
 13
3250.932104
 23
2687.753371
 33
0.0
  0
TEXT
  8
0
  40
3
  5
59D0
  62
0
  72
0
  71
0
 10
3254.56
 20
2685.57
 30
0.000000
  1
6.16
  0
POINT
  5
5884
  8
DEFPOINTS
  6
BYBLOCK
 62
     0
 10
3244.773148
 20
2684.899651
 30
0.0
  0
POINT
  5
5885
  8
DEFPOINTS
  6
BYBLOCK
 62
     0
 10
3250.932104
 20
2678.899651
 30
0.0
  0
POINT
  5
5886
  8
DEFPOINTS
  6
BYBLOCK
 62
     0
 10
3250.932104
 20
2687.753371
 30
0.0
  0
ENDBLK
  5
5887
  8
0
  0
BLOCK
  8
0
  2
*D19
 70
     1
 10
0.0
 20
0.0
 30
0.0
  3
*D19
  1

  0
LINE
  5
5889
  8
0
  6
BYBLOCK
 62
     0
 10
3280.398148
 20
2609.899651
 30
0.0
 11
3289.875559
 21
2609.899651
 31
0.0
  0
LINE
  5
588A
  8
0
  6
BYBLOCK
 62
     0
 10
3280.398148
 20
2684.899651
 30
0.0
 11
3289.875559
 21
2684.899651
 31
0.0
  0
LINE
  5
588B
  8
0
  6
BYBLOCK
 62
     0
 10
3288.625559
 20
2611.899651
 30
0.0
 11
3288.625559
 21
2682.899651
 31
0.0
  0
SOLID
  5
588C
  8
0
  6
BYBLOCK
 62
     0
 10
3288.292226
 20
2611.899651
 30
0.0
 11
3288.958892
 21
2611.899651
 31
0.0
 12
3288.625559
 22
2609.899651
 32
0.0
 13
3288.625559
 23
2609.899651
 33
0.0
  0
SOLID
  5
588D
  8
0
  6
BYBLOCK
 62
     0
 10
3288.292226
 20
2682.899651
 30
0.0
 11
3288.958892
 21
2682.899651
 31
0.0
 12
3288.625559
 22
2684.899651
 32
0.0
 13
3288.625559
 23
2684.899651
 33
0.0
  0
TEXT
  8
0
  40
3
  5
59D1
  62
0
  72
0
  71
0
 10
3279.50
 20
2642.09
 30
0.000000
  1
75
  0
POINT
  5
588F
  8
DEFPOINTS
  6
BYBLOCK
 62
     0
 10
3279.773148
 20
2609.899651
 30
0.0
  0
POINT
  5
5890
  8
DEFPOINTS
  6
BYBLOCK
 62
     0
 10
3279.773148
 20
2684.899651
 30
0.0
  0
POINT
  5
5891
  8
DEFPOINTS
  6
BYBLOCK
 62
     0
 10
3288.625559
 20
2684.899651
 30
0.0
  0
ENDBLK
  5
5892
  8
0
  0
BLOCK
  8
0
  2
*D20
 70
     1
 10
0.0
 20
0.0
 30
0.0
  3
*D20
  1

  0
LINE
  5
5894
  8
0
  6
BYBLOCK
 62
     0
 10
3206.84723
 20
2609.274651
 30
0.0
 11
3206.84723
 21
2598.946472
 31
0.0
  0
LINE
  5
5895
  8
0
  6
BYBLOCK
 62
     0
 10
3222.04723
 20
2609.274651
 30
0.0
 11
3222.04723
 21
2598.946472
 31
0.0
  0
LINE
  5
5896
  8
0
  6
BYBLOCK
 62
     0
 10
3208.84723
 20
2600.196472
 30
0.0
 11
3220.04723
 21
2600.196472
 31
0.0
  0
SOLID
  5
5897
  8
0
  6
BYBLOCK
 62
     0
 10
3208.84723
 20
2600.529805
 30
0.0
 11
3208.84723
 21
2599.863139
 31
0.0
 12
3206.84723
 22
2600.196472
 32
0.0
 13
3206.84723
 23
2600.196472
 33
0.0
  0
SOLID
  5
5898
  8
0
  6
BYBLOCK
 62
     0
 10
3220.04723
 20
2600.529805
 30
0.0
 11
3220.04723
 21
2599.863139
 31
0.0
 12
3222.04723
 22
2600.196472
 32
0.0
 13
3222.04723
 23
2600.196472
 33
0.0
  0
TEXT
  8
0
  40
3
  5
59D2
  62
0
  72
0
  71
0
 10
3208.45
 20
2598.01
 30
0.000000
  1
15.2
  0
POINT
  5
589A
  8
DEFPOINTS
  6
BYBLOCK
 62
     0
 10
3206.84723
 20
2609.899651
 30
0.0
  0
POINT
  5
589B
  8
DEFPOINTS
  6
BYBLOCK
 62
     0
 10
3222.04723
 20
2609.899651
 30
0.0
  0
POINT
  5
589C
  8
DEFPOINTS
  6
BYBLOCK
 62
     0
 10
3222.04723
 20
2600.196472
 30
0.0
  0
ENDBLK
  5
589D
  8
0
  0
BLOCK
  8
0
  2
*D21
 70
     1
 10
0.0
 20
0.0
 30
0.0
  3
*D21
  1

  0
LINE
  5
589F
  8
0
  6
BYBLOCK
 62
     0
 10
3234.43406
 20
2646.055368
 30
0.0
 11
3247.474726
 21
2659.369714
 31
0.0
  0
LINE
  5
58A0
  8
0
  6
BYBLOCK
 62
     0
 10
3254.389482
 20
2666.429588
 30
0.0
 11
3255.788934
 21
2667.85841
 31
0.0
  0
TEXT
  8
0
  40
3
  5
59D3
  62
0
  72
0
  71
0
 10
3229.09
 20
2645.88
 30
0.000000
  1
M6
  0
LINE
  5
58A2
  8
0
  6
BYBLOCK
 62
     0
 10
3252.99003
 20
2665.000766
 30
0.0
 11
3248.874178
 21
2660.798537
 31
0.0
  0
SOLID
  5
58A3
  8
0
  6
BYBLOCK
 62
     0
 10
3254.151345
 20
2666.66283
 30
0.0
 11
3254.627619
 21
2666.196346
 31
0.0
 12
3252.99003
 22
2665.000766
 32
0.0
 13
3252.99003
 23
2665.000766
 33
0.0
  0
SOLID
  5
58A4
  8
0
  6
BYBLOCK
 62
     0
 10
3247.236589
 20
2659.602956
 30
0.0
 11
3247.712863
 21
2659.136472
 31
0.0
 12
3248.874178
 22
2660.798537
 32
0.0
 13
3248.874178
 23
2660.798537
 33
0.0
  0
POINT
  5
58A5
  8
DEFPOINTS
  6
BYBLOCK
 62
     0
 10
3248.874178
 20
2660.798537
 30
0.0
  0
POINT
  5
58A6
  8
DEFPOINTS
  6
BYBLOCK
 62
     0
 10
3252.99003
 20
2665.000766
 30
0.0
  0
ENDBLK
  5
58A7
  8
0
  0
BLOCK
  8
0
  2
*D22
 70
     1
 10
0.0
 20
0.0
 30
0.0
  3
*D22
  1

  0
LINE
  5
58A9
  8
0
  6
BYBLOCK
 62
     0
 10
3250.307104
 20
2662.899651
 30
0.0
 11
3237.351026
 21
2662.899651
 31
0.0
  0
LINE
  5
58AA
  8
0
  6
BYBLOCK
 62
     0
 10
3250.307104
 20
2678.899651
 30
0.0
 11
3237.351026
 21
2678.899651
 31
0.0
  0
LINE
  5
58AB
  8
0
  6
BYBLOCK
 62
     0
 10
3238.601026
 20
2664.899651
 30
0.0
 11
3238.601026
 21
2676.899651
 31
0.0
  0
SOLID
  5
58AC
  8
0
  6
BYBLOCK
 62
     0
 10
3238.267693
 20
2664.899651
 30
0.0
 11
3238.93436
 21
2664.899651
 31
0.0
 12
3238.601026
 22
2662.899651
 32
0.0
 13
3238.601026
 23
2662.899651
 33
0.0
  0
SOLID
  5
58AD
  8
0
  6
BYBLOCK
 62
     0
 10
3238.267693
 20
2676.899651
 30
0.0
 11
3238.93436
 21
2676.899651
 31
0.0
 12
3238.601026
 22
2678.899651
 32
0.0
 13
3238.601026
 23
2678.899651
 33
0.0
  0
TEXT
  8
0
  40
3
  5
59D4
  62
0
  72
0
  71
0
 10
3229.48
 20
2665.59
 30
0.000000
  1
16
  0
POINT
  5
58AF
  8
DEFPOINTS
  6
BYBLOCK
 62
     0
 10
3250.932104
 20
2662.899651
 30
0.0
  0
POINT
  5
58B0
  8
DEFPOINTS
  6
BYBLOCK
 62
     0
 10
3250.932104
 20
2678.899651
 30
0.0
  0
POINT
  5
58B1
  8
DEFPOINTS
  6
BYBLOCK
 62
     0
 10
3238.601026
 20
2678.899651
 30
0.0
  0
ENDBLK
  5
58B2
  8
0
  0
BLOCK
  8
0
  2
*D23
 70
     1
 10
0.0
 20
0.0
 30
0.0
  3
*D23
  1

  0
LINE
  5
58B4
  8
0
  6
BYBLOCK
 62
     0
 10
3122.84723
 20
2730.133997
 30
0.0
 11
3122.84723
 21
2767.564333
 31
0.0
  0
LINE
  5
58B5
  8
0
  6
BYBLOCK
 62
     0
 10
3206.84723
 20
2730.133997
 30
0.0
 11
3206.84723
 21
2767.564333
 31
0.0
  0
LINE
  5
58B6
  8
0
  6
BYBLOCK
 62
     0
 10
3124.84723
 20
2766.314333
 30
0.0
 11
3204.84723
 21
2766.314333
 31
0.0
  0
SOLID
  5
58B7
  8
0
  6
BYBLOCK
 62
     0
 10
3124.84723
 20
2766.647667
 30
0.0
 11
3124.84723
 21
2765.981
 31
0.0
 12
3122.84723
 22
2766.314333
 32
0.0
 13
3122.84723
 23
2766.314333
 33
0.0
  0
SOLID
  5
58B8
  8
0
  6
BYBLOCK
 62
     0
 10
3204.84723
 20
2766.647667
 30
0.0
 11
3204.84723
 21
2765.981
 31
0.0
 12
3206.84723
 22
2766.314333
 32
0.0
 13
3206.84723
 23
2766.314333
 33
0.0
  0
TEXT
  8
0
  40
2
  5
59D5
  62
0
  72
0
  71
0
 10
3157.52
 20
2764.77
 30
0.000000
  1
84
  0
POINT
  5
58BA
  8
DEFPOINTS
  6
BYBLOCK
 62
     0
 10
3122.84723
 20
2729.508997
 30
0.0
  0
POINT
  5
58BB
  8
DEFPOINTS
  6
BYBLOCK
 62
     0
 10
3206.84723
 20
2729.508997
 30
0.0
  0
POINT
  5
58BC
  8
DEFPOINTS
  6
BYBLOCK
 62
     0
 10
3206.84723
 20
2766.314333
 30
0.0
  0
ENDBLK
  5
58BD
  8
0
  0
BLOCK
  8
0
  2
*D24
 70
     1
 10
0.0
 20
0.0
 30
0.0
  3
*D24
  1

  0
LINE
  5
58BF
  8
0
  6
BYBLOCK
 62
     0
 10
3122.67223
 20
2161.711918
 30
0.0
 11
3122.67223
 21
2199.142254
 31
0.0
  0
LINE
  5
58C0
  8
0
  6
BYBLOCK
 62
     0
 10
3207.02223
 20
2161.711918
 30
0.0
 11
3207.02223
 21
2199.142254
 31
0.0
  0
LINE
  5
58C1
  8
0
  6
BYBLOCK
 62
     0
 10
3124.67223
 20
2197.892254
 30
0.0
 11
3205.02223
 21
2197.892254
 31
0.0
  0
SOLID
  5
58C2
  8
0
  6
BYBLOCK
 62
     0
 10
3124.67223
 20
2198.225588
 30
0.0
 11
3124.67223
 21
2197.558921
 31
0.0
 12
3122.67223
 22
2197.892254
 32
0.0
 13
3122.67223
 23
2197.892254
 33
0.0
  0
SOLID
  5
58C3
  8
0
  6
BYBLOCK
 62
     0
 10
3205.02223
 20
2198.225588
 30
0.0
 11
3205.02223
 21
2197.558921
 31
0.0
 12
3207.02223
 22
2197.892254
 32
0.0
 13
3207.02223
 23
2197.892254
 33
0.0
  0
TEXT
  8
0
  40
2
  5
59D6
  62
0
  72
0
  71
0
 10
3157.34
 20
2196.35
 30
0.000000
  1
84.35
  0
POINT
  5
58C5
  8
DEFPOINTS
  6
BYBLOCK
 62
     0
 10
3122.67223
 20
2161.086918
 30
0.0
  0
POINT
  5
58C6
  8
DEFPOINTS
  6
BYBLOCK
 62
     0
 10
3207.02223
 20
2161.086918
 30
0.0
  0
POINT
  5
58C7
  8
DEFPOINTS
  6
BYBLOCK
 62
     0
 10
3207.02223
 20
2197.892254
 30
0.0
  0
ENDBLK
  5
58C8
  8
0
  0
BLOCK
  8
0
  2
*D25
 70
     1
 10
0.0
 20
0.0
 30
0.0
  3
*D25
  1

  0
LINE
  5
58CA
  8
0
  6
BYBLOCK
 62
     0
 10
3193.04723
 20
2168.286918
 30
0.0
 11
3241.883533
 21
2168.286918
 31
0.0
  0
LINE
  5
58CB
  8
0
  6
BYBLOCK
 62
     0
 10
3222.84723
 20
2174.286918
 30
0.0
 11
3241.883533
 21
2174.286918
 31
0.0
  0
LINE
  5
58CC
  8
0
  6
BYBLOCK
 62
     0
 10
3240.633533
 20
2166.286918
 30
0.0
 11
3240.633533
 21
2164.286918
 31
0.0
  0
LINE
  5
58CD
  8
0
  6
BYBLOCK
 62
     0
 10
3240.633533
 20
2176.286918
 30
0.0
 11
3240.633533
 21
2178.286918
 31
0.0
  0
LINE
  5
58CE
  8
0
  6
BYBLOCK
 62
     0
 10
3240.633533
 20
2168.286918
 30
0.0
 11
3240.633533
 21
2174.286918
 31
0.0
  0
SOLID
  5
58CF
  8
0
  6
BYBLOCK
 62
     0
 10
3240.300199
 20
2166.286918
 30
0.0
 11
3240.966866
 21
2166.286918
 31
0.0
 12
3240.633533
 22
2168.286918
 32
0.0
 13
3240.633533
 23
2168.286918
 33
0.0
  0
SOLID
  5
58D0
  8
0
  6
BYBLOCK
 62
     0
 10
3240.300199
 20
2176.286918
 30
0.0
 11
3240.966866
 21
2176.286918
 31
0.0
 12
3240.633533
 22
2174.286918
 32
0.0
 13
3240.633533
 23
2174.286918
 33
0.0
  0
TEXT
  8
0
  40
3
  5
59D7
  62
0
  72
0
  71
0
 10
3231.51
 20
2165.98
 30
0.000000
  1
6
  0
POINT
  5
58D2
  8
DEFPOINTS
  6
BYBLOCK
 62
     0
 10
3192.42223
 20
2168.286918
 30
0.0
  0
POINT
  5
58D3
  8
DEFPOINTS
  6
BYBLOCK
 62
     0
 10
3222.22223
 20
2174.286918
 30
0.0
  0
POINT
  5
58D4
  8
DEFPOINTS
  6
BYBLOCK
 62
     0
 10
3240.633533
 20
2174.286918
 30
0.0
  0
ENDBLK
  5
58D5
  8
0
  0
BLOCK
  8
0
  2
*D26
 70
     1
 10
0.0
 20
0.0
 30
0.0
  3
*D26
  1

  0
LINE
  5
58D7
  8
0
  6
BYBLOCK
 62
     0
 10
3205.52223
 20
2138.661918
 30
0.0
 11
3205.52223
 21
2130.430443
 31
0.0
  0
LINE
  5
58D8
  8
0
  6
BYBLOCK
 62
     0
 10
3208.52223
 20
2138.661918
 30
0.0
 11
3208.52223
 21
2130.430443
 31
0.0
  0
LINE
  5
58D9
  8
0
  6
BYBLOCK
 62
     0
 10
3203.52223
 20
2131.680443
 30
0.0
 11
3201.52223
 21
2131.680443
 31
0.0
  0
LINE
  5
58DA
  8
0
  6
BYBLOCK
 62
     0
 10
3210.52223
 20
2131.680443
 30
0.0
 11
3217.77223
 21
2131.680443
 31
0.0
  0
LINE
  5
58DB
  8
0
  6
BYBLOCK
 62
     0
 10
3205.52223
 20
2131.680443
 30
0.0
 11
3208.52223
 21
2131.680443
 31
0.0
  0
SOLID
  5
58DC
  8
0
  6
BYBLOCK
 62
     0
 10
3203.52223
 20
2132.013777
 30
0.0
 11
3203.52223
 21
2131.34711
 31
0.0
 12
3205.52223
 22
2131.680443
 32
0.0
 13
3205.52223
 23
2131.680443
 33
0.0
  0
SOLID
  5
58DD
  8
0
  6
BYBLOCK
 62
     0
 10
3210.52223
 20
2132.013777
 30
0.0
 11
3210.52223
 21
2131.34711
 31
0.0
 12
3208.52223
 22
2131.680443
 32
0.0
 13
3208.52223
 23
2131.680443
 33
0.0
  0
TEXT
  8
0
  40
3
  5
59D8
  62
0
  72
0
  71
0
 10
3209.15
 20
2129.50
 30
0.000000
  1
3
  0
POINT
  5
58DF
  8
DEFPOINTS
  6
BYBLOCK
 62
     0
 10
3205.52223
 20
2139.286918
 30
0.0
  0
POINT
  5
58E0
  8
DEFPOINTS
  6
BYBLOCK
 62
     0
 10
3208.52223
 20
2139.286918
 30
0.0
  0
POINT
  5
58E1
  8
DEFPOINTS
  6
BYBLOCK
 62
     0
 10
3208.52223
 20
2131.680443
 30
0.0
  0
ENDBLK
  5
58E2
  8
0
  0
BLOCK
  8
0
  2
*D27
 70
     1
 10
0.0
 20
0.0
 30
0.0
  3
*D27
  1

  0
LINE
  5
58E4
  8
0
  6
BYBLOCK
 62
     0
 10
3192.42223
 20
2138.661918
 30
0.0
 11
3192.42223
 21
2122.69337
 31
0.0
  0
LINE
  5
58E5
  8
0
  6
BYBLOCK
 62
     0
 10
3222.22223
 20
2138.661918
 30
0.0
 11
3222.22223
 21
2122.69337
 31
0.0
  0
LINE
  5
58E6
  8
0
  6
BYBLOCK
 62
     0
 10
3194.42223
 20
2123.94337
 30
0.0
 11
3220.22223
 21
2123.94337
 31
0.0
  0
SOLID
  5
58E7
  8
0
  6
BYBLOCK
 62
     0
 10
3194.42223
 20
2124.276703
 30
0.0
 11
3194.42223
 21
2123.610037
 31
0.0
 12
3192.42223
 22
2123.94337
 32
0.0
 13
3192.42223
 23
2123.94337
 33
0.0
  0
SOLID
  5
58E8
  8
0
  6
BYBLOCK
 62
     0
 10
3220.22223
 20
2124.276703
 30
0.0
 11
3220.22223
 21
2123.610037
 31
0.0
 12
3222.22223
 22
2123.94337
 32
0.0
 13
3222.22223
 23
2123.94337
 33
0.0
  0
TEXT
  8
0
  40
3
  5
59D9
  62
0
  72
0
  71
0
 10
3201.32
 20
2121.76
 30
0.000000
  1
29.8
  0
POINT
  5
58EA
  8
DEFPOINTS
  6
BYBLOCK
 62
     0
 10
3192.42223
 20
2139.286918
 30
0.0
  0
POINT
  5
58EB
  8
DEFPOINTS
  6
BYBLOCK
 62
     0
 10
3222.22223
 20
2139.286918
 30
0.0
  0
POINT
  5
58EC
  8
DEFPOINTS
  6
BYBLOCK
 62
     0
 10
3222.22223
 20
2123.94337
 30
0.0
  0
ENDBLK
  5
58ED
  8
0
  0
BLOCK
  8
0
  2
*D28
 70
     1
 10
0.0
 20
0.0
 30
0.0
  3
*D28
  1

  0
LINE
  5
58EF
  8
0
  6
BYBLOCK
 62
     0
 10
3122.04723
 20
2161.086918
 30
0.0
 11
3085.838072
 21
2161.086918
 31
0.0
  0
LINE
  5
58F0
  8
0
  6
BYBLOCK
 62
     0
 10
3107.24723
 20
2174.286918
 30
0.0
 11
3085.838072
 21
2174.286918
 31
0.0
  0
LINE
  5
58F1
  8
0
  6
BYBLOCK
 62
     0
 10
3087.088072
 20
2163.086918
 30
0.0
 11
3087.088072
 21
2172.286918
 31
0.0
  0
SOLID
  5
58F2
  8
0
  6
BYBLOCK
 62
     0
 10
3086.754739
 20
2163.086918
 30
0.0
 11
3087.421406
 21
2163.086918
 31
0.0
 12
3087.088072
 22
2161.086918
 32
0.0
 13
3087.088072
 23
2161.086918
 33
0.0
  0
SOLID
  5
58F3
  8
0
  6
BYBLOCK
 62
     0
 10
3086.754739
 20
2172.286918
 30
0.0
 11
3087.421406
 21
2172.286918
 31
0.0
 12
3087.088072
 22
2174.286918
 32
0.0
 13
3087.088072
 23
2174.286918
 33
0.0
  0
TEXT
  8
0
  40
3
  5
59DA
  62
0
  72
0
  71
0
 10
3077.96
 20
2162.38
 30
0.000000
  1
13.2
  0
POINT
  5
58F5
  8
DEFPOINTS
  6
BYBLOCK
 62
     0
 10
3122.67223
 20
2161.086918
 30
0.0
  0
POINT
  5
58F6
  8
DEFPOINTS
  6
BYBLOCK
 62
     0
 10
3107.87223
 20
2174.286918
 30
0.0
  0
POINT
  5
58F7
  8
DEFPOINTS
  6
BYBLOCK
 62
     0
 10
3087.088072
 20
2174.286918
 30
0.0
  0
ENDBLK
  5
58F8
  8
0
  0
BLOCK
  8
0
  2
*D29
 70
     1
 10
0.0
 20
0.0
 30
0.0
  3
*D29
  1

  0
LINE
  5
58FA
  8
0
  6
BYBLOCK
 62
     0
 10
3107.87223
 20
2138.661918
 30
0.0
 11
3107.87223
 21
2127.149
 31
0.0
  0
LINE
  5
58FB
  8
0
  6
BYBLOCK
 62
     0
 10
3137.67223
 20
2138.661918
 30
0.0
 11
3137.67223
 21
2127.149
 31
0.0
  0
LINE
  5
58FC
  8
0
  6
BYBLOCK
 62
     0
 10
3109.87223
 20
2128.399
 30
0.0
 11
3135.67223
 21
2128.399
 31
0.0
  0
SOLID
  5
58FD
  8
0
  6
BYBLOCK
 62
     0
 10
3109.87223
 20
2128.732333
 30
0.0
 11
3109.87223
 21
2128.065666
 31
0.0
 12
3107.87223
 22
2128.399
 32
0.0
 13
3107.87223
 23
2128.399
 33
0.0
  0
SOLID
  5
58FE
  8
0
  6
BYBLOCK
 62
     0
 10
3135.67223
 20
2128.732333
 30
0.0
 11
3135.67223
 21
2128.065666
 31
0.0
 12
3137.67223
 22
2128.399
 32
0.0
 13
3137.67223
 23
2128.399
 33
0.0
  0
TEXT
  8
0
  40
3
  5
59DB
  62
0
  72
0
  71
0
 10
3116.77
 20
2126.21
 30
0.000000
  1
29.8
  0
POINT
  5
5900
  8
DEFPOINTS
  6
BYBLOCK
 62
     0
 10
3107.87223
 20
2139.286918
 30
0.0
  0
POINT
  5
5901
  8
DEFPOINTS
  6
BYBLOCK
 62
     0
 10
3137.67223
 20
2139.286918
 30
0.0
  0
POINT
  5
5902
  8
DEFPOINTS
  6
BYBLOCK
 62
     0
 10
3137.67223
 20
2128.399
 30
0.0
  0
ENDBLK
  5
5903
  8
0
  0
BLOCK
  8
0
  2
*D30
 70
     1
 10
0.0
 20
0.0
 30
0.0
  3
*D30
  1

  0
LINE
  5
5905
  8
0
  6
BYBLOCK
 62
     0
 10
3136.423082
 20
2194.403658
 30
0.0
 11
3127.097785
 21
2171.809532
 31
0.0
  0
LINE
  5
5906
  8
0
  6
BYBLOCK
 62
     0
 10
3118.246674
 20
2150.364304
 30
0.0
 11
3117.483647
 21
2148.515577
 31
0.0
  0
TEXT
  8
0
  40
3
  5
59DC
  62
0
  72
0
  71
0
 10
3124.82
 20
2183.70
 30
0.000000
  1
%%c19.2
  0
LINE
  5
5908
  8
0
  6
BYBLOCK
 62
     0
 10
3119.009701
 20
2152.21303
 30
0.0
 11
3126.334759
 21
2169.960806
 31
0.0
  0
SOLID
  5
5909
  8
0
  6
BYBLOCK
 62
     0
 10
3117.938553
 20
2150.491475
 30
0.0
 11
3118.554795
 21
2150.237133
 31
0.0
 12
3119.009701
 22
2152.21303
 32
0.0
 13
3119.009701
 23
2152.21303
 33
0.0
  0
SOLID
  5
590A
  8
0
  6
BYBLOCK
 62
     0
 10
3126.789664
 20
2171.936703
 30
0.0
 11
3127.405906
 21
2171.682361
 31
0.0
 12
3126.334759
 22
2169.960806
 32
0.0
 13
3126.334759
 23
2169.960806
 33
0.0
  0
POINT
  5
590B
  8
DEFPOINTS
  6
BYBLOCK
 62
     0
 10
3126.334759
 20
2169.960806
 30
0.0
  0
POINT
  5
590C
  8
DEFPOINTS
  6
BYBLOCK
 62
     0
 10
3119.009701
 20
2152.21303
 30
0.0
  0
ENDBLK
  5
590D
  8
0
  0
BLOCK
  8
0
  2
*D31
 70
     1
 10
0.0
 20
0.0
 30
0.0
  3
*D31
  1

  0
LINE
  5
590F
  8
0
  6
BYBLOCK
 62
     0
 10
3005.852548
 20
2462.864537
 30
0.0
 11
3020.859445
 21
2462.864537
 31
0.0
  0
LINE
  5
5910
  8
0
  6
BYBLOCK
 62
     0
 10
3005.852548
 20
2438.864537
 30
0.0
 11
3020.859445
 21
2438.864537
 31
0.0
  0
LINE
  5
5911
  8
0
  6
BYBLOCK
 62
     0
 10
3019.609445
 20
2460.864537
 30
0.0
 11
3019.609445
 21
2440.864537
 31
0.0
  0
SOLID
  5
5912
  8
0
  6
BYBLOCK
 62
     0
 10
3019.276112
 20
2460.864537
 30
0.0
 11
3019.942779
 21
2460.864537
 31
0.0
 12
3019.609445
 22
2462.864537
 32
0.0
 13
3019.609445
 23
2462.864537
 33
0.0
  0
SOLID
  5
5913
  8
0
  6
BYBLOCK
 62
     0
 10
3019.276112
 20
2440.864537
 30
0.0
 11
3019.942779
 21
2440.864537
 31
0.0
 12
3019.609445
 22
2438.864537
 32
0.0
 13
3019.609445
 23
2438.864537
 33
0.0
  0
TEXT
  8
0
  40
2
  5
59DD
  62
0
  72
0
  71
0
 10
3013.61
 20
2448.34
 30
0.000000
  1
24
  0
POINT
  5
5915
  8
DEFPOINTS
  6
BYBLOCK
 62
     0
 10
3005.227548
 20
2462.864537
 30
0.0
  0
POINT
  5
5916
  8
DEFPOINTS
  6
BYBLOCK
 62
     0
 10
3005.227548
 20
2438.864537
 30
0.0
  0
POINT
  5
5917
  8
DEFPOINTS
  6
BYBLOCK
 62
     0
 10
3019.609445
 20
2438.864537
 30
0.0
  0
ENDBLK
  5
5918
  8
0
  0
BLOCK
  8
0
  2
*D32
 70
     1
 10
0.0
 20
0.0
 30
0.0
  3
*D32
  1

  0
LINE
  5
591A
  8
0
  6
BYBLOCK
 62
     0
 10
3003.927548
 20
2463.489537
 30
0.0
 11
3003.927548
 21
2470.418716
 31
0.0
  0
LINE
  5
591B
  8
0
  6
BYBLOCK
 62
     0
 10
2996.227548
 20
2463.489537
 30
0.0
 11
2996.227548
 21
2470.418716
 31
0.0
  0
LINE
  5
591C
  8
0
  6
BYBLOCK
 62
     0
 10
3001.927548
 20
2469.168716
 30
0.0
 11
2998.227548
 21
2469.168716
 31
0.0
  0
SOLID
  5
591D
  8
0
  6
BYBLOCK
 62
     0
 10
3001.927548
 20
2469.502049
 30
0.0
 11
3001.927548
 21
2468.835382
 31
0.0
 12
3003.927548
 22
2469.168716
 32
0.0
 13
3003.927548
 23
2469.168716
 33
0.0
  0
SOLID
  5
591E
  8
0
  6
BYBLOCK
 62
     0
 10
2998.227548
 20
2469.502049
 30
0.0
 11
2998.227548
 21
2468.835382
 31
0.0
 12
2996.227548
 22
2469.168716
 32
0.0
 13
2996.227548
 23
2469.168716
 33
0.0
  0
TEXT
  8
0
  40
2
  5
59DE
  62
0
  72
0
  71
0
 10
2996.08
 20
2467.63
 30
0.000000
  1
7.7
  0
POINT
  5
5920
  8
DEFPOINTS
  6
BYBLOCK
 62
     0
 10
3003.927548
 20
2462.864537
 30
0.0
  0
POINT
  5
5921
  8
DEFPOINTS
  6
BYBLOCK
 62
     0
 10
2996.227548
 20
2462.864537
 30
0.0
  0
POINT
  5
5922
  8
DEFPOINTS
  6
BYBLOCK
 62
     0
 10
2996.227548
 20
2469.168716
 30
0.0
  0
ENDBLK
  5
5923
  8
0
  0
BLOCK
  8
0
  2
*D33
 70
     1
 10
0.0
 20
0.0
 30
0.0
  3
*D33
  1

  0
LINE
  5
5925
  8
0
  6
BYBLOCK
 62
     0
 10
3222.84723
 20
2501.128194
 30
0.0
 11
3253.383127
 21
2501.128194
 31
0.0
  0
LINE
  5
5926
  8
0
  6
BYBLOCK
 62
     0
 10
3222.84723
 20
2251.128194
 30
0.0
 11
3253.383127
 21
2251.128194
 31
0.0
  0
LINE
  5
5927
  8
0
  6
BYBLOCK
 62
     0
 10
3252.133127
 20
2499.128194
 30
0.0
 11
3252.133127
 21
2253.128194
 31
0.0
  0
SOLID
  5
5928
  8
0
  6
BYBLOCK
 62
     0
 10
3251.799793
 20
2499.128194
 30
0.0
 11
3252.46646
 21
2499.128194
 31
0.0
 12
3252.133127
 22
2501.128194
 32
0.0
 13
3252.133127
 23
2501.128194
 33
0.0
  0
SOLID
  5
5929
  8
0
  6
BYBLOCK
 62
     0
 10
3251.799793
 20
2253.128194
 30
0.0
 11
3252.46646
 21
2253.128194
 31
0.0
 12
3252.133127
 22
2251.128194
 32
0.0
 13
3252.133127
 23
2251.128194
 33
0.0
  0
TEXT
  8
0
  40
2
  5
59DF
  62
0
  72
0
  71
0
 10
3246.13
 20
2360.43
 30
0.000000
  1
250
  0
POINT
  5
592B
  8
DEFPOINTS
  6
BYBLOCK
 62
     0
 10
3222.22223
 20
2501.128194
 30
0.0
  0
POINT
  5
592C
  8
DEFPOINTS
  6
BYBLOCK
 62
     0
 10
3222.22223
 20
2251.128194
 30
0.0
  0
POINT
  5
592D
  8
DEFPOINTS
  6
BYBLOCK
 62
     0
 10
3252.133127
 20
2251.128194
 30
0.0
  0
ENDBLK
  5
592E
  8
0
  0
BLOCK
  8
0
  2
*D34
 70
     1
 10
0.0
 20
0.0
 30
0.0
  3
*D34
  1

  0
LINE
  5
5930
  8
0
  6
BYBLOCK
 62
     0
 10
3459.73773
 20
2521.128194
 30
0.0
 11
3529.224072
 21
2521.128194
 31
0.0
  0
LINE
  5
5931
  8
0
  6
BYBLOCK
 62
     0
 10
3459.73773
 20
2487.128194
 30
0.0
 11
3529.224072
 21
2487.128194
 31
0.0
  0
LINE
  5
5932
  8
0
  6
BYBLOCK
 62
     0
 10
3527.974072
 20
2519.128194
 30
0.0
 11
3527.974072
 21
2489.128194
 31
0.0
  0
SOLID
  5
5933
  8
0
  6
BYBLOCK
 62
     0
 10
3527.640738
 20
2519.128194
 30
0.0
 11
3528.307405
 21
2519.128194
 31
0.0
 12
3527.974072
 22
2521.128194
 32
0.0
 13
3527.974072
 23
2521.128194
 33
0.0
  0
SOLID
  5
5934
  8
0
  6
BYBLOCK
 62
     0
 10
3527.640738
 20
2489.128194
 30
0.0
 11
3528.307405
 21
2489.128194
 31
0.0
 12
3527.974072
 22
2487.128194
 32
0.0
 13
3527.974072
 23
2487.128194
 33
0.0
  0
TEXT
  8
0
  40
2
  5
59E0
  62
0
  72
0
  71
0
 10
3521.97
 20
2499.35
 30
0.000000
  1
34
  0
POINT
  5
5936
  8
DEFPOINTS
  6
BYBLOCK
 62
     0
 10
3459.11273
 20
2521.128194
 30
0.0
  0
POINT
  5
5937
  8
DEFPOINTS
  6
BYBLOCK
 62
     0
 10
3459.11273
 20
2487.128194
 30
0.0
  0
POINT
  5
5938
  8
DEFPOINTS
  6
BYBLOCK
 62
     0
 10
3527.974072
 20
2487.128194
 30
0.0
  0
ENDBLK
  5
5939
  8
0
  0
BLOCK
  8
0
  2
*D35
 70
     1
 10
0.0
 20
0.0
 30
0.0
  3
*D35
  1

  0
LINE
  5
593B
  8
0
  6
BYBLOCK
 62
     0
 10
3462.73773
 20
2276.428194
 30
0.0
 11
3525.762077
 21
2276.428194
 31
0.0
  0
LINE
  5
593C
  8
0
  6
BYBLOCK
 62
     0
 10
3466.73773
 20
2256.128194
 30
0.0
 11
3525.762077
 21
2256.128194
 31
0.0
  0
LINE
  5
593D
  8
0
  6
BYBLOCK
 62
     0
 10
3524.512077
 20
2274.428194
 30
0.0
 11
3524.512077
 21
2258.128194
 31
0.0
  0
SOLID
  5
593E
  8
0
  6
BYBLOCK
 62
     0
 10
3524.178743
 20
2274.428194
 30
0.0
 11
3524.84541
 21
2274.428194
 31
0.0
 12
3524.512077
 22
2276.428194
 32
0.0
 13
3524.512077
 23
2276.428194
 33
0.0
  0
SOLID
  5
593F
  8
0
  6
BYBLOCK
 62
     0
 10
3524.178743
 20
2258.128194
 30
0.0
 11
3524.84541
 21
2258.128194
 31
0.0
 12
3524.512077
 22
2256.128194
 32
0.0
 13
3524.512077
 23
2256.128194
 33
0.0
  0
TEXT
  8
0
  40
2
  5
59E1
  62
0
  72
0
  71
0
 10
3518.51
 20
2263.08
 30
0.000000
  1
20.3
  0
POINT
  5
5941
  8
DEFPOINTS
  6
BYBLOCK
 62
     0
 10
3462.11273
 20
2276.428194
 30
0.0
  0
POINT
  5
5942
  8
DEFPOINTS
  6
BYBLOCK
 62
     0
 10
3466.11273
 20
2256.128194
 30
0.0
  0
POINT
  5
5943
  8
DEFPOINTS
  6
BYBLOCK
 62
     0
 10
3524.512077
 20
2256.128194
 30
0.0
  0
ENDBLK
  5
5944
  8
0
  0
BLOCK
  8
0
  2
*D36
 70
     1
 10
0.0
 20
0.0
 30
0.0
  3
*D36
  1

  0
LINE
  5
5946
  8
0
  6
BYBLOCK
 62
     0
 10
3222.84723
 20
2259.128194
 30
0.0
 11
3240.745588
 21
2259.128194
 31
0.0
  0
LINE
  5
5947
  8
0
  6
BYBLOCK
 62
     0
 10
3222.84723
 20
2493.128194
 30
0.0
 11
3240.745588
 21
2493.128194
 31
0.0
  0
LINE
  5
5948
  8
0
  6
BYBLOCK
 62
     0
 10
3239.495588
 20
2261.128194
 30
0.0
 11
3239.495588
 21
2491.128194
 31
0.0
  0
SOLID
  5
5949
  8
0
  6
BYBLOCK
 62
     0
 10
3239.162255
 20
2261.128194
 30
0.0
 11
3239.828922
 21
2261.128194
 31
0.0
 12
3239.495588
 22
2259.128194
 32
0.0
 13
3239.495588
 23
2259.128194
 33
0.0
  0
SOLID
  5
594A
  8
0
  6
BYBLOCK
 62
     0
 10
3239.162255
 20
2491.128194
 30
0.0
 11
3239.828922
 21
2491.128194
 31
0.0
 12
3239.495588
 22
2493.128194
 32
0.0
 13
3239.495588
 23
2493.128194
 33
0.0
  0
TEXT
  8
0
  40
2
  5
59E2
  62
0
  72
0
  71
0
 10
3233.50
 20
2360.90
 30
0.000000
  1
234
  0
POINT
  5
594C
  8
DEFPOINTS
  6
BYBLOCK
 62
     0
 10
3222.22223
 20
2259.128194
 30
0.0
  0
POINT
  5
594D
  8
DEFPOINTS
  6
BYBLOCK
 62
     0
 10
3222.22223
 20
2493.128194
 30
0.0
  0
POINT
  5
594E
  8
DEFPOINTS
  6
BYBLOCK
 62
     0
 10
3239.495588
 20
2493.128194
 30
0.0
  0
ENDBLK
  5
594F
  8
0
  0
BLOCK
  8
0
  2
*D37
 70
     1
 10
0.0
 20
0.0
 30
0.0
  3
*D37
  1

  0
LINE
  5
5951
  8
0
  6
BYBLOCK
 62
     0
 10
3107.87223
 20
2451.023434
 30
0.0
 11
3107.87223
 21
2461.885476
 31
0.0
  0
LINE
  5
5952
  8
0
  6
BYBLOCK
 62
     0
 10
3222.22223
 20
2451.023434
 30
0.0
 11
3222.22223
 21
2461.885476
 31
0.0
  0
LINE
  5
5953
  8
0
  6
BYBLOCK
 62
     0
 10
3109.87223
 20
2460.635476
 30
0.0
 11
3220.22223
 21
2460.635476
 31
0.0
  0
SOLID
  5
5954
  8
0
  6
BYBLOCK
 62
     0
 10
3109.87223
 20
2460.968809
 30
0.0
 11
3109.87223
 21
2460.302143
 31
0.0
 12
3107.87223
 22
2460.635476
 32
0.0
 13
3107.87223
 23
2460.635476
 33
0.0
  0
SOLID
  5
5955
  8
0
  6
BYBLOCK
 62
     0
 10
3220.22223
 20
2460.968809
 30
0.0
 11
3220.22223
 21
2460.302143
 31
0.0
 12
3222.22223
 22
2460.635476
 32
0.0
 13
3222.22223
 23
2460.635476
 33
0.0
  0
TEXT
  8
0
  40
2
  5
59E3
  62
0
  72
0
  71
0
 10
3179.60
 20
2459.10
 30
0.000000
  1
114.35
  0
POINT
  5
5957
  8
DEFPOINTS
  6
BYBLOCK
 62
     0
 10
3107.87223
 20
2450.398434
 30
0.0
  0
POINT
  5
5958
  8
DEFPOINTS
  6
BYBLOCK
 62
     0
 10
3222.22223
 20
2450.398434
 30
0.0
  0
POINT
  5
5959
  8
DEFPOINTS
  6
BYBLOCK
 62
     0
 10
3222.22223
 20
2460.635476
 30
0.0
  0
ENDBLK
  5
595A
  8
0
  0
BLOCK
  8
0
  2
*D38
 70
     1
 10
0.0
 20
0.0
 30
0.0
  3
*D38
  1

  0
LINE
  5
595C
  8
0
  6
BYBLOCK
 62
     0
 10
3449.11273
 20
2521.753194
 30
0.0
 11
3449.11273
 21
2528.331058
 31
0.0
  0
LINE
  5
595D
  8
0
  6
BYBLOCK
 62
     0
 10
3459.11273
 20
2521.753194
 30
0.0
 11
3459.11273
 21
2528.331058
 31
0.0
  0
LINE
  5
595E
  8
0
  6
BYBLOCK
 62
     0
 10
3451.11273
 20
2527.081058
 30
0.0
 11
3457.11273
 21
2527.081058
 31
0.0
  0
SOLID
  5
595F
  8
0
  6
BYBLOCK
 62
     0
 10
3451.11273
 20
2527.414392
 30
0.0
 11
3451.11273
 21
2526.747725
 31
0.0
 12
3449.11273
 22
2527.081058
 32
0.0
 13
3449.11273
 23
2527.081058
 33
0.0
  0
SOLID
  5
5960
  8
0
  6
BYBLOCK
 62
     0
 10
3457.11273
 20
2527.414392
 30
0.0
 11
3457.11273
 21
2526.747725
 31
0.0
 12
3459.11273
 22
2527.081058
 32
0.0
 13
3459.11273
 23
2527.081058
 33
0.0
  0
TEXT
  8
0
  40
2
  5
59E4
  62
0
  72
0
  71
0
 10
3450.49
 20
2525.54
 30
0.000000
  1
10
  0
POINT
  5
5962
  8
DEFPOINTS
  6
BYBLOCK
 62
     0
 10
3449.11273
 20
2521.128194
 30
0.0
  0
POINT
  5
5963
  8
DEFPOINTS
  6
BYBLOCK
 62
     0
 10
3459.11273
 20
2521.128194
 30
0.0
  0
POINT
  5
5964
  8
DEFPOINTS
  6
BYBLOCK
 62
     0
 10
3459.11273
 20
2527.081058
 30
0.0
  0
ENDBLK
  5
5965
  8
0
  0
BLOCK
  8
0
  2
*D39
 70
     1
 10
0.0
 20
0.0
 30
0.0
  3
*D39
  1

  0
LINE
  5
5967
  8
0
  6
BYBLOCK
 62
     0
 10
3200.84723
 20
2730.133997
 30
0.0
 11
3200.84723
 21
2755.578731
 31
0.0
  0
LINE
  5
5968
  8
0
  6
BYBLOCK
 62
     0
 10
3128.84723
 20
2730.133997
 30
0.0
 11
3128.84723
 21
2755.578731
 31
0.0
  0
LINE
  5
5969
  8
0
  6
BYBLOCK
 62
     0
 10
3198.84723
 20
2754.328731
 30
0.0
 11
3130.84723
 21
2754.328731
 31
0.0
  0
SOLID
  5
596A
  8
0
  6
BYBLOCK
 62
     0
 10
3198.84723
 20
2754.662065
 30
0.0
 11
3198.84723
 21
2753.995398
 31
0.0
 12
3200.84723
 22
2754.328731
 32
0.0
 13
3200.84723
 23
2754.328731
 33
0.0
  0
SOLID
  5
596B
  8
0
  6
BYBLOCK
 62
     0
 10
3130.84723
 20
2754.662065
 30
0.0
 11
3130.84723
 21
2753.995398
 31
0.0
 12
3128.84723
 22
2754.328731
 32
0.0
 13
3128.84723
 23
2754.328731
 33
0.0
  0
TEXT
  8
0
  40
2
  5
59E5
  62
0
  72
0
  71
0
 10
3160.99
 20
2752.79
 30
0.000000
  1
72
  0
POINT
  5
596D
  8
DEFPOINTS
  6
BYBLOCK
 62
     0
 10
3200.84723
 20
2729.508997
 30
0.0
  0
POINT
  5
596E
  8
DEFPOINTS
  6
BYBLOCK
 62
     0
 10
3128.84723
 20
2729.508997
 30
0.0
  0
POINT
  5
596F
  8
DEFPOINTS
  6
BYBLOCK
 62
     0
 10
3128.84723
 20
2754.328731
 30
0.0
  0
ENDBLK
  5
5970
  8
0
  0
BLOCK
  8
0
  2
*D40
 70
     1
 10
0.0
 20
0.0
 30
0.0
  3
*D40
  1

  0
LINE
  5
5972
  8
0
  6
BYBLOCK
 62
     0
 10
3108.04723
 20
2609.274651
 30
0.0
 11
3108.04723
 21
2582.144843
 31
0.0
  0
LINE
  5
5973
  8
0
  6
BYBLOCK
 62
     0
 10
3222.04723
 20
2609.274651
 30
0.0
 11
3222.04723
 21
2582.144843
 31
0.0
  0
LINE
  5
5974
  8
0
  6
BYBLOCK
 62
     0
 10
3110.04723
 20
2583.394843
 30
0.0
 11
3220.04723
 21
2583.394843
 31
0.0
  0
SOLID
  5
5975
  8
0
  6
BYBLOCK
 62
     0
 10
3110.04723
 20
2583.728177
 30
0.0
 11
3110.04723
 21
2583.06151
 31
0.0
 12
3108.04723
 22
2583.394843
 32
0.0
 13
3108.04723
 23
2583.394843
 33
0.0
  0
SOLID
  5
5976
  8
0
  6
BYBLOCK
 62
     0
 10
3220.04723
 20
2583.728177
 30
0.0
 11
3220.04723
 21
2583.06151
 31
0.0
 12
3222.04723
 22
2583.394843
 32
0.0
 13
3222.04723
 23
2583.394843
 33
0.0
  0
TEXT
  8
0
  40
2
  5
59E6
  62
0
  72
0
  71
0
 10
3158.29
 20
2581.85
 30
0.000000
  1
114
  0
POINT
  5
5978
  8
DEFPOINTS
  6
BYBLOCK
 62
     0
 10
3108.04723
 20
2609.899651
 30
0.0
  0
POINT
  5
5979
  8
DEFPOINTS
  6
BYBLOCK
 62
     0
 10
3222.04723
 20
2609.899651
 30
0.0
  0
POINT
  5
597A
  8
DEFPOINTS
  6
BYBLOCK
 62
     0
 10
3222.04723
 20
2583.394843
 30
0.0
  0
ENDBLK
  5
597B
  8
0
  0
BLOCK
  8
0
  2
*D41
 70
     1
 10
0.0
 20
0.0
 30
0.0
  3
*D41
  1

  0
LINE
  5
597D
  8
0
  6
BYBLOCK
 62
     0
 10
3108.04723
 20
2501.753194
 30
0.0
 11
3108.04723
 21
2515.99573
 31
0.0
  0
LINE
  5
597E
  8
0
  6
BYBLOCK
 62
     0
 10
3222.04723
 20
2501.753194
 30
0.0
 11
3222.04723
 21
2515.99573
 31
0.0
  0
LINE
  5
597F
  8
0
  6
BYBLOCK
 62
     0
 10
3110.04723
 20
2514.74573
 30
0.0
 11
3220.04723
 21
2514.74573
 31
0.0
  0
SOLID
  5
5980
  8
0
  6
BYBLOCK
 62
     0
 10
3110.04723
 20
2515.079063
 30
0.0
 11
3110.04723
 21
2514.412396
 31
0.0
 12
3108.04723
 22
2514.74573
 32
0.0
 13
3108.04723
 23
2514.74573
 33
0.0
  0
SOLID
  5
5981
  8
0
  6
BYBLOCK
 62
     0
 10
3220.04723
 20
2515.079063
 30
0.0
 11
3220.04723
 21
2514.412396
 31
0.0
 12
3222.04723
 22
2514.74573
 32
0.0
 13
3222.04723
 23
2514.74573
 33
0.0
  0
TEXT
  8
0
  40
2
  5
59E7
  62
0
  72
0
  71
0
 10
3161.70
 20
2513.21
 30
0.000000
  1
114
  0
POINT
  5
5983
  8
DEFPOINTS
  6
BYBLOCK
 62
     0
 10
3108.04723
 20
2501.128194
 30
0.0
  0
POINT
  5
5984
  8
DEFPOINTS
  6
BYBLOCK
 62
     0
 10
3222.04723
 20
2501.128194
 30
0.0
  0
POINT
  5
5985
  8
DEFPOINTS
  6
BYBLOCK
 62
     0
 10
3222.04723
 20
2514.74573
 30
0.0
  0
ENDBLK
  5
5986
  8
0
  0
BLOCK
  8
0
  2
*D42
 70
     1
 10
0.0
 20
0.0
 30
0.0
  3
*D42
  1

  0
LINE
  5
5988
  8
0
  6
BYBLOCK
 62
     0
 10
3192.303799
 20
2189.079367
 30
0.0
 11
3203.299118
 21
2168.167768
 31
0.0
  0
LINE
  5
5989
  8
0
  6
BYBLOCK
 62
     0
 10
3210.745341
 20
2154.006068
 30
0.0
 11
3211.676119
 21
2152.235855
 31
0.0
  0
TEXT
  8
0
  40
2
  5
59E8
  62
0
  72
0
  71
0
 10
3191.63
 20
2183.52
 30
0.000000
  1
%%c12
  0
LINE
  5
598B
  8
0
  6
BYBLOCK
 62
     0
 10
3209.814563
 20
2155.77628
 30
0.0
 11
3204.229896
 21
2166.397556
 31
0.0
  0
SOLID
  5
598C
  8
0
  6
BYBLOCK
 62
     0
 10
3211.040376
 20
2154.161197
 30
0.0
 11
3210.450306
 21
2153.850938
 31
0.0
 12
3209.814563
 22
2155.77628
 32
0.0
 13
3209.814563
 23
2155.77628
 33
0.0
  0
SOLID
  5
598D
  8
0
  6
BYBLOCK
 62
     0
 10
3203.594154
 20
2168.322898
 30
0.0
 11
3203.004083
 21
2168.012639
 31
0.0
 12
3204.229896
 22
2166.397556
 32
0.0
 13
3204.229896
 23
2166.397556
 33
0.0
  0
POINT
  5
598E
  8
DEFPOINTS
  6
BYBLOCK
 62
     0
 10
3204.229896
 20
2166.397556
 30
0.0
  0
POINT
  5
598F
  8
DEFPOINTS
  6
BYBLOCK
 62
     0
 10
3209.814563
 20
2155.77628
 30
0.0
  0
ENDBLK
  5
5990
  8
0
  0
BLOCK
  8
0
  2
*D43
 70
     1
 10
0.0
 20
0.0
 30
0.0
  3
*D43
  1

  0
LINE
  5
5992
  8
0
  6
BYBLOCK
 62
     0
 10
3459.73773
 20
2521.128194
 30
0.0
 11
3519.346567
 21
2521.128194
 31
0.0
  0
LINE
  5
5993
  8
0
  6
BYBLOCK
 62
     0
 10
3511.91273
 20
2501.128194
 30
0.0
 11
3519.346567
 21
2501.128194
 31
0.0
  0
LINE
  5
5994
  8
0
  6
BYBLOCK
 62
     0
 10
3518.096567
 20
2519.128194
 30
0.0
 11
3518.096567
 21
2503.128194
 31
0.0
  0
SOLID
  5
5995
  8
0
  6
BYBLOCK
 62
     0
 10
3517.763233
 20
2519.128194
 30
0.0
 11
3518.4299
 21
2519.128194
 31
0.0
 12
3518.096567
 22
2521.128194
 32
0.0
 13
3518.096567
 23
2521.128194
 33
0.0
  0
SOLID
  5
5996
  8
0
  6
BYBLOCK
 62
     0
 10
3517.763233
 20
2503.128194
 30
0.0
 11
3518.4299
 21
2503.128194
 31
0.0
 12
3518.096567
 22
2501.128194
 32
0.0
 13
3518.096567
 23
2501.128194
 33
0.0
  0
TEXT
  8
0
  40
2
  5
59E9
  62
0
  72
0
  71
0
 10
3512.10
 20
2507.82
 30
0.000000
  1
20
  0
POINT
  5
5998
  8
DEFPOINTS
  6
BYBLOCK
 62
     0
 10
3459.11273
 20
2521.128194
 30
0.0
  0
POINT
  5
5999
  8
DEFPOINTS
  6
BYBLOCK
 62
     0
 10
3511.28773
 20
2501.128194
 30
0.0
  0
POINT
  5
599A
  8
DEFPOINTS
  6
BYBLOCK
 62
     0
 10
3518.096567
 20
2501.128194
 30
0.0
  0
ENDBLK
  5
599B
  8
0
  0
BLOCK
  8
0
  2
*D44
 70
     1
 10
0.0
 20
0.0
 30
0.0
  3
*D44
  1

  0
LINE
  5
599D
  8
0
  6
BYBLOCK
 62
     0
 10
3442.11273
 20
2496.753194
 30
0.0
 11
3442.11273
 21
2509.12755
 31
0.0
  0
LINE
  5
599E
  8
0
  6
BYBLOCK
 62
     0
 10
3466.11273
 20
2496.753194
 30
0.0
 11
3466.11273
 21
2509.12755
 31
0.0
  0
LINE
  5
599F
  8
0
  6
BYBLOCK
 62
     0
 10
3444.11273
 20
2507.87755
 30
0.0
 11
3464.11273
 21
2507.87755
 31
0.0
  0
LINE
  5
59A0
  8
0
  6
BYBLOCK
 62
     0
 10
3466.11273
 20
2507.87755
 30
0.0
 11
3477.347423
 21
2507.87755
 31
0.0
  0
SOLID
  5
59A1
  8
0
  6
BYBLOCK
 62
     0
 10
3444.11273
 20
2508.210884
 30
0.0
 11
3444.11273
 21
2507.544217
 31
0.0
 12
3442.11273
 22
2507.87755
 32
0.0
 13
3442.11273
 23
2507.87755
 33
0.0
  0
SOLID
  5
59A2
  8
0
  6
BYBLOCK
 62
     0
 10
3464.11273
 20
2508.210884
 30
0.0
 11
3464.11273
 21
2507.544217
 31
0.0
 12
3466.11273
 22
2507.87755
 32
0.0
 13
3466.11273
 23
2507.87755
 33
0.0
  0
TEXT
  8
0
  40
2
  5
59EA
  62
0
  72
0
  71
0
 10
3470.68
 20
2506.34
 30
0.000000
  1
24
  0
POINT
  5
59A4
  8
DEFPOINTS
  6
BYBLOCK
 62
     0
 10
3442.11273
 20
2496.128194
 30
0.0
  0
POINT
  5
59A5
  8
DEFPOINTS
  6
BYBLOCK
 62
     0
 10
3466.11273
 20
2496.128194
 30
0.0
  0
POINT
  5
59A6
  8
DEFPOINTS
  6
BYBLOCK
 62
     0
 10
3466.11273
 20
2507.87755
 30
0.0
  0
ENDBLK
  5
59A7
  8
0
  0
BLOCK
  8
0
  2
*D45
 70
     1
 10
0.0
 20
0.0
 30
0.0
  3
*D45
  1

  0
LINE
  5
59AA
  8
0
  6
BYBLOCK
 62
     0
 10
3396.31273
 20
1388.272909
 30
0.0
 11
3368.670658
 21
1388.272909
 31
0.0
  0
LINE
  5
59AB
  8
0
  6
BYBLOCK
 62
     0
 10
3396.31273
 20
1154.272909
 30
0.0
 11
3368.670658
 21
1154.272909
 31
0.0
  0
LINE
  5
59AC
  8
0
  6
BYBLOCK
 62
     0
 10
3369.920658
 20
1386.272909
 30
0.0
 11
3369.920658
 21
1156.272909
 31
0.0
  0
SOLID
  5
59AD
  8
0
  6
BYBLOCK
 62
     0
 10
3369.587325
 20
1386.272909
 30
0.0
 11
3370.253992
 21
1386.272909
 31
0.0
 12
3369.920658
 22
1388.272909
 32
0.0
 13
3369.920658
 23
1388.272909
 33
0.0
  0
SOLID
  5
59AE
  8
0
  6
BYBLOCK
 62
     0
 10
3369.587325
 20
1156.272909
 30
0.0
 11
3370.253992
 21
1156.272909
 31
0.0
 12
3369.920658
 22
1154.272909
 32
0.0
 13
3369.920658
 23
1154.272909
 33
0.0
  0
TEXT
  8
0
  40
3
  5
59EB
  62
0
  72
0
  71
0
 10
3360.80
 20
1265.96
 30
0.000000
  1
234
  0
POINT
  5
59B0
  8
DEFPOINTS
  6
BYBLOCK
 62
     0
 10
3396.93773
 20
1388.272909
 30
0.0
  0
POINT
  5
59B1
  8
DEFPOINTS
  6
BYBLOCK
 62
     0
 10
3396.93773
 20
1154.272909
 30
0.0
  0
POINT
  5
59B2
  8
DEFPOINTS
  6
BYBLOCK
 62
     0
 10
3369.920658
 20
1154.272909
 30
0.0
  0
ENDBLK
  5
59B3
  8
0
  0
ENDSEC
  0
SECTION
  2
ENTITIES
  0
LINE
  5
3420
  8
0
 10
2470.313448
 20
948.617574
 30
0.0
 11
2584.663448
 21
948.617574
 31
0.0
  0
LINE
  5
3421
  8
0
 10
2584.663448
 20
948.617574
 30
0.0
 11
2584.663448
 21
913.617574
 31
0.0
  0
LINE
  5
3422
  8
0
 10
2584.663448
 20
913.617574
 30
0.0
 11
2570.963448
 21
913.617574
 31
0.0
  0
LINE
  5
3423
  8
0
 10
2470.313448
 20
948.617574
 30
0.0
 11
2470.313448
 21
913.617574
 31
0.0
  0
ARC
  5
342D
  8
0
 10
2485.113448
 20
935.417574
 30
0.0
 40
9.6
 50
278.989299
 51
261.010701
  0
ARC
  5
342E
  8
0
 10
2569.463448
 20
935.417574
 30
0.0
 40
9.6
 50
278.989299
 51
261.010701
  0
LINE
  5
346B
  8
0
 10
2554.863448
 20
942.617574
 30
0.0
 11
2554.863448
 21
913.617574
 31
0.0
  0
LINE
  5
346C
  8
0
 10
2500.113448
 20
942.617574
 30
0.0
 11
2500.113448
 21
913.617574
 31
0.0
  0
LINE
  5
3470
  8
0
  6
DASHED
 10
2470.313448
 20
922.717574
 30
0.0
 11
2483.613448
 21
922.717574
 31
0.0
  0
LINE
  5
3471
  8
0
  6
DASHED
 10
2470.313448
 20
916.717574
 30
0.0
 11
2483.613448
 21
916.717574
 31
0.0
  0
LINE
  5
3481
  8
0
  6
DASHED
 10
2554.863448
 20
922.717574
 30
0.0
 11
2567.963448
 21
922.717574
 31
0.0
  0
LINE
  5
3483
  8
0
  6
DASHED
 10
2554.863448
 20
916.717574
 30
0.0
 11
2567.963448
 21
916.717574
 31
0.0
  0
LINE
  5
348E
  8
0
 10
2567.963448
 20
913.617574
 30
0.0
 11
2567.963448
 21
925.935486
 31
0.0
  0
LINE
  5
348F
  8
0
 10
2570.963448
 20
913.617574
 30
0.0
 11
2570.963448
 21
925.935486
 31
0.0
  0
LINE
  5
3491
  8
0
  6
DASHED
 10
2570.963448
 20
916.717574
 30
0.0
 11
2584.663448
 21
916.717574
 31
0.0
  0
LINE
  5
3493
  8
0
  6
DASHED
 10
2570.963448
 20
922.717574
 30
0.0
 11
2584.663448
 21
922.717574
 31
0.0
  0
LINE
  5
3494
  8
0
 10
2486.613448
 20
913.617574
 30
0.0
 11
2486.613448
 21
925.935486
 31
0.0
  0
LINE
  5
3495
  8
0
 10
2483.613448
 20
913.617574
 30
0.0
 11
2483.613448
 21
925.935486
 31
0.0
  0
LINE
  5
3496
  8
0
 10
2483.613448
 20
913.617574
 30
0.0
 11
2470.313448
 21
913.617574
 31
0.0
  0
LINE
  5
3497
  8
0
  6
DASHED
 10
2486.613448
 20
916.717574
 30
0.0
 11
2500.113448
 21
916.717574
 31
0.0
  0
LINE
  5
3499
  8
0
  6
DASHED
 10
2486.613448
 20
922.717574
 30
0.0
 11
2500.113448
 21
922.717574
 31
0.0
  0
LINE
  5
349A
  8
0
  6
DASHED
 10
2555.613448
 20
917.217574
 30
0.0
 11
2567.213448
 21
917.217574
 31
0.0
  0
LINE
  5
349B
  8
0
  6
DASHED
 10
2555.613448
 20
922.217574
 30
0.0
 11
2567.213448
 21
922.217574
 31
0.0
  0
LINE
  5
349D
  8
0
  6
DASHED
 10
2487.363448
 20
922.217574
 30
0.0
 11
2499.363448
 21
922.217574
 31
0.0
  0
LINE
  5
349E
  8
0
  6
DASHED
 10
2487.363448
 20
917.217574
 30
0.0
 11
2499.363448
 21
917.217574
 31
0.0
  0
LINE
  5
34A8
  8
0
  6
DASHED
 10
2487.363448
 20
922.217574
 30
0.0
 11
2486.613448
 21
922.717574
 31
0.0
  0
LINE
  5
34A9
  8
0
  6
DASHED
 10
2487.363448
 20
917.217574
 30
0.0
 11
2486.613448
 21
916.717574
 31
0.0
  0
LINE
  5
34AA
  8
0
  6
DASHED
 10
2499.363448
 20
922.217574
 30
0.0
 11
2500.113448
 21
922.717574
 31
0.0
  0
LINE
  5
34AB
  8
0
  6
DASHED
 10
2499.363448
 20
917.217574
 30
0.0
 11
2500.113448
 21
916.717574
 31
0.0
  0
LINE
  5
34AC
  8
0
  6
DASHED
 10
2499.363448
 20
917.217574
 30
0.0
 11
2499.363448
 21
922.217574
 31
0.0
  0
LINE
  5
34AD
  8
0
  6
DASHED
 10
2487.363448
 20
917.217574
 30
0.0
 11
2487.363448
 21
922.217574
 31
0.0
  0
LINE
  5
34AE
  8
0
  6
DASHED
 10
2555.613448
 20
922.217574
 30
0.0
 11
2554.863448
 21
922.717574
 31
0.0
  0
LINE
  5
34AF
  8
0
  6
DASHED
 10
2555.613448
 20
917.217574
 30
0.0
 11
2554.863448
 21
916.717574
 31
0.0
  0
LINE
  5
34B0
  8
0
  6
DASHED
 10
2567.213448
 20
922.217574
 30
0.0
 11
2567.963448
 21
922.717574
 31
0.0
  0
LINE
  5
34B1
  8
0
  6
DASHED
 10
2567.213448
 20
917.217574
 30
0.0
 11
2567.963448
 21
916.717574
 31
0.0
  0
LINE
  5
34B2
  8
0
  6
DASHED
 10
2555.613448
 20
917.217574
 30
0.0
 11
2555.613448
 21
922.217574
 31
0.0
  0
LINE
  5
34B3
  8
0
  6
DASHED
 10
2567.213448
 20
917.217574
 30
0.0
 11
2567.213448
 21
922.217574
 31
0.0
  0
LINE
  5
34E1
  8
0
 10
2486.613448
 20
913.617574
 30
0.0
 11
2500.113448
 21
913.617574
 31
0.0
  0
LINE
  5
34E2
  8
0
 10
2554.863448
 20
913.617574
 30
0.0
 11
2567.963448
 21
913.617574
 31
0.0
  0
LINE
  5
34E3
  8
0
 10
2554.863448
 20
942.617574
 30
0.0
 11
2500.113448
 21
942.617574
 31
0.0
  0
LINE
  5
45F5
  8
0
 10
2530.088448
 20
972.491994
 30
0.0
 11
2530.588448
 21
972.991994
 31
0.0
  0
LINE
  5
45F6
  8
0
 10
2530.088448
 20
1249.491994
 30
0.0
 11
2530.588448
 21
1248.991994
 31
0.0
  0
LINE
  5
45F7
  8
0
 10
2467.488448
 20
981.491994
 30
0.0
 11
2587.488448
 21
981.491994
 31
0.0
  0
LINE
  5
45FA
  8
0
 10
2470.313448
 20
1144.541994
 30
0.0
 11
2584.663448
 21
1144.541994
 31
0.0
  0
LINE
  5
45FC
  8
0
 10
2470.313448
 20
1069.541994
 30
0.0
 11
2584.663448
 21
1069.541994
 31
0.0
  0
LINE
  5
4605
  8
0
 10
2519.488448
 20
973.491994
 30
0.0
 11
2535.488448
 21
973.491994
 31
0.0
  0
LINE
  5
4606
  8
0
 10
2467.488448
 20
1239.491994
 30
0.0
 11
2587.488448
 21
1239.491994
 31
0.0
  0
LINE
  5
4608
  8
0
  6
DASHED
 10
2522.638448
 20
1099.591994
 30
0.0
 11
2522.638448
 21
1114.491994
 31
0.0
  0
LINE
  5
460C
  8
0
 10
2470.313448
 20
1069.541994
 30
0.0
 11
2470.313448
 21
1144.541994
 31
0.0
  0
LINE
  5
460D
  8
0
 10
2500.113448
 20
1069.541994
 30
0.0
 11
2500.113448
 21
1144.541994
 31
0.0
  0
LINE
  5
460E
  8
0
  6
DASHED
 10
2494.713448
 20
1069.541994
 30
0.0
 11
2494.713448
 21
1144.541994
 31
0.0
  0
LINE
  5
460F
  8
0
  6
DASHED
 10
2475.513448
 20
1069.541994
 30
0.0
 11
2475.513448
 21
1144.541994
 31
0.0
  0
LINE
  5
4610
  8
0
 10
2486.613448
 20
1144.541994
 30
0.0
 11
2486.613448
 21
1069.541994
 31
0.0
  0
LINE
  5
4611
  8
0
 10
2483.613448
 20
1144.541994
 30
0.0
 11
2483.613448
 21
1069.541994
 31
0.0
  0
LINE
  5
4612
  8
0
 10
2524.388448
 20
1226.491994
 30
0.0
 11
2524.388448
 21
972.991994
 31
0.0
  0
LINE
  5
4613
  8
0
 10
2522.638448
 20
1226.491994
 30
0.0
 11
2522.638448
 21
1007.491994
 31
0.0
  0
LINE
  5
4614
  8
0
 10
2490.988448
 20
1231.491994
 30
0.0
 11
2490.988448
 21
981.491994
 31
0.0
  0
LINE
  5
4615
  8
0
 10
2478.988448
 20
1231.491994
 30
0.0
 11
2478.988448
 21
981.491994
 31
0.0
  0
LINE
  5
4618
  8
0
 10
2467.488448
 20
981.491994
 30
0.0
 11
2467.488448
 21
973.491994
 31
0.0
  0
LINE
  5
461A
  8
0
 10
2467.488448
 20
973.491994
 30
0.0
 11
2519.488448
 21
973.491994
 31
0.0
  0
LINE
  5
461B
  8
0
 10
2524.388448
 20
972.991994
 30
0.0
 11
2524.888448
 21
972.491994
 31
0.0
  0
LINE
  5
461C
  8
0
 10
2524.888448
 20
972.491994
 30
0.0
 11
2530.088448
 21
972.491994
 31
0.0
  0
LINE
  5
4621
  8
0
  6
DASHED
 10
2500.113448
 20
1088.600949
 30
0.0
 11
2486.613448
 21
1088.600949
 31
0.0
  0
LINE
  5
4622
  8
0
  6
DASHED
 10
2500.113448
 20
1094.483038
 30
0.0
 11
2486.613448
 21
1094.483038
 31
0.0
  0
LINE
  5
4623
  8
0
  6
DASHED
 10
2500.113448
 20
1089.100949
 30
0.0
 11
2486.613448
 21
1089.100949
 31
0.0
  0
LINE
  5
4624
  8
0
  6
DASHED
 10
2500.113448
 20
1093.983038
 30
0.0
 11
2486.613448
 21
1093.983038
 31
0.0
  0
LINE
  5
4625
  8
0
  6
DASHED
 10
2500.113448
 20
1072.600949
 30
0.0
 11
2486.613448
 21
1072.600949
 31
0.0
  0
LINE
  5
4626
  8
0
  6
DASHED
 10
2500.113448
 20
1078.483038
 30
0.0
 11
2486.613448
 21
1078.483038
 31
0.0
  0
LINE
  5
4627
  8
0
  6
DASHED
 10
2500.113448
 20
1077.983038
 30
0.0
 11
2486.613448
 21
1077.983038
 31
0.0
  0
LINE
  5
4628
  8
0
  6
DASHED
 10
2500.113448
 20
1073.100949
 30
0.0
 11
2486.613448
 21
1073.100949
 31
0.0
  0
LINE
  5
4629
  8
0
  6
DASHED
 10
2476.988448
 20
1069.541994
 30
0.0
 11
2492.988448
 21
1069.541994
 31
0.0
  0
LINE
  5
462A
  8
0
  6
DASHED
 10
2475.988448
 20
1097.541994
 30
0.0
 11
2494.713448
 21
1097.541994
 31
0.0
  0
LINE
  5
462B
  8
0
  6
DASHED
 10
2475.988448
 20
1097.541994
 30
0.0
 11
2475.513448
 21
1097.541994
 31
0.0
  0
LINE
  5
462C
  8
0
  6
DASHED
 10
2483.613448
 20
1072.600949
 30
0.0
 11
2470.313448
 21
1072.600949
 31
0.0
  0
LINE
  5
462D
  8
0
  6
DASHED
 10
2483.613448
 20
1078.483038
 30
0.0
 11
2470.313448
 21
1078.483038
 31
0.0
  0
LINE
  5
462E
  8
0
  6
DASHED
 10
2483.613448
 20
1088.600949
 30
0.0
 11
2470.313448
 21
1088.600949
 31
0.0
  0
LINE
  5
462F
  8
0
  6
DASHED
 10
2483.613448
 20
1094.483038
 30
0.0
 11
2470.313448
 21
1094.483038
 31
0.0
  0
LINE
  5
4631
  8
0
  6
DASHED
 10
2476.988448
 20
1144.541994
 30
0.0
 11
2492.988448
 21
1144.541994
 31
0.0
  0
LINE
  5
4632
  8
0
  6
DASHED
 10
2500.113448
 20
1120.100949
 30
0.0
 11
2486.613448
 21
1120.100949
 31
0.0
  0
LINE
  5
4633
  8
0
  6
DASHED
 10
2500.113448
 20
1124.983038
 30
0.0
 11
2486.613448
 21
1124.983038
 31
0.0
  0
LINE
  5
4634
  8
0
  6
DASHED
 10
2500.113448
 20
1125.483038
 30
0.0
 11
2486.613448
 21
1125.483038
 31
0.0
  0
LINE
  5
4635
  8
0
  6
DASHED
 10
2500.113448
 20
1119.600949
 30
0.0
 11
2486.613448
 21
1119.600949
 31
0.0
  0
LINE
  5
4636
  8
0
  6
DASHED
 10
2500.113448
 20
1140.983038
 30
0.0
 11
2486.613448
 21
1140.983038
 31
0.0
  0
LINE
  5
4637
  8
0
  6
DASHED
 10
2500.113448
 20
1136.100949
 30
0.0
 11
2486.613448
 21
1136.100949
 31
0.0
  0
LINE
  5
4638
  8
0
  6
DASHED
 10
2500.113448
 20
1141.483038
 30
0.0
 11
2486.613448
 21
1141.483038
 31
0.0
  0
LINE
  5
4639
  8
0
  6
DASHED
 10
2500.113448
 20
1135.600949
 30
0.0
 11
2486.613448
 21
1135.600949
 31
0.0
  0
LINE
  5
463A
  8
0
  6
DASHED
 10
2475.988448
 20
1116.541994
 30
0.0
 11
2494.713448
 21
1116.541994
 31
0.0
  0
LINE
  5
463B
  8
0
  6
DASHED
 10
2475.988448
 20
1116.541994
 30
0.0
 11
2475.513448
 21
1116.541994
 31
0.0
  0
LINE
  5
463C
  8
0
  6
DASHED
 10
2483.613448
 20
1141.483038
 30
0.0
 11
2470.313448
 21
1141.483038
 31
0.0
  0
LINE
  5
463D
  8
0
  6
DASHED
 10
2483.613448
 20
1135.600949
 30
0.0
 11
2470.313448
 21
1135.600949
 31
0.0
  0
LINE
  5
463E
  8
0
  6
DASHED
 10
2483.613448
 20
1125.483038
 30
0.0
 11
2470.313448
 21
1125.483038
 31
0.0
  0
LINE
  5
463F
  8
0
  6
DASHED
 10
2483.613448
 20
1119.600949
 30
0.0
 11
2470.313448
 21
1119.600949
 31
0.0
  0
LINE
  5
4642
  8
0
 10
2467.488448
 20
1231.491994
 30
0.0
 11
2467.488448
 21
1239.491994
 31
0.0
  0
LINE
  5
4643
  8
0
 10
2524.388448
 20
1248.991994
 30
0.0
 11
2524.888448
 21
1249.491994
 31
0.0
  0
LINE
  5
464B
  8
0
 10
2524.888448
 20
1249.491994
 30
0.0
 11
2530.088448
 21
1249.491994
 31
0.0
  0
LINE
  5
464F
  8
0
  6
DASHED
 10
2532.338448
 20
1099.591994
 30
0.0
 11
2532.338448
 21
1114.491994
 31
0.0
  0
LINE
  5
4651
  8
0
 10
2584.663448
 20
1069.541994
 30
0.0
 11
2584.663448
 21
1144.541994
 31
0.0
  0
LINE
  5
4652
  8
0
 10
2554.863448
 20
1069.541994
 30
0.0
 11
2554.863448
 21
1144.541994
 31
0.0
  0
LINE
  5
4653
  8
0
  6
DASHED
 10
2579.063448
 20
1069.541994
 30
0.0
 11
2579.063448
 21
1144.541994
 31
0.0
  0
LINE
  5
4654
  8
0
  6
DASHED
 10
2559.863448
 20
1069.541994
 30
0.0
 11
2559.863448
 21
1144.541994
 31
0.0
  0
LINE
  5
4655
  8
0
 10
2570.963448
 20
1144.541994
 30
0.0
 11
2570.963448
 21
1069.541994
 31
0.0
  0
LINE
  5
4656
  8
0
 10
2567.963448
 20
1144.541994
 30
0.0
 11
2567.963448
 21
1069.541994
 31
0.0
  0
LINE
  5
4657
  8
0
 10
2530.588448
 20
1226.491994
 30
0.0
 11
2530.588448
 21
972.991994
 31
0.0
  0
LINE
  5
4658
  8
0
 10
2532.338448
 20
1226.491994
 30
0.0
 11
2532.338448
 21
1007.491994
 31
0.0
  0
LINE
  5
465D
  8
0
 10
2587.488448
 20
981.491994
 30
0.0
 11
2587.488448
 21
973.491994
 31
0.0
  0
LINE
  5
465F
  8
0
 10
2587.488448
 20
973.491994
 30
0.0
 11
2535.488448
 21
973.491994
 31
0.0
  0
LINE
  5
4664
  8
0
  6
DASHED
 10
2584.663448
 20
1088.600949
 30
0.0
 11
2570.963448
 21
1088.600949
 31
0.0
  0
LINE
  5
4665
  8
0
  6
DASHED
 10
2584.663448
 20
1094.483038
 30
0.0
 11
2570.963448
 21
1094.483038
 31
0.0
  0
LINE
  5
4666
  8
0
  6
DASHED
 10
2561.988448
 20
1069.541994
 30
0.0
 11
2577.988448
 21
1069.541994
 31
0.0
  0
LINE
  5
4667
  8
0
  6
DASHED
 10
2584.663448
 20
1072.600949
 30
0.0
 11
2570.963448
 21
1072.600949
 31
0.0
  0
LINE
  5
4668
  8
0
  6
DASHED
 10
2584.663448
 20
1078.483038
 30
0.0
 11
2570.963448
 21
1078.483038
 31
0.0
  0
LINE
  5
4669
  8
0
  6
DASHED
 10
2559.863448
 20
1097.541994
 30
0.0
 11
2579.063448
 21
1097.541994
 31
0.0
  0
LINE
  5
466B
  8
0
  6
DASHED
 10
2567.963448
 20
1072.600949
 30
0.0
 11
2554.863448
 21
1072.600949
 31
0.0
  0
LINE
  5
466C
  8
0
  6
DASHED
 10
2567.963448
 20
1078.483038
 30
0.0
 11
2554.863448
 21
1078.483038
 31
0.0
  0
LINE
  5
466D
  8
0
  6
DASHED
 10
2567.963448
 20
1088.600949
 30
0.0
 11
2554.863448
 21
1088.600949
 31
0.0
  0
LINE
  5
466E
  8
0
  6
DASHED
 10
2567.963448
 20
1094.483038
 30
0.0
 11
2554.863448
 21
1094.483038
 31
0.0
  0
LINE
  5
466F
  8
0
  6
DASHED
 10
2567.963448
 20
1073.100949
 30
0.0
 11
2554.863448
 21
1073.100949
 31
0.0
  0
LINE
  5
4670
  8
0
  6
DASHED
 10
2567.963448
 20
1077.983038
 30
0.0
 11
2554.863448
 21
1077.983038
 31
0.0
  0
LINE
  5
4671
  8
0
  6
DASHED
 10
2567.963448
 20
1089.100949
 30
0.0
 11
2554.863448
 21
1089.100949
 31
0.0
  0
LINE
  5
4672
  8
0
  6
DASHED
 10
2567.963448
 20
1093.983038
 30
0.0
 11
2554.863448
 21
1093.983038
 31
0.0
  0
LINE
  5
4673
  8
0
  6
DASHED
 10
2561.988448
 20
1144.541994
 30
0.0
 11
2577.988448
 21
1144.541994
 31
0.0
  0
LINE
  5
4674
  8
0
  6
DASHED
 10
2584.663448
 20
1125.483038
 30
0.0
 11
2570.963448
 21
1125.483038
 31
0.0
  0
LINE
  5
4675
  8
0
  6
DASHED
 10
2584.663448
 20
1119.600949
 30
0.0
 11
2570.963448
 21
1119.600949
 31
0.0
  0
LINE
  5
4676
  8
0
  6
DASHED
 10
2584.663448
 20
1141.483038
 30
0.0
 11
2570.963448
 21
1141.483038
 31
0.0
  0
LINE
  5
4677
  8
0
  6
DASHED
 10
2584.663448
 20
1135.600949
 30
0.0
 11
2570.963448
 21
1135.600949
 31
0.0
  0
LINE
  5
4678
  8
0
  6
DASHED
 10
2559.863448
 20
1116.541994
 30
0.0
 11
2579.063448
 21
1116.541994
 31
0.0
  0
LINE
  5
467A
  8
0
  6
DASHED
 10
2567.963448
 20
1140.983038
 30
0.0
 11
2554.863448
 21
1140.983038
 31
0.0
  0
LINE
  5
467B
  8
0
  6
DASHED
 10
2567.963448
 20
1136.100949
 30
0.0
 11
2554.863448
 21
1136.100949
 31
0.0
  0
LINE
  5
467C
  8
0
  6
DASHED
 10
2567.963448
 20
1124.983038
 30
0.0
 11
2554.863448
 21
1124.983038
 31
0.0
  0
LINE
  5
467D
  8
0
  6
DASHED
 10
2567.963448
 20
1120.100949
 30
0.0
 11
2554.863448
 21
1120.100949
 31
0.0
  0
LINE
  5
467E
  8
0
  6
DASHED
 10
2567.963448
 20
1141.483038
 30
0.0
 11
2554.863448
 21
1141.483038
 31
0.0
  0
LINE
  5
467F
  8
0
  6
DASHED
 10
2567.963448
 20
1135.600949
 30
0.0
 11
2554.863448
 21
1135.600949
 31
0.0
  0
LINE
  5
4680
  8
0
  6
DASHED
 10
2567.963448
 20
1125.483038
 30
0.0
 11
2554.863448
 21
1125.483038
 31
0.0
  0
LINE
  5
4681
  8
0
  6
DASHED
 10
2567.963448
 20
1119.600949
 30
0.0
 11
2554.863448
 21
1119.600949
 31
0.0
  0
LINE
  5
468A
  8
0
 10
2587.488448
 20
1231.491994
 30
0.0
 11
2587.488448
 21
1239.491994
 31
0.0
  0
LINE
  5
46C9
  8
0
 10
2585.813448
 20
1448.980522
 30
0.0
 11
2585.813448
 21
1413.980522
 31
0.0
  0
ARC
  5
46CA
  8
0
 10
2570.613448
 20
1435.780522
 30
0.0
 40
9.6
 50
278.989299
 51
261.010701
  0
LINE
  5
46CB
  8
0
 10
2555.063448
 20
1442.980522
 30
0.0
 11
2555.063448
 21
1413.980522
 31
0.0
  0
CIRCLE
  5
46CF
  8
0
 10
2570.613448
 20
1435.780522
 30
0.0
 40
6.0
  0
LINE
  5
46D0
  8
0
 10
2588.263448
 20
1450.480522
 30
0.0
 11
2588.263448
 21
1425.480522
 31
0.0
  0
LINE
  5
46D5
  8
0
 10
2555.413448
 20
1413.980522
 30
0.0
 11
2569.113448
 21
1413.980522
 31
0.0
  0
LINE
  5
46D6
  8
0
  6
DASHED
 10
2555.063448
 20
1423.080522
 30
0.0
 11
2569.113448
 21
1423.080522
 31
0.0
  0
LINE
  5
46D7
  8
0
  6
DASHED
 10
2555.063448
 20
1417.080522
 30
0.0
 11
2569.113448
 21
1417.080522
 31
0.0
  0
LINE
  5
46D8
  8
0
  6
DASHED
 10
2555.813448
 20
1417.580522
 30
0.0
 11
2568.363448
 21
1417.580522
 31
0.0
  0
LINE
  5
46D9
  8
0
  6
DASHED
 10
2555.813448
 20
1422.580522
 30
0.0
 11
2568.363448
 21
1422.580522
 31
0.0
  0
LINE
  5
4802
  8
0
  6
DASHED
 10
2555.813448
 20
1422.580522
 30
0.0
 11
2555.063448
 21
1423.080522
 31
0.0
  0
LINE
  5
4803
  8
0
  6
DASHED
 10
2555.813448
 20
1417.580522
 30
0.0
 11
2555.063448
 21
1417.080522
 31
0.0
  0
LINE
  5
4804
  8
0
  6
DASHED
 10
2555.813448
 20
1417.580522
 30
0.0
 11
2555.813448
 21
1422.580522
 31
0.0
  0
LINE
  5
4805
  8
0
 10
2569.113448
 20
1413.980522
 30
0.0
 11
2569.113448
 21
1426.298434
 31
0.0
  0
LINE
  5
4806
  8
0
 10
2572.113448
 20
1413.980522
 30
0.0
 11
2572.113448
 21
1426.298434
 31
0.0
  0
LINE
  5
4807
  8
0
  6
DASHED
 10
2568.363448
 20
1422.580522
 30
0.0
 11
2569.113448
 21
1423.080522
 31
0.0
  0
LINE
  5
4808
  8
0
  6
DASHED
 10
2568.363448
 20
1417.580522
 30
0.0
 11
2569.113448
 21
1417.080522
 31
0.0
  0
LINE
  5
4809
  8
0
  6
DASHED
 10
2568.363448
 20
1417.580522
 30
0.0
 11
2568.363448
 21
1422.580522
 31
0.0
  0
LINE
  5
480A
  8
0
 10
2585.813448
 20
1413.980522
 30
0.0
 11
2572.113448
 21
1413.980522
 31
0.0
  0
LINE
  5
480B
  8
0
  6
DASHED
 10
2572.113448
 20
1417.080522
 30
0.0
 11
2585.813448
 21
1417.080522
 31
0.0
  0
LINE
  5
480C
  8
0
  6
DASHED
 10
2572.113448
 20
1423.080522
 30
0.0
 11
2585.813448
 21
1423.080522
 31
0.0
  0
CIRCLE
  5
482C
  8
0
  6
DASHED
 10
2525.065229
 20
1435.780522
 30
0.0
 40
3.0
  0
LINE
  5
49EC
  8
0
 10
2524.488448
 20
1260.291994
 30
0.0
 11
2530.488448
 21
1260.291994
 31
0.0
  0
LINE
  5
4A07
  8
0
 10
2495.065229
 20
1407.780522
 30
0.0
 11
2495.065229
 21
1463.780522
 31
0.0
  0
LINE
  5
4A08
  8
0
 10
2497.065229
 20
1405.780522
 30
0.0
 11
2553.063448
 21
1405.780522
 31
0.0
  0
LINE
  5
4A09
  8
0
 10
2497.065229
 20
1465.780522
 30
0.0
 11
2553.063448
 21
1465.780522
 31
0.0
  0
CIRCLE
  5
4A1C
  8
0
 10
2525.065229
 20
1435.780522
 30
0.0
 40
30.0
  0
CIRCLE
  5
4A27
  8
0
 10
2501.565229
 20
1460.030522
 30
0.0
 40
3.0
  0
CIRCLE
  5
4A28
  8
0
 10
2548.563448
 20
1460.046886
 30
0.0
 40
3.0
  0
CIRCLE
  5
4A29
  8
0
 10
2548.563448
 20
1411.546886
 30
0.0
 40
3.0
  0
CIRCLE
  5
4A2A
  8
0
 10
2501.565229
 20
1411.530522
 30
0.0
 40
3.0
  0
LINE
  5
4A2F
  8
0
 10
2555.063448
 20
1450.480522
 30
0.0
 11
2588.263448
 21
1450.480522
 31
0.0
  0
LINE
  5
4A30
  8
0
 10
2555.413448
 20
1448.980522
 30
0.0
 11
2585.813448
 21
1448.980522
 31
0.0
  0
LINE
  5
4A31
  8
0
 10
2555.063448
 20
1425.480522
 30
0.0
 11
2588.263448
 21
1425.480522
 31
0.0
  0
LINE
  5
4A44
  8
0
 10
2555.063448
 20
1463.780522
 30
0.0
 11
2555.063448
 21
1407.780522
 31
0.0
  0
LINE
  5
4A59
  8
0
 10
2497.488448
 20
1280.491994
 30
0.0
 11
2497.253847
 21
1280.491994
 31
0.0
  0
LINE
  5
4A5C
  8
0
 10
2497.253847
 20
1280.491994
 30
0.0
 11
2557.252066
 21
1280.491994
 31
0.0
  0
LINE
  5
4A66
  8
0
  6
DASHED
 10
2524.488448
 20
1260.291994
 30
0.0
 11
2524.488448
 21
1333.491994
 31
0.0
  0
LINE
  5
4A67
  8
0
  6
DASHED
 10
2530.488448
 20
1260.291994
 30
0.0
 11
2530.488448
 21
1333.491994
 31
0.0
  0
LINE
  5
4A9D
  8
0
 10
2497.253847
 20
1280.491994
 30
0.0
 11
2497.253847
 21
1286.491994
 31
0.0
  0
LINE
  5
4A9E
  8
0
 10
2497.253847
 20
1286.491994
 30
0.0
 11
2557.252066
 21
1286.491994
 31
0.0
  0
LINE
  5
4A9F
  8
0
 10
2557.252066
 20
1286.491994
 30
0.0
 11
2557.252066
 21
1280.491994
 31
0.0
  0
LINE
  5
4AA3
  8
0
 10
2497.253847
 20
1286.491994
 30
0.0
 11
2497.253847
 21
1336.491994
 31
0.0
  0
LINE
  5
4AA4
  8
0
 10
2557.252066
 20
1286.491994
 30
0.0
 11
2557.252066
 21
1336.491994
 31
0.0
  0
LINE
  5
4AA6
  8
0
 10
2557.252066
 20
1336.491994
 30
0.0
 11
2497.253847
 21
1336.491994
 31
0.0
  0
ARC
  5
4AA8
  8
0
 10
2497.065229
 20
1463.780522
 30
0.0
 40
2.0
 50
90.0
 51
180.0
  0
ARC
  5
4AA9
  8
0
 10
2497.065229
 20
1407.780522
 30
0.0
 40
2.0
 50
180.0
 51
270.0
  0
ARC
  5
4AAA
  8
0
 10
2553.063448
 20
1407.780522
 30
0.0
 40
2.0
 50
270.0
 51
360.0
  0
ARC
  5
4AAB
  8
0
 10
2553.063448
 20
1463.780522
 30
0.0
 40
2.0
 50
360.0
 51
90.0
  0
ARC
  5
4ACE
  8
0
 10
2494.877442
 20
1473.154368
 30
0.0
 40
14.499729
 50
10.567612
 51
120.567612
  0
ARC
  5
4ACF
  8
0
 10
2476.493231
 20
1479.393851
 30
0.0
 40
12.658179
 50
29.562574
 51
139.562574
  0
ARC
  5
4AD0
  8
0
 10
2458.650289
 20
1482.588574
 30
0.0
 40
9.619641
 50
31.425568
 51
141.425568
  0
ARC
  5
4AD1
  8
0
 10
2450.342214
 20
1479.249622
 30
0.0
 40
9.370241
 50
85.179325
 51
195.179325
  0
ARC
  5
4AD2
  8
0
 10
2440.019899
 20
1467.114833
 30
0.0
 40
9.765394
 50
82.47424
 51
192.47424
  0
ARC
  5
4AD3
  8
0
 10
2424.143937
 20
1458.368989
 30
0.0
 40
9.178933
 50
46.304028
 51
156.304028
  0
ARC
  5
4AD4
  8
0
 10
2413.280356
 20
1453.014946
 30
0.0
 40
9.371148
 50
74.790476
 51
184.790476
  0
ARC
  5
4ADF
  8
0
 10
2413.280356
 20
1453.014946
 30
0.0
 40
12.371148
 50
85.888482
 51
184.790476
  0
ARC
  5
4AE0
  8
0
 10
2424.143937
 20
1458.368989
 30
0.0
 40
12.178933
 50
73.533309
 51
145.001622
  0
ARC
  5
4AE1
  8
0
 10
2440.019899
 20
1467.114833
 30
0.0
 40
12.765394
 50
99.19169
 51
166.714342
  0
ARC
  5
4AE2
  8
0
 10
2450.342214
 20
1479.249622
 30
0.0
 40
12.370241
 50
92.396498
 51
177.837894
  0
ARC
  5
4AE3
  8
0
 10
2458.650289
 20
1482.588574
 30
0.0
 40
12.619641
 50
47.817454
 51
134.373513
  0
ARC
  5
4AE4
  8
0
 10
2476.493231
 20
1479.393851
 30
0.0
 40
15.658179
 50
39.954172
 51
126.751115
  0
ARC
  5
4AE5
  8
0
 10
2494.877442
 20
1473.154368
 30
0.0
 40
17.499729
 50
20.01851
 51
111.38614
  0
ARC
  5
4AE6
  8
0
 10
2511.737307
 20
1465.935201
 30
0.0
 40
13.216333
 50
359.328503
 51
91.809965
  0
ARC
  5
4AE7
  8
0
 10
2511.737307
 20
1465.935201
 30
0.0
 40
10.216333
 50
359.13249
 51
104.778791
  0
LINE
  5
4AE8
  8
0
 10
2400.952424
 20
1451.981805
 30
0.0
 11
2403.941944
 21
1452.232341
 31
0.0
  0
DIMENSION
  5
4AFF
  8
0
  2
*D0
 10
2609.280601
 20
981.491994
 30
0.0
 11
2606.155601
 21
1106.491994
 31
0.0
 70
     0
 13
2587.488448
 23
1231.491994
 33
0.0
 14
2587.488448
 24
981.491994
 34
0.0
 50
90.0
1001
ACAD
1000
DSTYLE
1002
{
1070
    78
1070
     8
1070
   140
1040
3.0
1070
    74
1070
     0
1070
   172
1070
     1
1070
    73
1070
     0
1070
    77
1070
     1
1070
   147
1040
1.625
1070
    42
1040
0.625
1070
    44
1040
1.25
1070
    43
1040
3.75
1070
   271
1070
     2
1070
   141
1040
2.5
1070
   275
1070
     1
1070
    41
1040
2.0
1070
   273
1070
     8
1070
   274
1070
     4
1070
   143
1040
0.0394
1070
   171
1070
     4
1002
}
  0
LINE
  5
4B0C
  8
0
 10
2715.598981
 20
1248.991994
 30
0.0
 11
2715.598981
 21
972.991994
 31
0.0
  0
LINE
  5
4B0D
  8
0
 10
2721.798981
 20
1248.991994
 30
0.0
 11
2721.798981
 21
972.991994
 31
0.0
  0
LINE
  5
4B0E
  8
0
 10
2715.598981
 20
1248.991994
 30
0.0
 11
2716.098981
 21
1249.491994
 31
0.0
  0
LINE
  5
4B10
  8
0
 10
2721.298981
 20
1249.491994
 30
0.0
 11
2721.798981
 21
1248.991994
 31
0.0
  0
LINE
  5
4B11
  8
0
 10
2723.548981
 20
1227.291994
 30
0.0
 11
2713.848981
 21
1227.291994
 31
0.0
  0
LINE
  5
4B12
  8
0
 10
2713.848981
 20
1227.291994
 30
0.0
 11
2713.848981
 21
985.691994
 31
0.0
  0
LINE
  5
4B13
  8
0
 10
2723.548981
 20
1227.291994
 30
0.0
 11
2723.548981
 21
985.691994
 31
0.0
  0
LINE
  5
4B14
  8
0
 10
2716.098981
 20
972.491994
 30
0.0
 11
2721.298981
 21
972.491994
 31
0.0
  0
LINE
  5
4B15
  8
0
 10
2715.598981
 20
972.991994
 30
0.0
 11
2716.098981
 21
972.491994
 31
0.0
  0
LINE
  5
4B16
  8
0
 10
2721.298981
 20
972.491994
 30
0.0
 11
2721.798981
 21
972.991994
 31
0.0
  0
LINE
  5
4B18
  8
0
 10
2716.098981
 20
1249.491994
 30
0.0
 11
2721.298981
 21
1249.491994
 31
0.0
  0
LINE
  5
4B19
  8
0
 10
2713.848981
 20
985.691994
 30
0.0
 11
2723.548981
 21
985.691994
 31
0.0
  0
DIMENSION
  5
4B26
  8
MATEN
  2
*D1
 10
2761.184234
 20
985.691994
 30
0.0
 11
2758.059234
 21
1106.491994
 31
0.0
 70
     0
 13
2723.548981
 23
1227.291994
 33
0.0
 14
2723.548981
 24
985.691994
 34
0.0
 50
90.0
1001
ACAD
1000
DSTYLE
1002
{
1070
    78
1070
     8
1070
   140
1040
3.0
1070
    74
1070
     0
1070
   172
1070
     1
1070
    73
1070
     0
1070
    77
1070
     1
1070
   147
1040
1.625
1070
    42
1040
0.625
1070
    44
1040
1.25
1070
    43
1040
3.75
1070
   271
1070
     2
1070
   141
1040
2.5
1070
   275
1070
     1
1070
    41
1040
2.0
1070
   273
1070
     8
1070
   274
1070
     4
1070
   143
1040
0.0394
1070
   171
1070
     4
1002
}
  0
DIMENSION
  5
4B33
  8
MATEN
  2
*D2
 10
2761.080007
 20
1227.291994
 30
0.0
 11
2757.955007
 21
1238.391994
 31
0.0
 70
     0
 13
2721.298981
 23
1249.491994
 33
0.0
 14
2723.548981
 24
1227.291994
 34
0.0
 50
90.0
1001
ACAD
1000
DSTYLE
1002
{
1070
    78
1070
     8
1070
   140
1040
3.0
1070
    74
1070
     0
1070
   172
1070
     1
1070
    73
1070
     0
1070
    77
1070
     1
1070
   147
1040
1.625
1070
    42
1040
0.625
1070
    44
1040
1.25
1070
    43
1040
3.75
1070
   271
1070
     2
1070
   141
1040
2.5
1070
   275
1070
     1
1070
    41
1040
2.0
1070
   273
1070
     8
1070
   274
1070
     4
1070
   143
1040
0.0394
1070
   171
1070
     4
1002
}
  0
DIMENSION
  5
4B40
  8
MATEN
  2
*D3
 10
2761.39882
 20
985.691994
 30
0.0
 11
2758.27382
 21
979.091994
 31
0.0
 70
     0
 13
2721.298981
 23
972.491994
 33
0.0
 14
2723.548981
 24
985.691994
 34
0.0
 50
90.0
1001
ACAD
1000
DSTYLE
1002
{
1070
    78
1070
     8
1070
   140
1040
3.0
1070
    74
1070
     0
1070
   172
1070
     1
1070
    73
1070
     0
1070
    77
1070
     1
1070
   147
1040
1.625
1070
    42
1040
0.625
1070
    44
1040
1.25
1070
    43
1040
3.75
1070
   271
1070
     2
1070
   141
1040
2.5
1070
   275
1070
     1
1070
    41
1040
2.0
1070
   273
1070
     8
1070
   274
1070
     4
1070
   143
1040
0.0394
1070
   171
1070
     4
1002
}
  0
DIMENSION
  5
4B84
  8
MATEN
  2
*D4
 10
2677.624943
 20
972.491994
 30
0.0
 11
2674.499943
 21
1110.991994
 31
0.0
 70
     0
 13
2716.098981
 23
1249.491994
 33
0.0
 14
2716.098981
 24
972.491994
 34
0.0
 50
90.0
1001
ACAD
1000
DSTYLE
1002
{
1070
    78
1070
     8
1070
   140
1040
3.0
1070
    74
1070
     0
1070
   172
1070
     1
1070
    73
1070
     0
1070
    77
1070
     1
1070
   147
1040
1.625
1070
    42
1040
0.625
1070
    44
1040
1.25
1070
    43
1040
3.75
1070
   271
1070
     2
1070
   141
1040
2.5
1070
   275
1070
     1
1070
    41
1040
2.0
1070
   273
1070
     8
1070
   274
1070
     4
1070
   143
1040
0.0394
1070
   171
1070
     4
1002
}
  0
LINE
  5
4B90
  8
0
 10
2688.92047
 20
1239.491994
 30
0.0
 11
2743.30169
 21
1239.491994
 31
0.0
  0
LINE
  5
4B91
  8
0
 10
2587.488448
 20
981.491994
 30
0.0
 11
2588.113448
 21
981.491994
 31
0.0
  0
LINE
  5
4B92
  8
0
 10
2703.536957
 20
981.491994
 30
0.0
 11
2740.154745
 21
981.491994
 31
0.0
  0
LINE
  5
4B94
  8
0
 10
2461.865229
 20
1450.480522
 30
0.0
 11
2461.865229
 21
1425.480522
 31
0.0
  0
LINE
  5
4B95
  8
0
 10
2495.065229
 20
1442.980522
 30
0.0
 11
2495.065229
 21
1413.980522
 31
0.0
  0
ARC
  5
4B96
  8
0
 10
2479.515229
 20
1435.780522
 30
0.0
 40
9.6
 50
278.989299
 51
261.010701
  0
LINE
  5
4B97
  8
0
 10
2464.315229
 20
1448.980522
 30
0.0
 11
2464.315229
 21
1413.980522
 31
0.0
  0
LINE
  5
4B98
  8
0
 10
2495.065229
 20
1425.480522
 30
0.0
 11
2461.865229
 21
1425.480522
 31
0.0
  0
LINE
  5
4B99
  8
0
  6
DASHED
 10
2478.015229
 20
1423.080522
 30
0.0
 11
2464.315229
 21
1423.080522
 31
0.0
  0
LINE
  5
4B9A
  8
0
  6
DASHED
 10
2478.015229
 20
1417.080522
 30
0.0
 11
2464.315229
 21
1417.080522
 31
0.0
  0
LINE
  5
4B9B
  8
0
 10
2464.315229
 20
1413.980522
 30
0.0
 11
2478.015229
 21
1413.980522
 31
0.0
  0
LINE
  5
4B9C
  8
0
  6
DASHED
 10
2481.765229
 20
1417.580522
 30
0.0
 11
2481.765229
 21
1422.580522
 31
0.0
  0
LINE
  5
4B9D
  8
0
  6
DASHED
 10
2481.765229
 20
1417.580522
 30
0.0
 11
2481.015229
 21
1417.080522
 31
0.0
  0
LINE
  5
4B9E
  8
0
  6
DASHED
 10
2481.765229
 20
1422.580522
 30
0.0
 11
2481.015229
 21
1423.080522
 31
0.0
  0
LINE
  5
4B9F
  8
0
 10
2478.015229
 20
1413.980522
 30
0.0
 11
2478.015229
 21
1426.298434
 31
0.0
  0
LINE
  5
4BA0
  8
0
 10
2481.015229
 20
1413.980522
 30
0.0
 11
2481.015229
 21
1426.298434
 31
0.0
  0
LINE
  5
4BA1
  8
0
  6
DASHED
 10
2494.315229
 20
1417.580522
 30
0.0
 11
2494.315229
 21
1422.580522
 31
0.0
  0
LINE
  5
4BA2
  8
0
  6
DASHED
 10
2494.315229
 20
1417.580522
 30
0.0
 11
2495.065229
 21
1417.080522
 31
0.0
  0
LINE
  5
4BA3
  8
0
  6
DASHED
 10
2494.315229
 20
1422.580522
 30
0.0
 11
2495.065229
 21
1423.080522
 31
0.0
  0
LINE
  5
4BA4
  8
0
  6
DASHED
 10
2494.315229
 20
1422.580522
 30
0.0
 11
2481.765229
 21
1422.580522
 31
0.0
  0
LINE
  5
4BA5
  8
0
  6
DASHED
 10
2494.315229
 20
1417.580522
 30
0.0
 11
2481.765229
 21
1417.580522
 31
0.0
  0
LINE
  5
4BA6
  8
0
  6
DASHED
 10
2495.065229
 20
1417.080522
 30
0.0
 11
2481.015229
 21
1417.080522
 31
0.0
  0
LINE
  5
4BA7
  8
0
  6
DASHED
 10
2495.065229
 20
1423.080522
 30
0.0
 11
2481.015229
 21
1423.080522
 31
0.0
  0
LINE
  5
4BA8
  8
0
 10
2495.065229
 20
1413.980522
 30
0.0
 11
2481.015229
 21
1413.980522
 31
0.0
  0
LINE
  5
4BA9
  8
0
 10
2495.065229
 20
1448.980522
 30
0.0
 11
2464.315229
 21
1448.980522
 31
0.0
  0
LINE
  5
4BAA
  8
0
 10
2495.065229
 20
1450.480522
 30
0.0
 11
2461.865229
 21
1450.480522
 31
0.0
  0
CIRCLE
  5
4BAB
  8
0
 10
2479.515229
 20
1435.780522
 30
0.0
 40
6.0
  0
CIRCLE
  5
4BAE
  8
0
  6
DASHED
 10
2525.065229
 20
1435.780522
 30
0.0
 40
5.0
  0
LINE
  5
4BEB
  8
0
 10
2530.488448
 20
1333.491994
 30
0.0
 11
2524.488448
 21
1333.491994
 31
0.0
  0
LINE
  5
4BF1
  8
0
 10
2557.252066
 20
1247.491994
 30
0.0
 11
2497.253847
 21
1247.491994
 31
0.0
  0
LINE
  5
4BF2
  8
0
 10
2557.252066
 20
1247.491994
 30
0.0
 11
2557.252066
 21
1239.491994
 31
0.0
  0
LINE
  5
4BF3
  8
0
 10
2497.253847
 20
1247.491994
 30
0.0
 11
2497.253847
 21
1239.491994
 31
0.0
  0
LINE
  5
4BF8
  8
0
  6
DASHED
 10
2553.752066
 20
1286.491994
 30
0.0
 11
2553.752066
 21
1239.491994
 31
0.0
  0
LINE
  5
4BF9
  8
0
  6
DASHED
 10
2547.752066
 20
1286.491994
 30
0.0
 11
2547.752066
 21
1239.491994
 31
0.0
  0
LINE
  5
4BFA
  8
0
  6
DASHED
 10
2506.753847
 20
1286.491994
 30
0.0
 11
2506.753847
 21
1239.491994
 31
0.0
  0
LINE
  5
4BFB
  8
0
  6
DASHED
 10
2500.753847
 20
1286.491994
 30
0.0
 11
2500.753847
 21
1239.491994
 31
0.0
  0
LINE
  5
4C01
  8
0
 10
2556.752066
 20
1280.491994
 30
0.0
 11
2556.752066
 21
1247.491994
 31
0.0
  0
LINE
  5
4C02
  8
0
 10
2544.752066
 20
1280.491994
 30
0.0
 11
2544.752066
 21
1247.491994
 31
0.0
  0
LINE
  5
4C03
  8
0
 10
2509.753847
 20
1280.491994
 30
0.0
 11
2509.753847
 21
1247.491994
 31
0.0
  0
LINE
  5
4C04
  8
0
 10
2497.753847
 20
1280.491994
 30
0.0
 11
2497.753847
 21
1247.491994
 31
0.0
  0
LINE
  5
4C05
  8
0
  6
DASHED
 10
2506.753847
 20
1239.491994
 30
0.0
 11
2506.753847
 21
1231.491994
 31
0.0
  0
LINE
  5
4C06
  8
0
  6
DASHED
 10
2500.753847
 20
1239.491994
 30
0.0
 11
2500.753847
 21
1231.491994
 31
0.0
  0
LINE
  5
4C07
  8
0
  6
DASHED
 10
2553.752066
 20
1239.491994
 30
0.0
 11
2553.752066
 21
1231.491994
 31
0.0
  0
LINE
  5
4C08
  8
0
  6
DASHED
 10
2547.752066
 20
1239.491994
 30
0.0
 11
2547.752066
 21
1231.491994
 31
0.0
  0
LINE
  5
4D6C
  8
0
 10
2539.304235
 20
988.753348
 30
0.0
 11
2515.680379
 21
989.250523
 31
0.0
  0
LINE
  5
4D6D
  8
0
 10
2539.488448
 20
992.741994
 30
0.0
 11
2515.680379
 21
993.250523
 31
0.0
  0
LINE
  5
4D6E
  8
0
 10
2539.488448
 20
996.721303
 30
0.0
 11
2515.675212
 21
997.23032
 31
0.0
  0
LINE
  5
4D6F
  8
0
 10
2539.301678
 20
1000.753667
 30
0.0
 11
2515.672655
 21
1001.230639
 31
0.0
  0
LINE
  5
4D70
  8
0
 10
2539.455604
 20
1004.721658
 30
0.0
 11
2515.520776
 21
1005.238723
 31
0.0
  0
LINE
  5
4D71
  8
0
 10
2539.488448
 20
977.491994
 30
0.0
 11
2515.488448
 21
977.491994
 31
0.0
  0
LINE
  5
4D72
  8
0
 10
2513.988442
 20
1007.491994
 30
0.0
 11
2540.354474
 21
1007.491994
 31
0.0
  0
LINE
  5
4D73
  8
0
 10
2514.622416
 20
986.491994
 30
0.0
 11
2540.967468
 21
986.491994
 31
0.0
  0
LINE
  5
4D74
  8
0
 10
2539.488448
 20
986.491994
 30
0.0
 11
2515.488448
 21
986.491994
 31
0.0
  0
LINE
  5
4D75
  8
0
 10
2539.488448
 20
1004.721303
 30
0.0
 11
2515.488442
 21
1006.221303
 31
0.0
  0
LINE
  5
4D76
  8
0
 10
2539.488448
 20
1003.741994
 30
0.0
 11
2515.488442
 21
1005.241994
 31
0.0
  0
LINE
  5
4D77
  8
0
 10
2539.488448
 20
1000.741994
 30
0.0
 11
2515.488442
 21
1002.241994
 31
0.0
  0
LINE
  5
4D78
  8
0
 10
2539.488448
 20
999.762684
 30
0.0
 11
2515.488442
 21
1001.241994
 31
0.0
  0
LINE
  5
4D79
  8
0
 10
2539.488448
 20
996.721303
 30
0.0
 11
2515.488442
 21
998.241994
 31
0.0
  0
LINE
  5
4D7A
  8
0
 10
2539.488448
 20
995.741994
 30
0.0
 11
2515.488442
 21
997.241994
 31
0.0
  0
LINE
  5
4D7B
  8
0
 10
2539.488448
 20
992.741994
 30
0.0
 11
2515.488442
 21
994.241994
 31
0.0
  0
LINE
  5
4D7C
  8
0
 10
2539.488448
 20
991.741994
 30
0.0
 11
2515.488442
 21
993.262684
 31
0.0
  0
LINE
  5
4D7D
  8
0
 10
2539.488448
 20
988.741994
 30
0.0
 11
2515.488442
 21
990.221303
 31
0.0
  0
LINE
  5
4D7E
  8
0
 10
2539.488448
 20
987.741994
 30
0.0
 11
2515.488442
 21
989.262684
 31
0.0
  0
LINE
  5
4D7F
  8
0
 10
2539.488448
 20
983.891994
 30
0.0
 11
2515.488448
 21
983.891994
 31
0.0
  0
LINE
  5
4D80
  8
0
 10
2539.488448
 20
980.091994
 30
0.0
 11
2515.488448
 21
980.091994
 31
0.0
  0
LINE
  5
4D81
  8
0
 10
2515.488448
 20
986.491994
 30
0.0
 11
2515.488448
 21
983.891994
 31
0.0
  0
LINE
  5
4D82
  8
0
 10
2522.488448
 20
986.491994
 30
0.0
 11
2522.488448
 21
983.891994
 31
0.0
  0
LINE
  5
4D83
  8
0
 10
2521.988448
 20
980.091994
 30
0.0
 11
2521.988448
 21
977.491994
 31
0.0
  0
ARC
  5
4D84
  8
0
 10
2518.988448
 20
981.991994
 30
0.0
 40
2.2
 50
120.272641
 51
239.727359
  0
ARC
  5
4D85
  8
0
 10
2518.988448
 20
981.991994
 30
0.0
 40
2.2
 50
300.272641
 51
59.727359
  0
LINE
  5
4D86
  8
0
 10
2515.488448
 20
980.091994
 30
0.0
 11
2515.488448
 21
977.491994
 31
0.0
  0
ARC
  5
4D87
  8
0
 10
2515.488442
 20
1007.741994
 30
0.0
 40
1.520691
 50
189.462322
 51
270.0
  0
ARC
  5
4D88
  8
0
 10
2515.488442
 20
1003.741994
 30
0.0
 40
1.5
 50
87.613021
 51
270.0
  0
ARC
  5
4D89
  8
0
 10
2515.488442
 20
999.741994
 30
0.0
 40
1.5
 50
87.711771
 51
270.0
  0
ARC
  5
4D8A
  8
0
 10
2515.488442
 20
995.741994
 30
0.0
 40
1.5
 50
87.613021
 51
270.0
  0
ARC
  5
4D8B
  8
0
 10
2515.488442
 20
991.741994
 30
0.0
 40
1.520691
 50
87.514275
 51
270.0
  0
ARC
  5
4D8C
  8
0
 10
2515.488442
 20
987.741994
 30
0.0
 40
1.520691
 50
87.514275
 51
235.284996
  0
LINE
  5
4D8D
  8
0
 10
2539.488448
 20
986.491994
 30
0.0
 11
2539.488448
 21
983.891994
 31
0.0
  0
LINE
  5
4D8E
  8
0
 10
2532.488448
 20
986.491994
 30
0.0
 11
2532.488448
 21
983.891994
 31
0.0
  0
LINE
  5
4D8F
  8
0
 10
2532.988448
 20
980.091994
 30
0.0
 11
2532.988448
 21
977.491994
 31
0.0
  0
ARC
  5
4D90
  8
0
 10
2535.988448
 20
981.991994
 30
0.0
 40
2.2
 50
300.272641
 51
59.727359
  0
ARC
  5
4D91
  8
0
 10
2535.988448
 20
981.991994
 30
0.0
 40
2.2
 50
120.272641
 51
239.727359
  0
LINE
  5
4D92
  8
0
 10
2539.488448
 20
980.091994
 30
0.0
 11
2539.488448
 21
977.491994
 31
0.0
  0
ARC
  5
4D93
  8
0
 10
2539.488448
 20
986.241994
 30
0.0
 40
1.5
 50
9.594068
 51
90.0
  0
ARC
  5
4D94
  8
0
 10
2539.488448
 20
1006.241994
 30
0.0
 40
1.520691
 50
267.613021
 51
55.284996
  0
ARC
  5
4D95
  8
0
 10
2539.488448
 20
1002.241994
 30
0.0
 40
1.5
 50
267.613021
 51
90.0
  0
ARC
  5
4D96
  8
0
 10
2539.488448
 20
998.241994
 30
0.0
 40
1.520691
 50
267.514275
 51
90.0
  0
ARC
  5
4D97
  8
0
 10
2539.488448
 20
994.241994
 30
0.0
 40
1.5
 50
267.613021
 51
90.0
  0
ARC
  5
4D98
  8
0
 10
2539.488448
 20
990.241994
 30
0.0
 40
1.5
 50
267.711771
 51
90.0
  0
LINE
  5
4D9D
  8
0
 10
2539.488448
 20
1226.491994
 30
0.0
 11
2515.488448
 21
1226.491994
 31
0.0
  0
LINE
  5
4D9E
  8
0
  6
DASHED
 10
2539.488448
 20
1235.491994
 30
0.0
 11
2515.488448
 21
1235.491994
 31
0.0
  0
LINE
  5
4D9F
  8
0
  6
DASHED
 10
2539.488448
 20
1232.891994
 30
0.0
 11
2515.488448
 21
1232.891994
 31
0.0
  0
LINE
  5
4DA0
  8
0
 10
2539.488448
 20
1229.091994
 30
0.0
 11
2515.488448
 21
1229.091994
 31
0.0
  0
LINE
  5
4DA1
  8
0
  6
DASHED
 10
2515.488448
 20
1235.491994
 30
0.0
 11
2515.488448
 21
1232.891994
 31
0.0
  0
LINE
  5
4DA2
  8
0
  6
DASHED
 10
2522.488448
 20
1235.491994
 30
0.0
 11
2522.488448
 21
1232.891994
 31
0.0
  0
LINE
  5
4DA3
  8
0
 10
2521.988448
 20
1229.091994
 30
0.0
 11
2521.988448
 21
1226.491994
 31
0.0
  0
ARC
  5
4DA4
  8
0
 10
2518.988448
 20
1230.991994
 30
0.0
 40
2.2
 50
120.272641
 51
239.727359
  0
ARC
  5
4DA5
  8
0
 10
2518.988448
 20
1230.991994
 30
0.0
 40
2.2
 50
300.272641
 51
59.727359
  0
LINE
  5
4DA6
  8
0
 10
2515.488448
 20
1229.091994
 30
0.0
 11
2515.488448
 21
1226.491994
 31
0.0
  0
LINE
  5
4DA7
  8
0
 10
2539.488448
 20
1235.491994
 30
0.0
 11
2539.488448
 21
1232.891994
 31
0.0
  0
LINE
  5
4DA8
  8
0
  6
DASHED
 10
2532.488448
 20
1235.491994
 30
0.0
 11
2532.488448
 21
1232.891994
 31
0.0
  0
LINE
  5
4DA9
  8
0
 10
2532.988448
 20
1229.091994
 30
0.0
 11
2532.988448
 21
1226.491994
 31
0.0
  0
ARC
  5
4DAA
  8
0
 10
2535.988448
 20
1230.991994
 30
0.0
 40
2.2
 50
300.272641
 51
59.727359
  0
ARC
  5
4DAB
  8
0
 10
2535.988448
 20
1230.991994
 30
0.0
 40
2.2
 50
120.272641
 51
239.727359
  0
LINE
  5
4DAC
  8
0
 10
2539.488448
 20
1229.091994
 30
0.0
 11
2539.488448
 21
1226.491994
 31
0.0
  0
LINE
  5
4DB0
  8
0
  6
DASHED
 10
2524.388448
 20
1226.491994
 30
0.0
 11
2524.388448
 21
1229.091994
 31
0.0
  0
LINE
  5
4DB1
  8
0
  6
DASHED
 10
2530.588448
 20
1248.991994
 30
0.0
 11
2530.588448
 21
1232.891994
 31
0.0
  0
LINE
  5
4DB2
  8
0
  6
DASHED
 10
2524.388448
 20
1232.891994
 30
0.0
 11
2524.388448
 21
1248.991994
 31
0.0
  0
LINE
  5
4DB3
  8
0
  6
DASHED
 10
2530.588448
 20
1229.091994
 30
0.0
 11
2530.588448
 21
1226.491994
 31
0.0
  0
LINE
  5
4DB4
  8
0
  6
DASHED
 10
2530.588448
 20
1229.091994
 30
0.0
 11
2530.588448
 21
1232.891994
 31
0.0
  0
LINE
  5
4DB5
  8
0
  6
DASHED
 10
2524.388448
 20
1229.091994
 30
0.0
 11
2524.388448
 21
1232.891994
 31
0.0
  0
LINE
  5
4DB6
  8
0
 10
2467.488448
 20
1231.491994
 30
0.0
 11
2587.488448
 21
1231.491994
 31
0.0
  0
LINE
  5
4DB8
  8
0
  6
DASHED
 10
2572.988448
 20
1239.491994
 30
0.0
 11
2572.988448
 21
1231.491994
 31
0.0
  0
LINE
  5
4DB9
  8
0
  6
DASHED
 10
2566.988448
 20
1239.491994
 30
0.0
 11
2566.988448
 21
1231.491994
 31
0.0
  0
LINE
  5
4DBA
  8
0
 10
2563.988448
 20
1231.491994
 30
0.0
 11
2563.988448
 21
981.491994
 31
0.0
  0
LINE
  5
4DBB
  8
0
 10
2575.988448
 20
1231.491994
 30
0.0
 11
2575.988448
 21
981.491994
 31
0.0
  0
LINE
  5
4DBC
  8
0
  6
DASHED
 10
2487.988448
 20
1239.491994
 30
0.0
 11
2487.988448
 21
1231.491994
 31
0.0
  0
LINE
  5
4DBD
  8
0
  6
DASHED
 10
2481.988448
 20
1239.491994
 30
0.0
 11
2481.988448
 21
1231.491994
 31
0.0
  0
LINE
  5
4DBE
  8
0
  6
DASHED
 10
2572.988448
 20
981.491994
 30
0.0
 11
2572.988448
 21
973.491994
 31
0.0
  0
LINE
  5
4DBF
  8
0
  6
DASHED
 10
2566.988448
 20
981.491994
 30
0.0
 11
2566.988448
 21
973.491994
 31
0.0
  0
LINE
  5
4DC0
  8
0
  6
DASHED
 10
2481.988448
 20
981.491994
 30
0.0
 11
2481.988448
 21
973.491994
 31
0.0
  0
LINE
  5
4DC1
  8
0
  6
DASHED
 10
2487.988448
 20
981.491994
 30
0.0
 11
2487.988448
 21
973.491994
 31
0.0
  0
LINE
  5
4DC5
  8
0
  6
DASHED
 10
2487.988448
 20
1231.491994
 30
0.0
 11
2487.988448
 21
1203.491994
 31
0.0
  0
LINE
  5
4DC6
  8
0
  6
DASHED
 10
2481.988448
 20
1231.491994
 30
0.0
 11
2481.988448
 21
1203.491994
 31
0.0
  0
LINE
  5
4DC7
  8
0
  6
DASHED
 10
2566.988448
 20
1231.491994
 30
0.0
 11
2566.988448
 21
1203.491994
 31
0.0
  0
LINE
  5
4DC8
  8
0
  6
DASHED
 10
2572.988448
 20
1231.491994
 30
0.0
 11
2572.988448
 21
1203.491994
 31
0.0
  0
LINE
  5
4DCA
  8
0
  6
DASHED
 10
2487.188448
 20
1231.491994
 30
0.0
 11
2487.188448
 21
1202.95866
 31
0.0
  0
LINE
  5
4DCB
  8
0
  6
DASHED
 10
2482.788448
 20
1231.491994
 30
0.0
 11
2482.788448
 21
1202.95866
 31
0.0
  0
LINE
  5
4DCC
  8
0
  6
DASHED
 10
2567.788448
 20
1231.491994
 30
0.0
 11
2567.788448
 21
1202.95866
 31
0.0
  0
LINE
  5
4DCD
  8
0
  6
DASHED
 10
2572.188448
 20
1231.491994
 30
0.0
 11
2572.188448
 21
1202.95866
 31
0.0
  0
LINE
  5
4DD1
  8
0
  6
DASHED
 10
2481.988448
 20
1203.491994
 30
0.0
 11
2487.988448
 21
1203.491994
 31
0.0
  0
LINE
  5
4DD2
  8
0
  6
DASHED
 10
2484.988448
 20
1201.491994
 30
0.0
 11
2487.988448
 21
1203.491994
 31
0.0
  0
LINE
  5
4DD3
  8
0
  6
DASHED
 10
2484.988448
 20
1201.491994
 30
0.0
 11
2481.988448
 21
1203.491994
 31
0.0
  0
LINE
  5
4DD6
  8
0
  6
DASHED
 10
2569.988448
 20
1201.491994
 30
0.0
 11
2572.988448
 21
1203.491994
 31
0.0
  0
LINE
  5
4DD7
  8
0
  6
DASHED
 10
2569.988448
 20
1201.491994
 30
0.0
 11
2566.988448
 21
1203.491994
 31
0.0
  0
LINE
  5
4DD8
  8
0
  6
DASHED
 10
2566.988448
 20
1203.491994
 30
0.0
 11
2572.988448
 21
1203.491994
 31
0.0
  0
LINE
  5
4DD9
  8
0
  6
DASHED
 10
2487.988448
 20
1009.491994
 30
0.0
 11
2481.988448
 21
1009.491994
 31
0.0
  0
LINE
  5
4DDA
  8
0
  6
DASHED
 10
2487.988448
 20
981.491994
 30
0.0
 11
2487.988448
 21
1009.491994
 31
0.0
  0
LINE
  5
4DDB
  8
0
  6
DASHED
 10
2487.188448
 20
981.491994
 30
0.0
 11
2487.188448
 21
1010.025327
 31
0.0
  0
LINE
  5
4DDC
  8
0
  6
DASHED
 10
2481.988448
 20
981.491994
 30
0.0
 11
2481.988448
 21
1009.491994
 31
0.0
  0
LINE
  5
4DDD
  8
0
  6
DASHED
 10
2482.788448
 20
981.491994
 30
0.0
 11
2482.788448
 21
1010.025327
 31
0.0
  0
LINE
  5
4DDE
  8
0
  6
DASHED
 10
2484.988448
 20
1011.491994
 30
0.0
 11
2487.988448
 21
1009.491994
 31
0.0
  0
LINE
  5
4DDF
  8
0
  6
DASHED
 10
2484.988448
 20
1011.491994
 30
0.0
 11
2481.988448
 21
1009.491994
 31
0.0
  0
LINE
  5
4DE0
  8
0
  6
DASHED
 10
2572.188448
 20
981.491994
 30
0.0
 11
2572.188448
 21
1010.025327
 31
0.0
  0
LINE
  5
4DE1
  8
0
  6
DASHED
 10
2566.988448
 20
981.491994
 30
0.0
 11
2566.988448
 21
1009.491994
 31
0.0
  0
LINE
  5
4DE2
  8
0
  6
DASHED
 10
2567.788448
 20
981.491994
 30
0.0
 11
2567.788448
 21
1010.025327
 31
0.0
  0
LINE
  5
4DE3
  8
0
  6
DASHED
 10
2572.988448
 20
981.491994
 30
0.0
 11
2572.988448
 21
1009.491994
 31
0.0
  0
LINE
  5
4DE4
  8
0
  6
DASHED
 10
2569.988448
 20
1011.491994
 30
0.0
 11
2566.988448
 21
1009.491994
 31
0.0
  0
LINE
  5
4DE5
  8
0
  6
DASHED
 10
2572.988448
 20
1009.491994
 30
0.0
 11
2566.988448
 21
1009.491994
 31
0.0
  0
LINE
  5
4DE6
  8
0
  6
DASHED
 10
2569.988448
 20
1011.491994
 30
0.0
 11
2572.988448
 21
1009.491994
 31
0.0
  0
DIMENSION
  5
4E30
  8
MATEN
  2
*D5
 10
2561.013448
 20
1483.498949
 30
0.0
 11
2525.064339
 21
1486.623949
 31
0.0
 70
     0
 13
2489.115229
 23
1435.780522
 33
0.0
 14
2561.013448
 24
1435.780522
 34
0.0
1001
ACAD
1000
DSTYLE
1002
{
1070
    78
1070
     8
1070
   140
1040
3.0
1070
    74
1070
     0
1070
   172
1070
     1
1070
    73
1070
     0
1070
    77
1070
     1
1070
   147
1040
1.625
1070
    42
1040
0.625
1070
    44
1040
1.25
1070
    43
1040
3.75
1070
   271
1070
     2
1070
   141
1040
2.5
1070
   275
1070
     1
1070
    41
1040
2.0
1070
   273
1070
     8
1070
   274
1070
     4
1070
   143
1040
0.0394
1070
   171
1070
     4
1002
}
  0
DIMENSION
  5
4ECA
  8
MATEN
  2
*D6
 10
2570.068746
 20
1429.805298
 30
0.0
 11
2573.52973
 21
1467.771278
 31
0.0
 70
   131
 15
2571.158151
 25
1441.755746
 35
0.0
 40
0.0
1001
ACAD
1000
DSTYLE
1002
{
1070
    78
1070
     8
1070
   288
1070
     1
1070
   140
1040
3.0
1070
    74
1070
     0
1070
   172
1070
     1
1070
    73
1070
     0
1070
    77
1070
     1
1070
   147
1040
1.625
1070
    42
1040
0.625
1070
    44
1040
1.25
1070
    43
1040
3.75
1070
   271
1070
     2
1070
   141
1040
2.5
1070
   275
1070
     1
1070
    41
1040
2.0
1070
   273
1070
     8
1070
   274
1070
     4
1070
   143
1040
0.0394
1070
   171
1070
     4
1002
}
  0
LINE
  5
4ECB
  8
0
 10
2494.715229
 20
1448.980522
 30
0.0
 11
2494.715229
 21
1413.980522
 31
0.0
  0
LINE
  5
4ECC
  8
0
 10
2555.413448
 20
1448.980522
 30
0.0
 11
2555.413448
 21
1413.980522
 31
0.0
  0
LINE
  5
4ECF
  8
0
 10
2555.813448
 20
1417.580522
 30
0.0
 11
2555.413448
 21
1417.080522
 31
0.0
  0
LINE
  5
4ED0
  8
0
 10
2555.813448
 20
1422.580522
 30
0.0
 11
2555.413448
 21
1423.080522
 31
0.0
  0
LINE
  5
4EED
  8
MATEN
  6
DASHED
 10
2495.065229
 20
1450.480522
 30
0.0
 11
2555.063448
 21
1450.480522
 31
0.0
  0
LINE
  5
4EEE
  8
MATEN
  6
DASHED
 10
2495.065229
 20
1425.480522
 30
0.0
 11
2555.063448
 21
1425.480522
 31
0.0
  0
LINE
  5
4EEF
  8
MATEN
  6
DASHED
 10
2495.065229
 20
1448.980522
 30
0.0
 11
2555.413448
 21
1448.980522
 31
0.0
  0
LINE
  5
537D
  8
0
 10
2764.438131
 20
1454.255967
 30
0.0
 11
3029.138131
 21
1454.255967
 31
0.0
  0
LINE
  5
537E
  8
0
 10
2764.438131
 20
1443.255967
 30
0.0
 11
3029.138131
 21
1443.255967
 31
0.0
  0
LINE
  5
537F
  8
0
 10
2764.438131
 20
1456.755967
 30
0.0
 11
3029.138131
 21
1456.755967
 31
0.0
  0
LINE
  5
5380
  8
0
 10
2764.438131
 20
1440.755967
 30
0.0
 11
3029.138131
 21
1440.755967
 31
0.0
  0
LINE
  5
5381
  8
0
 10
2744.138131
 20
1453.755967
 30
0.0
 11
2744.138131
 21
1443.755967
 31
0.0
  0
LINE
  5
5382
  8
0
 10
2764.438131
 20
1456.755967
 30
0.0
 11
2764.438131
 21
1440.755967
 31
0.0
  0
LINE
  5
5383
  8
0
 10
2744.138131
 20
1453.755967
 30
0.0
 11
2764.438131
 21
1453.755967
 31
0.0
  0
LINE
  5
5384
  8
0
 10
2744.138131
 20
1443.755967
 30
0.0
 11
2764.438131
 21
1443.755967
 31
0.0
  0
LINE
  5
5385
  8
0
 10
2984.627548
 20
1262.617368
 30
0.0
 11
2984.627548
 21
1238.617368
 31
0.0
  0
LINE
  5
5386
  8
0
 10
2980.827548
 20
1262.617368
 30
0.0
 11
2980.827548
 21
1238.617368
 31
0.0
  0
LINE
  5
5387
  8
0
 10
2976.977548
 20
1262.617368
 30
0.0
 11
2975.456857
 21
1238.617362
 31
0.0
  0
LINE
  5
5388
  8
0
 10
2975.977548
 20
1262.617368
 30
0.0
 11
2974.498238
 21
1238.617362
 31
0.0
  0
LINE
  5
5389
  8
0
 10
2972.977548
 20
1262.617368
 30
0.0
 11
2971.456857
 21
1238.617362
 31
0.0
  0
LINE
  5
538A
  8
0
 10
2971.977548
 20
1262.617368
 30
0.0
 11
2970.477548
 21
1238.617362
 31
0.0
  0
LINE
  5
538B
  8
0
 10
2968.977548
 20
1262.617368
 30
0.0
 11
2967.477548
 21
1238.617362
 31
0.0
  0
LINE
  5
538C
  8
0
 10
2967.998238
 20
1262.617368
 30
0.0
 11
2966.477548
 21
1238.617362
 31
0.0
  0
LINE
  5
538D
  8
0
 10
2964.956857
 20
1262.617368
 30
0.0
 11
2963.477548
 21
1238.617362
 31
0.0
  0
LINE
  5
538E
  8
0
 10
2963.977548
 20
1262.617368
 30
0.0
 11
2962.477548
 21
1238.617362
 31
0.0
  0
LINE
  5
538F
  8
0
 10
2960.977548
 20
1262.617368
 30
0.0
 11
2959.477548
 21
1238.617362
 31
0.0
  0
LINE
  5
5390
  8
0
 10
2959.998238
 20
1262.617368
 30
0.0
 11
2958.498238
 21
1238.617362
 31
0.0
  0
LINE
  5
5391
  8
0
 10
2978.227548
 20
1262.617368
 30
0.0
 11
2978.227548
 21
1238.617368
 31
0.0
  0
LINE
  5
5392
  8
0
 10
2978.227548
 20
1237.751336
 30
0.0
 11
2978.227548
 21
1264.096388
 31
0.0
  0
LINE
  5
5393
  8
0
 10
2957.227548
 20
1237.117362
 30
0.0
 11
2957.227548
 21
1263.483394
 31
0.0
  0
LINE
  5
5394
  8
0
 10
2987.227548
 20
1262.617368
 30
0.0
 11
2987.227548
 21
1238.617368
 31
0.0
  0
LINE
  5
5395
  8
0
 10
2984.627548
 20
1238.617368
 30
0.0
 11
2987.227548
 21
1238.617368
 31
0.0
  0
ARC
  5
5396
  8
0
 10
2982.727548
 20
1242.117368
 30
0.0
 40
2.2
 50
30.272641
 51
149.727359
  0
ARC
  5
5397
  8
0
 10
2982.727548
 20
1242.117368
 30
0.0
 40
2.2
 50
210.272641
 51
329.727359
  0
ARC
  5
5398
  8
0
 10
2976.977548
 20
1238.617362
 30
0.0
 40
1.520691
 50
177.514275
 51
325.284996
  0
ARC
  5
5399
  8
0
 10
2972.977548
 20
1238.617362
 30
0.0
 40
1.520691
 50
177.514275
 51
360.0
  0
ARC
  5
539A
  8
0
 10
2968.977548
 20
1238.617362
 30
0.0
 40
1.5
 50
177.613021
 51
0.0
  0
ARC
  5
539B
  8
0
 10
2964.977548
 20
1238.617362
 30
0.0
 40
1.5
 50
177.711771
 51
0.0
  0
ARC
  5
539C
  8
0
 10
2960.977548
 20
1238.617362
 30
0.0
 40
1.5
 50
177.613021
 51
0.0
  0
ARC
  5
539D
  8
0
 10
2956.977548
 20
1238.617362
 30
0.0
 40
1.520691
 50
279.462322
 51
360.0
  0
LINE
  5
539E
  8
0
 10
2978.227548
 20
1245.617368
 30
0.0
 11
2980.827548
 21
1245.617368
 31
0.0
  0
LINE
  5
539F
  8
0
 10
2978.227548
 20
1238.617368
 30
0.0
 11
2980.827548
 21
1238.617368
 31
0.0
  0
LINE
  5
53A0
  8
0
 10
2984.627548
 20
1262.617368
 30
0.0
 11
2987.227548
 21
1262.617368
 31
0.0
  0
ARC
  5
53A1
  8
0
 10
2982.727548
 20
1259.117368
 30
0.0
 40
2.2
 50
210.272641
 51
329.727359
  0
ARC
  5
53A2
  8
0
 10
2982.727548
 20
1259.117368
 30
0.0
 40
2.2
 50
30.272641
 51
149.727359
  0
ARC
  5
53A3
  8
0
 10
2974.477548
 20
1262.617368
 30
0.0
 40
1.5
 50
357.711771
 51
180.0
  0
ARC
  5
53A4
  8
0
 10
2970.477548
 20
1262.617368
 30
0.0
 40
1.5
 50
357.613021
 51
180.0
  0
ARC
  5
53A5
  8
0
 10
2966.477548
 20
1262.617368
 30
0.0
 40
1.520691
 50
357.514275
 51
180.0
  0
ARC
  5
53A6
  8
0
 10
2962.477548
 20
1262.617368
 30
0.0
 40
1.5
 50
357.613021
 51
180.0
  0
ARC
  5
53A7
  8
0
 10
2958.477548
 20
1262.617368
 30
0.0
 40
1.520691
 50
357.613021
 51
145.284996
  0
ARC
  5
53A8
  8
0
 10
2978.477548
 20
1262.617368
 30
0.0
 40
1.5
 50
99.594068
 51
180.0
  0
LINE
  5
53A9
  8
0
 10
2978.227548
 20
1255.617368
 30
0.0
 11
2980.827548
 21
1255.617368
 31
0.0
  0
LINE
  5
53AA
  8
0
 10
2978.227548
 20
1262.617368
 30
0.0
 11
2980.827548
 21
1262.617368
 31
0.0
  0
LINE
  5
53AB
  8
0
 10
2984.627548
 20
1245.117368
 30
0.0
 11
2987.227548
 21
1245.117368
 31
0.0
  0
LINE
  5
53AC
  8
0
 10
2984.627548
 20
1256.117368
 30
0.0
 11
2987.227548
 21
1256.117368
 31
0.0
  0
LINE
  5
53AD
  8
0
 10
2959.997884
 20
1262.584524
 30
0.0
 11
2959.480818
 21
1238.649696
 31
0.0
  0
LINE
  5
53AE
  8
0
 10
2963.965875
 20
1262.430598
 30
0.0
 11
2963.488902
 21
1238.801575
 31
0.0
  0
LINE
  5
53AF
  8
0
 10
2967.998238
 20
1262.617368
 30
0.0
 11
2967.489221
 21
1238.804132
 31
0.0
  0
LINE
  5
53B0
  8
0
 10
2971.977548
 20
1262.617368
 30
0.0
 11
2971.469019
 21
1238.809299
 31
0.0
  0
LINE
  5
53B1
  8
0
 10
2975.966193
 20
1262.433154
 30
0.0
 11
2975.469019
 21
1238.809299
 31
0.0
  0
LINE
  5
53B2
  8
0
 10
3002.627548
 20
1351.509252
 30
0.0
 11
3005.227548
 21
1351.509252
 31
0.0
  0
LINE
  5
53B3
  8
0
 10
3002.627548
 20
1340.509252
 30
0.0
 11
3005.227548
 21
1340.509252
 31
0.0
  0
LINE
  5
53B4
  8
0
 10
2996.227548
 20
1358.009252
 30
0.0
 11
2998.827548
 21
1358.009252
 31
0.0
  0
LINE
  5
53B5
  8
0
 10
2996.227548
 20
1351.009252
 30
0.0
 11
2998.827548
 21
1351.009252
 31
0.0
  0
ARC
  5
53B6
  8
0
 10
3000.727548
 20
1354.509252
 30
0.0
 40
2.2
 50
30.272641
 51
149.727359
  0
ARC
  5
53B7
  8
0
 10
3000.727548
 20
1354.509252
 30
0.0
 40
2.2
 50
210.272641
 51
329.727359
  0
LINE
  5
53B8
  8
0
 10
3002.627548
 20
1358.009252
 30
0.0
 11
3005.227548
 21
1358.009252
 31
0.0
  0
LINE
  5
53B9
  8
0
 10
2996.227548
 20
1334.009252
 30
0.0
 11
2998.827548
 21
1334.009252
 31
0.0
  0
LINE
  5
53BA
  8
0
 10
2996.227548
 20
1341.009252
 30
0.0
 11
2998.827548
 21
1341.009252
 31
0.0
  0
ARC
  5
53BB
  8
0
 10
3000.727548
 20
1337.509252
 30
0.0
 40
2.2
 50
210.272641
 51
329.727359
  0
ARC
  5
53BC
  8
0
 10
3000.727548
 20
1337.509252
 30
0.0
 40
2.2
 50
30.272641
 51
149.727359
  0
LINE
  5
53BD
  8
0
 10
3002.627548
 20
1334.009252
 30
0.0
 11
3005.227548
 21
1334.009252
 31
0.0
  0
LINE
  5
53BE
  8
0
 10
3005.227548
 20
1358.009252
 30
0.0
 11
3005.227548
 21
1334.009252
 31
0.0
  0
LINE
  5
53BF
  8
0
 10
2996.227548
 20
1358.009252
 30
0.0
 11
2996.227548
 21
1334.009252
 31
0.0
  0
LINE
  5
53C0
  8
0
 10
2998.827548
 20
1358.009252
 30
0.0
 11
2998.827548
 21
1334.009252
 31
0.0
  0
LINE
  5
53C1
  8
0
 10
3002.627548
 20
1358.009252
 30
0.0
 11
3002.627548
 21
1334.009252
 31
0.0
  0
ARC
  5
53C2
  8
0
 10
2748.638131
 20
1440.255967
 30
0.0
 40
2.2
 50
210.272641
 51
329.727359
  0
ARC
  5
53C3
  8
0
 10
2748.638131
 20
1440.255967
 30
0.0
 40
2.2
 50
30.272641
 51
149.727359
  0
ARC
  5
53C4
  8
0
 10
2748.638131
 20
1457.255967
 30
0.0
 40
2.2
 50
30.272641
 51
149.727359
  0
ARC
  5
53C5
  8
0
 10
2748.638131
 20
1457.255967
 30
0.0
 40
2.2
 50
210.272641
 51
329.727359
  0
LINE
  5
53C6
  8
0
 10
2746.738131
 20
1443.255967
 30
0.0
 11
2744.138131
 21
1443.255967
 31
0.0
  0
LINE
  5
53C7
  8
0
 10
2746.738131
 20
1454.255967
 30
0.0
 11
2744.138131
 21
1454.255967
 31
0.0
  0
LINE
  5
53C8
  8
0
 10
2746.738131
 20
1436.755967
 30
0.0
 11
2744.138131
 21
1436.755967
 31
0.0
  0
LINE
  5
53C9
  8
0
 10
2746.738131
 20
1460.755967
 30
0.0
 11
2744.138131
 21
1460.755967
 31
0.0
  0
LINE
  5
53CA
  8
0
 10
2744.138131
 20
1436.755967
 30
0.0
 11
2744.138131
 21
1460.755967
 31
0.0
  0
LINE
  5
53CB
  8
0
 10
2746.738131
 20
1436.755967
 30
0.0
 11
2746.738131
 21
1460.755967
 31
0.0
  0
LINE
  5
53CC
  8
0
 10
2755.399486
 20
1436.940181
 30
0.0
 11
2755.89666
 21
1460.564036
 31
0.0
  0
LINE
  5
53CD
  8
0
 10
2759.388131
 20
1436.755967
 30
0.0
 11
2759.89666
 21
1460.564036
 31
0.0
  0
LINE
  5
53CE
  8
0
 10
2763.36744
 20
1436.755967
 30
0.0
 11
2763.876458
 21
1460.569203
 31
0.0
  0
LINE
  5
53CF
  8
0
 10
2753.138131
 20
1436.755967
 30
0.0
 11
2750.538131
 21
1436.755967
 31
0.0
  0
LINE
  5
53D0
  8
0
 10
2753.138131
 20
1443.755967
 30
0.0
 11
2750.538131
 21
1443.755967
 31
0.0
  0
ARC
  5
53D1
  8
0
 10
2752.888131
 20
1436.755967
 30
0.0
 40
1.5
 50
279.594068
 51
0.0
  0
ARC
  5
53D2
  8
0
 10
2764.888131
 20
1436.755967
 30
0.0
 40
1.520691
 50
177.514275
 51
252.787397
  0
ARC
  5
53D3
  8
0
 10
2760.888131
 20
1436.755967
 30
0.0
 40
1.5
 50
177.613021
 51
0.0
  0
ARC
  5
53D4
  8
0
 10
2756.888131
 20
1436.755967
 30
0.0
 40
1.5
 50
177.711771
 51
0.0
  0
LINE
  5
53D5
  8
0
 10
2753.138131
 20
1460.755967
 30
0.0
 11
2750.538131
 21
1460.755967
 31
0.0
  0
LINE
  5
53D6
  8
0
 10
2753.138131
 20
1453.755967
 30
0.0
 11
2750.538131
 21
1453.755967
 31
0.0
  0
ARC
  5
53D7
  8
0
 10
2762.388131
 20
1460.755974
 30
0.0
 40
1.5
 50
357.613021
 51
180.0
  0
ARC
  5
53D8
  8
0
 10
2758.388131
 20
1460.755974
 30
0.0
 40
1.520691
 50
357.514275
 51
180.0
  0
ARC
  5
53D9
  8
0
 10
2754.388131
 20
1460.755974
 30
0.0
 40
1.520691
 50
357.514275
 51
145.284996
  0
LINE
  5
53DA
  8
0
 10
2753.138131
 20
1461.621999
 30
0.0
 11
2753.138131
 21
1435.276947
 31
0.0
  0
LINE
  5
53DB
  8
0
 10
2753.138131
 20
1436.755967
 30
0.0
 11
2753.138131
 21
1460.755967
 31
0.0
  0
LINE
  5
53DC
  8
0
 10
2763.36744
 20
1436.755967
 30
0.0
 11
2764.438131
 21
1453.653936
 31
0.0
  0
LINE
  5
53DD
  8
0
 10
2762.388131
 20
1436.755967
 30
0.0
 11
2763.888131
 21
1460.755974
 31
0.0
  0
LINE
  5
53DE
  8
0
 10
2759.388131
 20
1436.755967
 30
0.0
 11
2760.888131
 21
1460.755974
 31
0.0
  0
LINE
  5
53DF
  8
0
 10
2758.388131
 20
1436.755967
 30
0.0
 11
2759.908822
 21
1460.755974
 31
0.0
  0
LINE
  5
53E0
  8
0
 10
2755.388131
 20
1436.755967
 30
0.0
 11
2756.86744
 21
1460.755974
 31
0.0
  0
LINE
  5
53E1
  8
0
 10
2754.388131
 20
1436.755967
 30
0.0
 11
2755.908822
 21
1460.755974
 31
0.0
  0
LINE
  5
53E2
  8
0
 10
2750.538131
 20
1436.755967
 30
0.0
 11
2750.538131
 21
1460.755967
 31
0.0
  0
LINE
  5
53E3
  8
0
 10
2764.438131
 20
1440.755967
 30
0.0
 11
2764.438131
 21
1435.303383
 31
0.0
  0
LINE
  5
53E4
  8
0
 10
3029.138131
 20
1456.755967
 30
0.0
 11
3029.138131
 21
1440.755967
 31
0.0
  0
LINE
  5
53E5
  8
0
 10
3031.738131
 20
1460.755967
 30
0.0
 11
3031.738131
 21
1453.755967
 31
0.0
  0
LINE
  5
53E6
  8
0
 10
3029.138131
 20
1460.755967
 30
0.0
 11
3029.138131
 21
1436.755967
 31
0.0
  0
LINE
  5
53E7
  8
0
 10
3035.538131
 20
1460.755967
 30
0.0
 11
3035.538131
 21
1453.755967
 31
0.0
  0
LINE
  5
53E8
  8
0
 10
3038.138131
 20
1460.755967
 30
0.0
 11
3038.138131
 21
1453.755967
 31
0.0
  0
ARC
  5
53E9
  8
0
 10
3033.638131
 20
1440.255967
 30
0.0
 40
2.2
 50
210.272641
 51
329.727359
  0
LINE
  5
53EA
  8
0
 10
3029.138131
 20
1436.755967
 30
0.0
 11
3031.738131
 21
1436.755967
 31
0.0
  0
LINE
  5
53EB
  8
0
 10
3035.538131
 20
1436.755967
 30
0.0
 11
3038.138131
 21
1436.755967
 31
0.0
  0
LINE
  5
53EC
  8
0
 10
3029.138131
 20
1460.755967
 30
0.0
 11
3031.738131
 21
1460.755967
 31
0.0
  0
LINE
  5
53ED
  8
0
 10
3035.538131
 20
1460.755967
 30
0.0
 11
3038.138131
 21
1460.755967
 31
0.0
  0
ARC
  5
53EE
  8
0
 10
3033.638131
 20
1440.255967
 30
0.0
 40
2.2
 50
30.272641
 51
149.727359
  0
ARC
  5
53EF
  8
0
 10
3033.638131
 20
1457.255967
 30
0.0
 40
2.2
 50
210.272641
 51
329.727359
  0
ARC
  5
53F0
  8
0
 10
3033.638131
 20
1457.255967
 30
0.0
 40
2.2
 50
30.272641
 51
149.727359
  0
LINE
  5
53F1
  8
0
 10
3031.738131
 20
1443.755967
 30
0.0
 11
3031.738131
 21
1436.755967
 31
0.0
  0
LINE
  5
53F2
  8
0
 10
3035.538131
 20
1443.755967
 30
0.0
 11
3035.538131
 21
1436.755967
 31
0.0
  0
LINE
  5
53F3
  8
0
 10
3038.138131
 20
1443.755967
 30
0.0
 11
3038.138131
 21
1436.755967
 31
0.0
  0
LINE
  5
53F4
  8
0
 10
3044.138131
 20
1453.755967
 30
0.0
 11
3044.138131
 21
1443.755967
 31
0.0
  0
LINE
  5
53F5
  8
0
 10
3029.138131
 20
1453.755967
 30
0.0
 11
3044.138131
 21
1453.755967
 31
0.0
  0
LINE
  5
53F6
  8
0
 10
3029.138131
 20
1443.755967
 30
0.0
 11
3044.138131
 21
1443.755967
 31
0.0
  0
LINE
  5
53F7
  8
0
 10
3035.538131
 20
1454.255967
 30
0.0
 11
3038.138131
 21
1454.255967
 31
0.0
  0
LINE
  5
53F8
  8
0
 10
3035.538131
 20
1443.255967
 30
0.0
 11
3038.138131
 21
1443.255967
 31
0.0
  0
LINE
  5
53F9
  8
0
  6
DASHED
 10
3204.59723
 20
1606.453711
 30
0.0
 11
3205.34723
 21
1605.953711
 31
0.0
  0
LINE
  5
53FA
  8
0
  6
DASHED
 10
3192.24723
 20
1605.953711
 30
0.0
 11
3205.34723
 21
1605.953711
 31
0.0
  0
LINE
  5
53FB
  8
0
 10
3192.24723
 20
1602.853711
 30
0.0
 11
3205.34723
 21
1602.853711
 31
0.0
  0
ARC
  5
53FC
  8
0
 10
3206.84723
 20
1624.653711
 30
0.0
 40
9.6
 50
278.989299
 51
261.010701
  0
LINE
  5
53FD
  8
0
  6
DASHED
 10
3204.59723
 20
1611.453711
 30
0.0
 11
3205.34723
 21
1611.953711
 31
0.0
  0
LINE
  5
53FE
  8
0
  6
DASHED
 10
3192.24723
 20
1611.953711
 30
0.0
 11
3205.34723
 21
1611.953711
 31
0.0
  0
DIMENSION
  5
53FF
  8
MATEN
  2
*D7
 10
3222.04723
 20
1587.510164
 30
0.0
 11
3207.14723
 21
1587.510164
 31
0.0
 12
0.0
 22
-1104.855286
 32
0.0
 70
   128
 13
3192.24723
 23
1602.853711
 33
0.0
 14
3222.04723
 24
1602.853711
 34
0.0
1001
ACAD
1000
DSTYLE
1002
{
1070
    78
1070
     8
1070
   140
1040
3.0
1070
    74
1070
     0
1070
   172
1070
     1
1070
    73
1070
     0
1070
    77
1070
     1
1070
   147
1040
1.625
1070
    42
1040
0.625
1070
    44
1040
1.25
1070
    43
1040
3.75
1070
   271
1070
     2
1070
   141
1040
2.5
1070
   275
1070
     1
1070
    41
1040
2.0
1070
   273
1070
     8
1070
   274
1070
     4
1070
   143
1040
0.0394
1070
   171
1070
     4
1002
}
  0
DIMENSION
  5
5400
  8
MATEN
  2
*D8
 10
3208.34723
 20
1595.247237
 30
0.0
 11
3214.97223
 21
1598.372237
 31
0.0
 12
0.0
 22
-1104.855286
 32
0.0
 70
     0
 13
3205.34723
 23
1602.853711
 33
0.0
 14
3208.34723
 24
1602.853711
 34
0.0
1001
ACAD
1000
DSTYLE
1002
{
1070
    78
1070
     8
1070
   140
1040
3.0
1070
    74
1070
     0
1070
   172
1070
     1
1070
    73
1070
     0
1070
    77
1070
     1
1070
   147
1040
1.625
1070
    42
1040
0.625
1070
    44
1040
1.25
1070
    43
1040
3.75
1070
   271
1070
     2
1070
   141
1040
2.5
1070
   275
1070
     1
1070
    41
1040
2.0
1070
   273
1070
     8
1070
   274
1070
     4
1070
   143
1040
0.0394
1070
   171
1070
     4
1002
}
  0
DIMENSION
  5
5401
  8
MATEN
  2
*D9
 10
3240.458533
 20
1637.853711
 30
0.0
 11
3237.333533
 21
1634.853711
 31
0.0
 12
0.0
 22
-1104.855286
 32
0.0
 70
     0
 13
3192.24723
 23
1631.853711
 33
0.0
 14
3222.04723
 24
1637.853711
 34
0.0
 50
90.0
1001
ACAD
1000
DSTYLE
1002
{
1070
    78
1070
     8
1070
   140
1040
3.0
1070
    74
1070
     0
1070
   172
1070
     1
1070
    73
1070
     0
1070
    77
1070
     1
1070
   147
1040
1.625
1070
    42
1040
0.625
1070
    44
1040
1.25
1070
    43
1040
3.75
1070
   271
1070
     2
1070
   141
1040
2.5
1070
   275
1070
     1
1070
    41
1040
2.0
1070
   273
1070
     8
1070
   274
1070
     4
1070
   143
1040
0.0394
1070
   171
1070
     4
1002
}
  0
LINE
  5
5402
  8
0
 10
3108.04723
 20
1637.853711
 30
0.0
 11
3222.04723
 21
1637.853711
 31
0.0
  0
LINE
  5
5403
  8
0
  6
DASHED
 10
3199.37223
 20
1580.044366
 30
0.0
 11
3215.37223
 21
1580.044366
 31
0.0
  0
LINE
  5
5404
  8
0
  6
DASHED
 10
3197.24723
 20
1533.044366
 30
0.0
 11
3216.44723
 21
1533.044366
 31
0.0
  0
LINE
  5
5405
  8
0
  6
DASHED
 10
3197.24723
 20
1552.044366
 30
0.0
 11
3216.44723
 21
1552.044366
 31
0.0
  0
LINE
  5
5406
  8
0
  6
DASHED
 10
3205.34723
 20
1524.103322
 30
0.0
 11
3192.24723
 21
1524.103322
 31
0.0
  0
LINE
  5
5407
  8
0
  6
DASHED
 10
3205.34723
 20
1529.98541
 30
0.0
 11
3192.24723
 21
1529.98541
 31
0.0
  0
LINE
  5
5408
  8
0
  6
DASHED
 10
3205.34723
 20
1529.48541
 30
0.0
 11
3192.24723
 21
1529.48541
 31
0.0
  0
LINE
  5
5409
  8
0
  6
DASHED
 10
3205.34723
 20
1524.603322
 30
0.0
 11
3192.24723
 21
1524.603322
 31
0.0
  0
LINE
  5
540A
  8
0
  6
DASHED
 10
3205.34723
 20
1576.48541
 30
0.0
 11
3192.24723
 21
1576.48541
 31
0.0
  0
LINE
  5
540B
  8
0
  6
DASHED
 10
3205.34723
 20
1571.603322
 30
0.0
 11
3192.24723
 21
1571.603322
 31
0.0
  0
LINE
  5
540C
  8
0
  6
DASHED
 10
3205.34723
 20
1560.48541
 30
0.0
 11
3192.24723
 21
1560.48541
 31
0.0
  0
LINE
  5
540D
  8
0
  6
DASHED
 10
3205.34723
 20
1555.603322
 30
0.0
 11
3192.24723
 21
1555.603322
 31
0.0
  0
LINE
  5
540E
  8
0
  6
DASHED
 10
3205.34723
 20
1576.98541
 30
0.0
 11
3192.24723
 21
1576.98541
 31
0.0
  0
LINE
  5
540F
  8
0
  6
DASHED
 10
3205.34723
 20
1571.103322
 30
0.0
 11
3192.24723
 21
1571.103322
 31
0.0
  0
LINE
  5
5410
  8
0
  6
DASHED
 10
3205.34723
 20
1560.98541
 30
0.0
 11
3192.24723
 21
1560.98541
 31
0.0
  0
LINE
  5
5411
  8
0
  6
DASHED
 10
3205.34723
 20
1555.103322
 30
0.0
 11
3192.24723
 21
1555.103322
 31
0.0
  0
LINE
  5
5412
  8
0
  6
DASHED
 10
3199.37223
 20
1505.044366
 30
0.0
 11
3215.37223
 21
1505.044366
 31
0.0
  0
LINE
  5
5413
  8
0
  6
DASHED
 10
3205.34723
 20
1508.103322
 30
0.0
 11
3192.24723
 21
1508.103322
 31
0.0
  0
LINE
  5
5414
  8
0
  6
DASHED
 10
3205.34723
 20
1513.98541
 30
0.0
 11
3192.24723
 21
1513.98541
 31
0.0
  0
LINE
  5
5415
  8
0
  6
DASHED
 10
3205.34723
 20
1513.48541
 30
0.0
 11
3192.24723
 21
1513.48541
 31
0.0
  0
LINE
  5
5416
  8
0
  6
DASHED
 10
3205.34723
 20
1508.603322
 30
0.0
 11
3192.24723
 21
1508.603322
 31
0.0
  0
LINE
  5
5417
  8
0
 10
3108.04723
 20
1505.044366
 30
0.0
 11
3222.04723
 21
1505.044366
 31
0.0
  0
LINE
  5
5418
  8
0
 10
3108.04723
 20
1580.044366
 30
0.0
 11
3222.04723
 21
1580.044366
 31
0.0
  0
DIMENSION
  5
5419
  8
MATEN
  2
*D10
 10
3222.04723
 20
1490.213849
 30
0.0
 11
3165.14723
 21
1490.213849
 31
0.0
 12
0.0
 22
-1104.855286
 32
0.0
 70
   128
 13
3108.04723
 23
1505.044366
 33
0.0
 14
3222.04723
 24
1505.044366
 34
0.0
1001
ACAD
1000
DSTYLE
1002
{
1070
    78
1070
     8
1070
   140
1040
3.0
1070
    74
1070
     0
1070
   172
1070
     1
1070
    73
1070
     0
1070
    77
1070
     1
1070
   147
1040
1.625
1070
    42
1040
0.625
1070
    44
1040
1.25
1070
    43
1040
3.75
1070
   271
1070
     2
1070
   141
1040
2.5
1070
   275
1070
     1
1070
    41
1040
2.0
1070
   273
1070
     8
1070
   274
1070
     4
1070
   143
1040
0.0394
1070
   171
1070
     4
1002
}
  0
LINE
  5
541A
  8
0
  6
DASHED
 10
3121.34723
 20
1524.103322
 30
0.0
 11
3108.04723
 21
1524.103322
 31
0.0
  0
LINE
  5
541B
  8
0
  6
DASHED
 10
3121.34723
 20
1529.98541
 30
0.0
 11
3108.04723
 21
1529.98541
 31
0.0
  0
LINE
  5
541C
  8
0
  6
DASHED
 10
3121.34723
 20
1576.98541
 30
0.0
 11
3108.04723
 21
1576.98541
 31
0.0
  0
LINE
  5
541D
  8
0
  6
DASHED
 10
3121.34723
 20
1571.103322
 30
0.0
 11
3108.04723
 21
1571.103322
 31
0.0
  0
LINE
  5
541E
  8
0
  6
DASHED
 10
3121.34723
 20
1560.98541
 30
0.0
 11
3108.04723
 21
1560.98541
 31
0.0
  0
LINE
  5
541F
  8
0
  6
DASHED
 10
3121.34723
 20
1555.103322
 30
0.0
 11
3108.04723
 21
1555.103322
 31
0.0
  0
LINE
  5
5420
  8
0
  6
DASHED
 10
3121.34723
 20
1508.103322
 30
0.0
 11
3108.04723
 21
1508.103322
 31
0.0
  0
LINE
  5
5421
  8
0
  6
DASHED
 10
3121.34723
 20
1513.98541
 30
0.0
 11
3108.04723
 21
1513.98541
 31
0.0
  0
DIMENSION
  5
5422
  8
MATEN
  2
*D11
 10
3108.04723
 20
1496.070468
 30
0.0
 11
3115.44723
 21
1499.195468
 31
0.0
 12
0.0
 22
-1104.855286
 32
0.0
 70
     0
 13
3122.84723
 23
1505.044366
 33
0.0
 14
3108.04723
 24
1505.044366
 34
0.0
1001
ACAD
1000
DSTYLE
1002
{
1070
    78
1070
     8
1070
   140
1040
3.0
1070
    74
1070
     0
1070
   172
1070
     1
1070
    73
1070
     0
1070
    77
1070
     1
1070
   147
1040
1.625
1070
    42
1040
0.625
1070
    44
1040
1.25
1070
    43
1040
3.75
1070
   271
1070
     2
1070
   141
1040
2.5
1070
   275
1070
     1
1070
    41
1040
2.0
1070
   273
1070
     8
1070
   274
1070
     4
1070
   143
1040
0.0394
1070
   171
1070
     4
1002
}
  0
LINE
  5
5423
  8
0
 10
3108.04723
 20
1505.044366
 30
0.0
 11
3108.04723
 21
1580.044366
 31
0.0
  0
DIMENSION
  5
5424
  8
MATEN
  2
*D12
 10
3085.133121
 20
1505.044366
 30
0.0
 11
3082.008121
 21
1542.544366
 31
0.0
 12
0.0
 22
-1104.855286
 32
0.0
 70
     0
 13
3108.04723
 23
1580.044366
 33
0.0
 14
3108.04723
 24
1505.044366
 34
0.0
 50
90.0
1001
ACAD
1000
DSTYLE
1002
{
1070
    78
1070
     8
1070
   140
1040
3.0
1070
    74
1070
     0
1070
   172
1070
     1
1070
    73
1070
     0
1070
    77
1070
     1
1070
   147
1040
1.625
1070
    42
1040
0.625
1070
    44
1040
1.25
1070
    43
1040
3.75
1070
   271
1070
     2
1070
   141
1040
2.5
1070
   275
1070
     1
1070
    41
1040
2.0
1070
   273
1070
     8
1070
   274
1070
     4
1070
   143
1040
0.0394
1070
   171
1070
     4
1002
}
  0
LINE
  5
5425
  8
0
  6
DASHED
 10
3197.24723
 20
1505.044366
 30
0.0
 11
3197.24723
 21
1580.044366
 31
0.0
  0
LINE
  5
5426
  8
0
 10
3192.24723
 20
1505.044366
 30
0.0
 11
3192.24723
 21
1580.044366
 31
0.0
  0
LINE
  5
5427
  8
0
  6
DASHED
 10
3132.44723
 20
1505.044366
 30
0.0
 11
3132.44723
 21
1580.044366
 31
0.0
  0
LINE
  5
5428
  8
0
  6
DASHED
 10
3113.24723
 20
1505.044366
 30
0.0
 11
3113.24723
 21
1580.044366
 31
0.0
  0
LINE
  5
5429
  8
0
 10
3137.84723
 20
1505.044366
 30
0.0
 11
3137.84723
 21
1580.044366
 31
0.0
  0
LINE
  5
542A
  8
0
 10
3121.34723
 20
1580.044366
 30
0.0
 11
3121.34723
 21
1505.044366
 31
0.0
  0
LINE
  5
542B
  8
0
 10
3124.34723
 20
1580.044366
 30
0.0
 11
3124.34723
 21
1505.044366
 31
0.0
  0
LINE
  5
542C
  8
0
  6
DASHED
 10
3114.72223
 20
1505.044366
 30
0.0
 11
3130.72223
 21
1505.044366
 31
0.0
  0
LINE
  5
542D
  8
0
  6
DASHED
 10
3137.84723
 20
1513.98541
 30
0.0
 11
3124.34723
 21
1513.98541
 31
0.0
  0
LINE
  5
542E
  8
0
  6
DASHED
 10
3137.84723
 20
1508.103322
 30
0.0
 11
3124.34723
 21
1508.103322
 31
0.0
  0
LINE
  5
542F
  8
0
  6
DASHED
 10
3137.84723
 20
1513.48541
 30
0.0
 11
3124.34723
 21
1513.48541
 31
0.0
  0
LINE
  5
5430
  8
0
  6
DASHED
 10
3137.84723
 20
1508.603322
 30
0.0
 11
3124.34723
 21
1508.603322
 31
0.0
  0
LINE
  5
5431
  8
0
  6
DASHED
 10
3114.72223
 20
1580.044366
 30
0.0
 11
3130.72223
 21
1580.044366
 31
0.0
  0
LINE
  5
5432
  8
0
  6
DASHED
 10
3113.72223
 20
1533.044366
 30
0.0
 11
3113.24723
 21
1533.044366
 31
0.0
  0
LINE
  5
5433
  8
0
  6
DASHED
 10
3113.72223
 20
1552.044366
 30
0.0
 11
3113.24723
 21
1552.044366
 31
0.0
  0
LINE
  5
5434
  8
0
  6
DASHED
 10
3113.72223
 20
1552.044366
 30
0.0
 11
3132.44723
 21
1552.044366
 31
0.0
  0
LINE
  5
5435
  8
0
  6
DASHED
 10
3113.72223
 20
1533.044366
 30
0.0
 11
3132.44723
 21
1533.044366
 31
0.0
  0
LINE
  5
5436
  8
0
  6
DASHED
 10
3137.84723
 20
1524.103322
 30
0.0
 11
3124.34723
 21
1524.103322
 31
0.0
  0
LINE
  5
5437
  8
0
  6
DASHED
 10
3137.84723
 20
1529.98541
 30
0.0
 11
3124.34723
 21
1529.98541
 31
0.0
  0
LINE
  5
5438
  8
0
  6
DASHED
 10
3137.84723
 20
1529.48541
 30
0.0
 11
3124.34723
 21
1529.48541
 31
0.0
  0
LINE
  5
5439
  8
0
  6
DASHED
 10
3137.84723
 20
1524.603322
 30
0.0
 11
3124.34723
 21
1524.603322
 31
0.0
  0
LINE
  5
543A
  8
0
  6
DASHED
 10
3137.84723
 20
1555.603322
 30
0.0
 11
3124.34723
 21
1555.603322
 31
0.0
  0
LINE
  5
543B
  8
0
  6
DASHED
 10
3137.84723
 20
1560.48541
 30
0.0
 11
3124.34723
 21
1560.48541
 31
0.0
  0
LINE
  5
543C
  8
0
  6
DASHED
 10
3137.84723
 20
1560.98541
 30
0.0
 11
3124.34723
 21
1560.98541
 31
0.0
  0
LINE
  5
543D
  8
0
  6
DASHED
 10
3137.84723
 20
1555.103322
 30
0.0
 11
3124.34723
 21
1555.103322
 31
0.0
  0
LINE
  5
543E
  8
0
  6
DASHED
 10
3137.84723
 20
1576.48541
 30
0.0
 11
3124.34723
 21
1576.48541
 31
0.0
  0
LINE
  5
543F
  8
0
  6
DASHED
 10
3137.84723
 20
1571.603322
 30
0.0
 11
3124.34723
 21
1571.603322
 31
0.0
  0
LINE
  5
5440
  8
0
  6
DASHED
 10
3137.84723
 20
1576.98541
 30
0.0
 11
3124.34723
 21
1576.98541
 31
0.0
  0
LINE
  5
5441
  8
0
  6
DASHED
 10
3137.84723
 20
1571.103322
 30
0.0
 11
3124.34723
 21
1571.103322
 31
0.0
  0
LINE
  5
5442
  8
0
  6
DASHED
 10
3108.04723
 20
1605.953711
 30
0.0
 11
3121.34723
 21
1605.953711
 31
0.0
  0
LINE
  5
5443
  8
0
 10
3121.34723
 20
1602.853711
 30
0.0
 11
3108.04723
 21
1602.853711
 31
0.0
  0
LINE
  5
5444
  8
0
  6
DASHED
 10
3108.04723
 20
1611.953711
 30
0.0
 11
3121.34723
 21
1611.953711
 31
0.0
  0
DIMENSION
  5
5445
  8
MATEN
  2
*D13
 10
3137.84723
 20
1591.965793
 30
0.0
 11
3122.94723
 21
1595.090793
 31
0.0
 12
0.0
 22
-1104.855286
 32
0.0
 70
     0
 13
3108.04723
 23
1602.853711
 33
0.0
 14
3137.84723
 24
1602.853711
 34
0.0
1001
ACAD
1000
DSTYLE
1002
{
1070
    78
1070
     8
1070
   140
1040
3.0
1070
    74
1070
     0
1070
   172
1070
     1
1070
    73
1070
     0
1070
    77
1070
     1
1070
   147
1040
1.625
1070
    42
1040
0.625
1070
    44
1040
1.25
1070
    43
1040
3.75
1070
   271
1070
     2
1070
   141
1040
2.5
1070
   275
1070
     1
1070
    41
1040
2.0
1070
   273
1070
     8
1070
   274
1070
     4
1070
   143
1040
0.0394
1070
   171
1070
     4
1002
}
  0
DIMENSION
  5
5446
  8
MATEN
  2
*D14
 10
3087.263072
 20
1637.853711
 30
0.0
 11
3084.138072
 21
1631.253711
 31
0.0
 12
0.0
 22
-1104.855286
 32
0.0
 70
     0
 13
3122.84723
 23
1624.653711
 33
0.0
 14
3108.04723
 24
1637.853711
 34
0.0
 50
90.0
1001
ACAD
1000
DSTYLE
1002
{
1070
    78
1070
     8
1070
   140
1040
3.0
1070
    74
1070
     0
1070
   172
1070
     1
1070
    73
1070
     0
1070
    77
1070
     1
1070
   147
1040
1.625
1070
    42
1040
0.625
1070
    44
1040
1.25
1070
    43
1040
3.75
1070
   271
1070
     2
1070
   141
1040
2.5
1070
   275
1070
     1
1070
    41
1040
2.0
1070
   273
1070
     8
1070
   274
1070
     4
1070
   143
1040
0.0394
1070
   171
1070
     4
1002
}
  0
LINE
  5
5447
  8
0
 10
3108.04723
 20
1637.853711
 30
0.0
 11
3108.04723
 21
1602.853711
 31
0.0
  0
DIMENSION
  5
5448
  8
MATEN
  2
*D15
 10
3119.184701
 20
1615.779824
 30
0.0
 11
3133.879799
 21
1651.384363
 31
0.0
 12
0.0
 22
-1104.855286
 32
0.0
 70
   131
 15
3126.509759
 25
1633.527599
 35
0.0
 40
0.0
1001
ACAD
1000
DSTYLE
1002
{
1070
    78
1070
     8
1070
   288
1070
     1
1070
   140
1040
3.0
1070
    74
1070
     0
1070
   172
1070
     1
1070
    73
1070
     0
1070
    77
1070
     1
1070
   147
1040
1.625
1070
    42
1040
0.625
1070
    44
1040
1.25
1070
    43
1040
3.75
1070
   271
1070
     2
1070
   141
1040
2.5
1070
   275
1070
     1
1070
    41
1040
2.0
1070
   273
1070
     8
1070
   274
1070
     4
1070
   143
1040
0.0394
1070
   171
1070
     4
1002
}
  0
LINE
  5
5449
  8
0
 10
3192.24723
 20
1631.853711
 30
0.0
 11
3137.84723
 21
1631.853711
 31
0.0
  0
LINE
  5
544A
  8
0
  6
DASHED
 10
3125.09723
 20
1606.453711
 30
0.0
 11
3125.09723
 21
1611.453711
 31
0.0
  0
LINE
  5
544B
  8
0
  6
DASHED
 10
3137.09723
 20
1606.453711
 30
0.0
 11
3137.09723
 21
1611.453711
 31
0.0
  0
LINE
  5
544C
  8
0
 10
3137.84723
 20
1631.853711
 30
0.0
 11
3137.84723
 21
1602.853711
 31
0.0
  0
LINE
  5
544D
  8
0
 10
3124.34723
 20
1602.853711
 30
0.0
 11
3124.34723
 21
1615.171623
 31
0.0
  0
LINE
  5
544E
  8
0
 10
3121.34723
 20
1602.853711
 30
0.0
 11
3121.34723
 21
1615.171623
 31
0.0
  0
LINE
  5
544F
  8
0
  6
DASHED
 10
3125.09723
 20
1606.453711
 30
0.0
 11
3137.09723
 21
1606.453711
 31
0.0
  0
LINE
  5
5450
  8
0
  6
DASHED
 10
3124.34723
 20
1605.953711
 30
0.0
 11
3137.84723
 21
1605.953711
 31
0.0
  0
LINE
  5
5451
  8
0
 10
3124.34723
 20
1602.853711
 30
0.0
 11
3137.84723
 21
1602.853711
 31
0.0
  0
LINE
  5
5452
  8
0
  6
DASHED
 10
3125.09723
 20
1606.453711
 30
0.0
 11
3124.34723
 21
1605.953711
 31
0.0
  0
LINE
  5
5453
  8
0
  6
DASHED
 10
3137.09723
 20
1606.453711
 30
0.0
 11
3137.84723
 21
1605.953711
 31
0.0
  0
LINE
  5
5454
  8
0
  6
DASHED
 10
3125.09723
 20
1611.453711
 30
0.0
 11
3137.09723
 21
1611.453711
 31
0.0
  0
LINE
  5
5455
  8
0
  6
DASHED
 10
3124.34723
 20
1611.953711
 30
0.0
 11
3137.84723
 21
1611.953711
 31
0.0
  0
ARC
  5
5456
  8
0
 10
3122.84723
 20
1624.653711
 30
0.0
 40
9.6
 50
278.989299
 51
261.010701
  0
LINE
  5
5457
  8
0
  6
DASHED
 10
3125.09723
 20
1611.453711
 30
0.0
 11
3124.34723
 21
1611.953711
 31
0.0
  0
LINE
  5
5458
  8
0
  6
DASHED
 10
3137.09723
 20
1611.453711
 30
0.0
 11
3137.84723
 21
1611.953711
 31
0.0
  0
LINE
  5
5459
  8
0
  6
DASHED
 10
3204.59723
 20
1606.453711
 30
0.0
 11
3204.59723
 21
1611.453711
 31
0.0
  0
LINE
  5
545A
  8
0
  6
DASHED
 10
3192.99723
 20
1606.453711
 30
0.0
 11
3192.99723
 21
1611.453711
 31
0.0
  0
LINE
  5
545B
  8
0
 10
3192.24723
 20
1631.853711
 30
0.0
 11
3192.24723
 21
1602.853711
 31
0.0
  0
LINE
  5
545C
  8
0
  6
DASHED
 10
3192.99723
 20
1606.453711
 30
0.0
 11
3192.24723
 21
1605.953711
 31
0.0
  0
LINE
  5
545D
  8
0
  6
DASHED
 10
3192.99723
 20
1606.453711
 30
0.0
 11
3204.59723
 21
1606.453711
 31
0.0
  0
LINE
  5
545E
  8
0
  6
DASHED
 10
3192.99723
 20
1611.453711
 30
0.0
 11
3192.24723
 21
1611.953711
 31
0.0
  0
LINE
  5
545F
  8
0
  6
DASHED
 10
3192.99723
 20
1611.453711
 30
0.0
 11
3204.59723
 21
1611.453711
 31
0.0
  0
DIMENSION
  5
5460
  8
MATEN
  2
*D16
 10
3238.601026
 20
1580.044366
 30
0.0
 11
3235.476026
 21
1577.044366
 31
0.0
 12
0.0
 22
-1104.855286
 32
0.0
 70
     0
 13
3250.932104
 23
1574.044366
 33
0.0
 14
3244.773148
 24
1580.044366
 34
0.0
 50
90.0
1001
ACAD
1000
DSTYLE
1002
{
1070
    78
1070
     8
1070
   140
1040
3.0
1070
    74
1070
     0
1070
   172
1070
     1
1070
    73
1070
     0
1070
    77
1070
     1
1070
   147
1040
1.625
1070
    42
1040
0.625
1070
    44
1040
1.25
1070
    43
1040
3.75
1070
   271
1070
     2
1070
   141
1040
2.5
1070
   275
1070
     1
1070
    41
1040
2.0
1070
   273
1070
     8
1070
   274
1070
     4
1070
   143
1040
0.0394
1070
   171
1070
     4
1002
}
  0
DIMENSION
  5
5461
  8
MATEN
  2
*D17
 10
3279.773148
 20
1588.404435
 30
0.0
 11
3262.273148
 21
1591.529435
 31
0.0
 12
0.0
 22
-1104.855286
 32
0.0
 70
     0
 13
3244.773148
 23
1580.044366
 33
0.0
 14
3279.773148
 24
1580.044366
 34
0.0
1001
ACAD
1000
DSTYLE
1002
{
1070
    78
1070
     8
1070
   140
1040
3.0
1070
    74
1070
     0
1070
   172
1070
     1
1070
    73
1070
     0
1070
    77
1070
     1
1070
   147
1040
1.625
1070
    42
1040
0.625
1070
    44
1040
1.25
1070
    43
1040
3.75
1070
   271
1070
     2
1070
   141
1040
2.5
1070
   275
1070
     1
1070
    41
1040
2.0
1070
   273
1070
     8
1070
   274
1070
     4
1070
   143
1040
0.0394
1070
   171
1070
     4
1002
}
  0
DIMENSION
  5
5462
  8
MATEN
  2
*D18
 10
3250.932104
 20
1582.898086
 30
0.0
 11
3260.557104
 21
1586.023086
 31
0.0
 12
0.0
 22
-1104.855286
 32
0.0
 70
     0
 13
3244.773148
 23
1580.044366
 33
0.0
 14
3250.932104
 24
1574.044366
 34
0.0
1001
ACAD
1000
DSTYLE
1002
{
1070
    78
1070
     8
1070
   140
1040
3.0
1070
    74
1070
     0
1070
   172
1070
     1
1070
    73
1070
     0
1070
    77
1070
     1
1070
   147
1040
1.625
1070
    42
1040
0.625
1070
    44
1040
1.25
1070
    43
1040
3.75
1070
   271
1070
     2
1070
   141
1040
2.5
1070
   275
1070
     1
1070
    41
1040
2.0
1070
   273
1070
     8
1070
   274
1070
     4
1070
   143
1040
0.0394
1070
   171
1070
     4
1002
}
  0
LINE
  5
5463
  8
0
 10
3222.04723
 20
1505.044366
 30
0.0
 11
3222.04723
 21
1580.044366
 31
0.0
  0
LINE
  5
5464
  8
0
  6
DASHED
 10
3216.44723
 20
1505.044366
 30
0.0
 11
3216.44723
 21
1580.044366
 31
0.0
  0
LINE
  5
5465
  8
0
 10
3205.34723
 20
1580.044366
 30
0.0
 11
3205.34723
 21
1505.044366
 31
0.0
  0
LINE
  5
5466
  8
0
 10
3208.34723
 20
1580.044366
 30
0.0
 11
3208.34723
 21
1505.044366
 31
0.0
  0
LINE
  5
5467
  8
0
  6
DASHED
 10
3276.173148
 20
1580.044366
 30
0.0
 11
3276.173148
 21
1505.044366
 31
0.0
  0
LINE
  5
5468
  8
0
 10
3279.773148
 20
1580.044366
 30
0.0
 11
3279.773148
 21
1505.044366
 31
0.0
  0
LINE
  5
5469
  8
0
  6
DASHED
 10
3256.973148
 20
1580.044366
 30
0.0
 11
3256.973148
 21
1505.044366
 31
0.0
  0
LINE
  5
546A
  8
0
 10
3244.773148
 20
1580.044366
 30
0.0
 11
3244.773148
 21
1505.044366
 31
0.0
  0
LINE
  5
546B
  8
0
  6
DASHED
 10
3272.573148
 20
1533.044366
 30
0.0
 11
3272.573148
 21
1505.044366
 31
0.0
  0
LINE
  5
546C
  8
0
  6
DASHED
 10
3260.573148
 20
1533.044366
 30
0.0
 11
3260.573148
 21
1505.044366
 31
0.0
  0
DIMENSION
  5
546D
  8
MATEN
  2
*D19
 10
3288.625559
 20
1580.044366
 30
0.0
 11
3285.500559
 21
1542.544366
 31
0.0
 12
0.0
 22
-1104.855286
 32
0.0
 70
     0
 13
3279.773148
 23
1505.044366
 33
0.0
 14
3279.773148
 24
1580.044366
 34
0.0
 50
90.0
1001
ACAD
1000
DSTYLE
1002
{
1070
    78
1070
     8
1070
   140
1040
3.0
1070
    74
1070
     0
1070
   172
1070
     1
1070
    73
1070
     0
1070
    77
1070
     1
1070
   147
1040
1.625
1070
    42
1040
0.625
1070
    44
1040
1.25
1070
    43
1040
3.75
1070
   271
1070
     2
1070
   141
1040
2.5
1070
   275
1070
     1
1070
    41
1040
2.0
1070
   273
1070
     8
1070
   274
1070
     4
1070
   143
1040
0.0394
1070
   171
1070
     4
1002
}
  0
LINE
  5
546E
  8
0
 10
3279.773148
 20
1505.044366
 30
0.0
 11
3244.773148
 21
1505.044366
 31
0.0
  0
CIRCLE
  5
546F
  8
0
 10
3250.932104
 20
1511.044366
 30
0.0
 40
2.941044
  0
ARC
  5
5470
  8
0
 10
3250.932104
 20
1511.044366
 30
0.0
 40
2.441044
 50
90.0
 51
0.0
  0
LINE
  5
5471
  8
0
  6
DASHED
 10
3222.04723
 20
1513.98541
 30
0.0
 11
3208.34723
 21
1513.98541
 31
0.0
  0
LINE
  5
5472
  8
0
  6
DASHED
 10
3222.04723
 20
1508.103322
 30
0.0
 11
3208.34723
 21
1508.103322
 31
0.0
  0
DIMENSION
  5
5473
  8
MATEN
  2
*D20
 10
3222.04723
 20
1495.341187
 30
0.0
 11
3214.44723
 21
1498.466187
 31
0.0
 12
0.0
 22
-1104.855286
 32
0.0
 70
     0
 13
3206.84723
 23
1505.044366
 33
0.0
 14
3222.04723
 24
1505.044366
 34
0.0
1001
ACAD
1000
DSTYLE
1002
{
1070
    78
1070
     8
1070
   140
1040
3.0
1070
    74
1070
     0
1070
   172
1070
     1
1070
    73
1070
     0
1070
    77
1070
     1
1070
   147
1040
1.625
1070
    42
1040
0.625
1070
    44
1040
1.25
1070
    43
1040
3.75
1070
   271
1070
     2
1070
   141
1040
2.5
1070
   275
1070
     1
1070
    41
1040
2.0
1070
   273
1070
     8
1070
   274
1070
     4
1070
   143
1040
0.0394
1070
   171
1070
     4
1002
}
  0
LINE
  5
5474
  8
0
 10
3279.773148
 20
1580.044366
 30
0.0
 11
3244.773148
 21
1580.044366
 31
0.0
  0
ARC
  5
5475
  8
0
 10
3250.932104
 20
1574.044366
 30
0.0
 40
2.441044
 50
0.0
 51
270.0
  0
CIRCLE
  5
5476
  8
0
 10
3250.932104
 20
1574.044366
 30
0.0
 40
2.941044
  0
ARC
  5
5477
  8
0
 10
3250.932104
 20
1558.044366
 30
0.0
 40
2.441044
 50
270.0
 51
180.0
  0
CIRCLE
  5
5478
  8
0
 10
3250.932104
 20
1558.044366
 30
0.0
 40
2.941044
  0
ARC
  5
5479
  8
0
 10
3250.932104
 20
1527.044366
 30
0.0
 40
2.441044
 50
180.0
 51
90.0
  0
CIRCLE
  5
547A
  8
0
 10
3250.932104
 20
1527.044366
 30
0.0
 40
2.941044
  0
DIMENSION
  5
547B
  8
MATEN
  2
*D21
 10
3252.99003
 20
1560.14548
 30
0.0
 11
3237.32043
 21
1544.147029
 31
0.0
 12
0.0
 22
-1104.855286
 32
0.0
 70
   131
  1
M6
 15
3248.874178
 25
1555.943251
 35
0.0
 40
0.0
1001
ACAD
1000
DSTYLE
1002
{
1070
    78
1070
     8
1070
   288
1070
     1
1070
   140
1040
3.0
1070
    74
1070
     0
1070
   172
1070
     1
1070
    73
1070
     0
1070
    77
1070
     1
1070
   147
1040
1.625
1070
    42
1040
0.625
1070
    44
1040
1.25
1070
    43
1040
3.75
1070
   271
1070
     2
1070
   141
1040
2.5
1070
   275
1070
     1
1070
    41
1040
2.0
1070
   273
1070
     8
1070
   274
1070
     4
1070
   143
1040
0.0394
1070
   171
1070
     4
1002
}
  0
LINE
  5
547C
  8
0
  6
DASHED
 10
3222.04723
 20
1524.103322
 30
0.0
 11
3208.34723
 21
1524.103322
 31
0.0
  0
LINE
  5
547D
  8
0
  6
DASHED
 10
3222.04723
 20
1529.98541
 30
0.0
 11
3208.34723
 21
1529.98541
 31
0.0
  0
LINE
  5
547E
  8
0
  6
DASHED
 10
3222.04723
 20
1560.98541
 30
0.0
 11
3208.34723
 21
1560.98541
 31
0.0
  0
LINE
  5
547F
  8
0
  6
DASHED
 10
3222.04723
 20
1555.103322
 30
0.0
 11
3208.34723
 21
1555.103322
 31
0.0
  0
LINE
  5
5480
  8
0
  6
DASHED
 10
3222.04723
 20
1576.98541
 30
0.0
 11
3208.34723
 21
1576.98541
 31
0.0
  0
LINE
  5
5481
  8
0
  6
DASHED
 10
3222.04723
 20
1571.103322
 30
0.0
 11
3208.34723
 21
1571.103322
 31
0.0
  0
DIMENSION
  5
5482
  8
MATEN
  2
*D22
 10
3238.601026
 20
1574.044366
 30
0.0
 11
3235.476026
 21
1566.044366
 31
0.0
 12
0.0
 22
-1104.855286
 32
0.0
 70
     0
 13
3250.932104
 23
1558.044366
 33
0.0
 14
3250.932104
 24
1574.044366
 34
0.0
 50
90.0
1001
ACAD
1000
DSTYLE
1002
{
1070
    78
1070
     8
1070
   140
1040
3.0
1070
    74
1070
     0
1070
   172
1070
     1
1070
    73
1070
     0
1070
    77
1070
     1
1070
   147
1040
1.625
1070
    42
1040
0.625
1070
    44
1040
1.25
1070
    43
1040
3.75
1070
   271
1070
     2
1070
   141
1040
2.5
1070
   275
1070
     1
1070
    41
1040
2.0
1070
   273
1070
     8
1070
   274
1070
     4
1070
   143
1040
0.0394
1070
   171
1070
     4
1002
}
  0
LINE
  5
5483
  8
0
  6
DASHED
 10
3272.573148
 20
1552.044366
 30
0.0
 11
3272.573148
 21
1580.044366
 31
0.0
  0
LINE
  5
5484
  8
0
  6
DASHED
 10
3260.573148
 20
1552.044366
 30
0.0
 11
3260.573148
 21
1580.044366
 31
0.0
  0
LINE
  5
5485
  8
0
  6
DASHED
 10
3256.973148
 20
1552.044366
 30
0.0
 11
3276.173148
 21
1552.044366
 31
0.0
  0
LINE
  5
5486
  8
0
  6
DASHED
 10
3256.973148
 20
1533.044366
 30
0.0
 11
3276.173148
 21
1533.044366
 31
0.0
  0
LINE
  5
5487
  8
0
 10
3208.34723
 20
1602.853711
 30
0.0
 11
3208.34723
 21
1615.171623
 31
0.0
  0
LINE
  5
5488
  8
0
 10
3205.34723
 20
1602.853711
 30
0.0
 11
3205.34723
 21
1615.171623
 31
0.0
  0
LINE
  5
5489
  8
0
 10
3222.04723
 20
1637.853711
 30
0.0
 11
3222.04723
 21
1602.853711
 31
0.0
  0
LINE
  5
548A
  8
0
  6
DASHED
 10
3208.34723
 20
1605.953711
 30
0.0
 11
3222.04723
 21
1605.953711
 31
0.0
  0
LINE
  5
548B
  8
0
 10
3222.04723
 20
1602.853711
 30
0.0
 11
3208.34723
 21
1602.853711
 31
0.0
  0
LINE
  5
548C
  8
0
  6
DASHED
 10
3208.34723
 20
1611.953711
 30
0.0
 11
3222.04723
 21
1611.953711
 31
0.0
  0
DIMENSION
  5
548D
  8
MATEN
  2
*D23
 10
3206.84723
 20
1661.459048
 30
0.0
 11
3161.519353
 21
1661.459048
 31
0.0
 12
0.0
 22
-1104.855286
 32
0.0
 70
   129
 13
3122.84723
 23
1624.653711
 33
0.0
 14
3206.84723
 24
1624.653711
 34
0.0
1001
ACAD
1000
DSTYLE
1002
{
1070
    78
1070
     8
1070
   288
1070
     1
1070
   140
1040
2.0
1070
    74
1070
     0
1070
   172
1070
     1
1070
    73
1070
     0
1070
    77
1070
     1
1070
   147
1040
1.0
1070
    42
1040
0.625
1070
    44
1040
1.25
1070
    43
1040
3.75
1070
   271
1070
     2
1070
   141
1040
1.0
1070
   275
1070
     1
1070
    41
1040
2.0
1070
   273
1070
     8
1070
   274
1070
     4
1070
   143
1040
0.0394
1070
   171
1070
     4
1002
}
  0
DIMENSION
  5
548E
  8
MATEN
  2
*D24
 10
3207.02223
 20
1038.064487
 30
0.0
 11
3161.344353
 21
1038.064487
 31
0.0
 12
0.0
 22
-1159.827767
 32
0.0
 70
   129
 13
3122.67223
 23
1001.259151
 33
0.0
 14
3207.02223
 24
1001.259151
 34
0.0
1001
ACAD
1000
DSTYLE
1002
{
1070
    78
1070
     8
1070
   288
1070
     1
1070
   140
1040
2.0
1070
    74
1070
     0
1070
   172
1070
     1
1070
    73
1070
     0
1070
    77
1070
     1
1070
   147
1040
1.0
1070
    42
1040
0.625
1070
    44
1040
1.25
1070
    43
1040
3.75
1070
   271
1070
     2
1070
   141
1040
1.0
1070
   275
1070
     1
1070
    41
1040
2.0
1070
   273
1070
     8
1070
   274
1070
     4
1070
   143
1040
0.0394
1070
   171
1070
     4
1002
}
  0
LINE
  5
548F
  8
0
 10
3107.87223
 20
1014.459151
 30
0.0
 11
3222.22223
 21
1014.459151
 31
0.0
  0
DIMENSION
  5
5490
  8
MATEN
  2
*D25
 10
3240.633533
 20
1014.459151
 30
0.0
 11
3237.508533
 21
1011.459151
 31
0.0
 12
0.0
 22
-1159.827767
 32
0.0
 70
     0
 13
3192.42223
 23
1008.459151
 33
0.0
 14
3222.22223
 24
1014.459151
 34
0.0
 50
90.0
1001
ACAD
1000
DSTYLE
1002
{
1070
    78
1070
     8
1070
   140
1040
3.0
1070
    74
1070
     0
1070
   172
1070
     1
1070
    73
1070
     0
1070
    77
1070
     1
1070
   147
1040
1.625
1070
    42
1040
0.625
1070
    44
1040
1.25
1070
    43
1040
3.75
1070
   271
1070
     2
1070
   141
1040
2.5
1070
   275
1070
     1
1070
    41
1040
2.0
1070
   273
1070
     8
1070
   274
1070
     4
1070
   143
1040
0.0394
1070
   171
1070
     4
1002
}
  0
DIMENSION
  5
5491
  8
MATEN
  2
*D26
 10
3208.52223
 20
971.852676
 30
0.0
 11
3215.14723
 21
974.977676
 31
0.0
 12
0.0
 22
-1159.827767
 32
0.0
 70
     0
 13
3205.52223
 23
979.459151
 33
0.0
 14
3208.52223
 24
979.459151
 34
0.0
1001
ACAD
1000
DSTYLE
1002
{
1070
    78
1070
     8
1070
   140
1040
3.0
1070
    74
1070
     0
1070
   172
1070
     1
1070
    73
1070
     0
1070
    77
1070
     1
1070
   147
1040
1.625
1070
    42
1040
0.625
1070
    44
1040
1.25
1070
    43
1040
3.75
1070
   271
1070
     2
1070
   141
1040
2.5
1070
   275
1070
     1
1070
    41
1040
2.0
1070
   273
1070
     8
1070
   274
1070
     4
1070
   143
1040
0.0394
1070
   171
1070
     4
1002
}
  0
DIMENSION
  5
5492
  8
MATEN
  2
*D27
 10
3222.22223
 20
964.115603
 30
0.0
 11
3207.32223
 21
964.115603
 31
0.0
 12
0.0
 22
-1159.827767
 32
0.0
 70
   128
 13
3192.42223
 23
979.459151
 33
0.0
 14
3222.22223
 24
979.459151
 34
0.0
1001
ACAD
1000
DSTYLE
1002
{
1070
    78
1070
     8
1070
   140
1040
3.0
1070
    74
1070
     0
1070
   172
1070
     1
1070
    73
1070
     0
1070
    77
1070
     1
1070
   147
1040
1.625
1070
    42
1040
0.625
1070
    44
1040
1.25
1070
    43
1040
3.75
1070
   271
1070
     2
1070
   141
1040
2.5
1070
   275
1070
     1
1070
    41
1040
2.0
1070
   273
1070
     8
1070
   274
1070
     4
1070
   143
1040
0.0394
1070
   171
1070
     4
1002
}
  0
LINE
  5
5493
  8
0
  6
DASHED
 10
3192.42223
 20
988.559151
 30
0.0
 11
3205.52223
 21
988.559151
 31
0.0
  0
LINE
  5
5494
  8
0
  6
DASHED
 10
3204.77223
 20
988.059151
 30
0.0
 11
3205.52223
 21
988.559151
 31
0.0
  0
ARC
  5
5495
  8
0
 10
3207.02223
 20
1001.259151
 30
0.0
 40
9.6
 50
278.989299
 51
261.010701
  0
LINE
  5
5496
  8
0
 10
3192.42223
 20
979.459151
 30
0.0
 11
3205.52223
 21
979.459151
 31
0.0
  0
LINE
  5
5497
  8
0
  6
DASHED
 10
3192.42223
 20
982.559151
 30
0.0
 11
3205.52223
 21
982.559151
 31
0.0
  0
LINE
  5
5498
  8
0
  6
DASHED
 10
3204.77223
 20
983.059151
 30
0.0
 11
3205.52223
 21
982.559151
 31
0.0
  0
DIMENSION
  5
5499
  8
MATEN
  2
*D28
 10
3087.088072
 20
1014.459151
 30
0.0
 11
3083.963072
 21
1007.859151
 31
0.0
 12
0.0
 22
-1159.827767
 32
0.0
 70
     0
 13
3122.67223
 23
1001.259151
 33
0.0
 14
3107.87223
 24
1014.459151
 34
0.0
 50
90.0
1001
ACAD
1000
DSTYLE
1002
{
1070
    78
1070
     8
1070
   140
1040
3.0
1070
    74
1070
     0
1070
   172
1070
     1
1070
    73
1070
     0
1070
    77
1070
     1
1070
   147
1040
1.625
1070
    42
1040
0.625
1070
    44
1040
1.25
1070
    43
1040
3.75
1070
   271
1070
     2
1070
   141
1040
2.5
1070
   275
1070
     1
1070
    41
1040
2.0
1070
   273
1070
     8
1070
   274
1070
     4
1070
   143
1040
0.0394
1070
   171
1070
     4
1002
}
  0
DIMENSION
  5
549A
  8
MATEN
  2
*D29
 10
3137.67223
 20
968.571232
 30
0.0
 11
3122.77223
 21
971.696232
 31
0.0
 12
0.0
 22
-1159.827767
 32
0.0
 70
     0
 13
3107.87223
 23
979.459151
 33
0.0
 14
3137.67223
 24
979.459151
 34
0.0
1001
ACAD
1000
DSTYLE
1002
{
1070
    78
1070
     8
1070
   140
1040
3.0
1070
    74
1070
     0
1070
   172
1070
     1
1070
    73
1070
     0
1070
    77
1070
     1
1070
   147
1040
1.625
1070
    42
1040
0.625
1070
    44
1040
1.25
1070
    43
1040
3.75
1070
   271
1070
     2
1070
   141
1040
2.5
1070
   275
1070
     1
1070
    41
1040
2.0
1070
   273
1070
     8
1070
   274
1070
     4
1070
   143
1040
0.0394
1070
   171
1070
     4
1002
}
  0
LINE
  5
549B
  8
0
  6
DASHED
 10
3107.87223
 20
988.559151
 30
0.0
 11
3121.17223
 21
988.559151
 31
0.0
  0
LINE
  5
549C
  8
0
 10
3121.17223
 20
979.459151
 30
0.0
 11
3107.87223
 21
979.459151
 31
0.0
  0
LINE
  5
549D
  8
0
  6
DASHED
 10
3107.87223
 20
982.559151
 30
0.0
 11
3121.17223
 21
982.559151
 31
0.0
  0
LINE
  5
549E
  8
0
 10
3107.87223
 20
1014.459151
 30
0.0
 11
3107.87223
 21
979.459151
 31
0.0
  0
LINE
  5
549F
  8
0
 10
3192.42223
 20
1008.459151
 30
0.0
 11
3137.67223
 21
1008.459151
 31
0.0
  0
LINE
  5
54A0
  8
0
  6
DASHED
 10
3136.92223
 20
988.059151
 30
0.0
 11
3137.67223
 21
988.559151
 31
0.0
  0
LINE
  5
54A1
  8
0
  6
DASHED
 10
3124.92223
 20
988.059151
 30
0.0
 11
3124.17223
 21
988.559151
 31
0.0
  0
ARC
  5
54A2
  8
0
 10
3122.67223
 20
1001.259151
 30
0.0
 40
9.6
 50
278.989299
 51
261.010701
  0
LINE
  5
54A3
  8
0
  6
DASHED
 10
3124.17223
 20
988.559151
 30
0.0
 11
3137.67223
 21
988.559151
 31
0.0
  0
LINE
  5
54A4
  8
0
  6
DASHED
 10
3124.92223
 20
988.059151
 30
0.0
 11
3136.92223
 21
988.059151
 31
0.0
  0
LINE
  5
54A5
  8
0
  6
DASHED
 10
3136.92223
 20
983.059151
 30
0.0
 11
3137.67223
 21
982.559151
 31
0.0
  0
LINE
  5
54A6
  8
0
  6
DASHED
 10
3124.92223
 20
983.059151
 30
0.0
 11
3124.17223
 21
982.559151
 31
0.0
  0
LINE
  5
54A7
  8
0
 10
3124.17223
 20
979.459151
 30
0.0
 11
3137.67223
 21
979.459151
 31
0.0
  0
LINE
  5
54A8
  8
0
  6
DASHED
 10
3124.17223
 20
982.559151
 30
0.0
 11
3137.67223
 21
982.559151
 31
0.0
  0
LINE
  5
54A9
  8
0
  6
DASHED
 10
3124.92223
 20
983.059151
 30
0.0
 11
3136.92223
 21
983.059151
 31
0.0
  0
LINE
  5
54AA
  8
0
 10
3121.17223
 20
979.459151
 30
0.0
 11
3121.17223
 21
991.777062
 31
0.0
  0
LINE
  5
54AB
  8
0
 10
3124.17223
 20
979.459151
 30
0.0
 11
3124.17223
 21
991.777062
 31
0.0
  0
LINE
  5
54AC
  8
0
 10
3137.67223
 20
1008.459151
 30
0.0
 11
3137.67223
 21
979.459151
 31
0.0
  0
LINE
  5
54AD
  8
0
  6
DASHED
 10
3136.92223
 20
983.059151
 30
0.0
 11
3136.92223
 21
988.059151
 31
0.0
  0
LINE
  5
54AE
  8
0
  6
DASHED
 10
3124.92223
 20
983.059151
 30
0.0
 11
3124.92223
 21
988.059151
 31
0.0
  0
DIMENSION
  5
54AF
  8
MATEN
  2
*D30
 10
3119.009701
 20
992.385263
 30
0.0
 11
3133.704799
 21
1027.989802
 31
0.0
 12
0.0
 22
-1159.827767
 32
0.0
 70
   131
 15
3126.334759
 25
1010.133038
 35
0.0
 40
0.0
1001
ACAD
1000
DSTYLE
1002
{
1070
    78
1070
     8
1070
   288
1070
     1
1070
   140
1040
3.0
1070
    74
1070
     0
1070
   172
1070
     1
1070
    73
1070
     0
1070
    77
1070
     1
1070
   147
1040
1.625
1070
    42
1040
0.625
1070
    44
1040
1.25
1070
    43
1040
3.75
1070
   271
1070
     2
1070
   141
1040
2.5
1070
   275
1070
     1
1070
    41
1040
2.0
1070
   273
1070
     8
1070
   274
1070
     4
1070
   143
1040
0.0394
1070
   171
1070
     4
1002
}
  0
LINE
  5
54B0
  8
0
  6
DASHED
 10
3193.17223
 20
988.059151
 30
0.0
 11
3204.77223
 21
988.059151
 31
0.0
  0
LINE
  5
54B1
  8
0
  6
DASHED
 10
3193.17223
 20
988.059151
 30
0.0
 11
3192.42223
 21
988.559151
 31
0.0
  0
LINE
  5
54B2
  8
0
  6
DASHED
 10
3193.17223
 20
983.059151
 30
0.0
 11
3204.77223
 21
983.059151
 31
0.0
  0
LINE
  5
54B3
  8
0
  6
DASHED
 10
3193.17223
 20
983.059151
 30
0.0
 11
3192.42223
 21
982.559151
 31
0.0
  0
LINE
  5
54B4
  8
0
 10
3192.42223
 20
1008.459151
 30
0.0
 11
3192.42223
 21
979.459151
 31
0.0
  0
LINE
  5
54B5
  8
0
  6
DASHED
 10
3193.17223
 20
983.059151
 30
0.0
 11
3193.17223
 21
988.059151
 31
0.0
  0
LINE
  5
54B6
  8
0
  6
DASHED
 10
3204.77223
 20
983.059151
 30
0.0
 11
3204.77223
 21
988.059151
 31
0.0
  0
LINE
  5
54B7
  8
0
  6
DASHED
 10
3208.52223
 20
988.559151
 30
0.0
 11
3222.22223
 21
988.559151
 31
0.0
  0
LINE
  5
54B8
  8
0
 10
3222.22223
 20
979.459151
 30
0.0
 11
3208.52223
 21
979.459151
 31
0.0
  0
LINE
  5
54B9
  8
0
 10
3222.22223
 20
1014.459151
 30
0.0
 11
3222.22223
 21
979.459151
 31
0.0
  0
LINE
  5
54BA
  8
0
 10
3205.52223
 20
979.459151
 30
0.0
 11
3205.52223
 21
991.777062
 31
0.0
  0
LINE
  5
54BB
  8
0
 10
3208.52223
 20
979.459151
 30
0.0
 11
3208.52223
 21
991.777062
 31
0.0
  0
LINE
  5
54BC
  8
0
 10
2794.394425
 20
1573.024908
 30
0.0
 11
2824.794425
 21
1573.024908
 31
0.0
  0
LINE
  5
54BD
  8
0
 10
2794.394425
 20
1573.024908
 30
0.0
 11
2794.394425
 21
1543.344908
 31
0.0
  0
LINE
  5
54BE
  8
0
  6
ACAD_ISO02W100
 10
2794.394425
 20
1549.674908
 30
0.0
 11
2824.794425
 21
1549.674908
 31
0.0
  0
LINE
  5
54BF
  8
0
  6
ACAD_ISO02W100
 10
2794.394425
 20
1565.674908
 30
0.0
 11
2824.794425
 21
1565.674908
 31
0.0
  0
LINE
  5
54C0
  8
0
  6
ACAD_ISO02W100
 10
2794.394425
 20
1563.424908
 30
0.0
 11
2824.794425
 21
1563.424908
 31
0.0
  0
LINE
  5
54C1
  8
0
  6
ACAD_ISO02W100
 10
2794.394425
 20
1551.924908
 30
0.0
 11
2824.794425
 21
1551.924908
 31
0.0
  0
LINE
  5
54C2
  8
0
 10
2824.794425
 20
1573.024908
 30
0.0
 11
2824.794425
 21
1543.344908
 31
0.0
  0
CIRCLE
  5
54C3
  8
0
 10
2857.959001
 20
1557.674908
 30
0.0
 40
8.0
  0
ARC
  5
54C4
  8
0
 10
2857.959001
 20
1557.674908
 30
0.0
 40
15.35
 50
291.004786
 51
319.347792
  0
ARC
  5
54C5
  8
0
 10
2857.959001
 20
1557.674908
 30
0.0
 40
5.75
 50
0.0
 51
270.0
  0
ARC
  5
54C6
  8
0
 10
2857.959001
 20
1557.674908
 30
0.0
 40
15.35
 50
220.652208
 51
248.995214
  0
ARC
  5
54C7
  8
0
 10
2857.959001
 20
1557.674908
 30
0.0
 40
15.35
 50
40.652208
 51
139.347792
  0
LINE
  5
54C8
  8
0
 10
2852.456856
 20
1543.344908
 30
0.0
 11
2863.461146
 21
1543.344908
 31
0.0
  0
LINE
  5
54C9
  8
0
 10
2846.313293
 20
1567.674908
 30
0.0
 11
2846.313293
 21
1547.674908
 31
0.0
  0
LINE
  5
54CA
  8
0
 10
2869.604708
 20
1567.674908
 30
0.0
 11
2869.604708
 21
1547.674908
 31
0.0
  0
LINE
  5
54CB
  8
0
 10
2824.794425
 20
1543.344908
 30
0.0
 11
2794.394425
 21
1543.344908
 31
0.0
  0
LINE
  5
54CC
  8
0
 10
2972.227087
 20
1600.262295
 30
0.0
 11
2972.227087
 21
1575.262295
 31
0.0
  0
LINE
  5
54CD
  8
0
 10
2912.227087
 20
1600.262295
 30
0.0
 11
2912.227087
 21
1575.262295
 31
0.0
  0
LINE
  5
54CE
  8
0
 10
2953.872794
 20
1600.262295
 30
0.0
 11
2953.872794
 21
1575.262295
 31
0.0
  0
LINE
  5
54CF
  8
0
 10
2930.581379
 20
1600.262295
 30
0.0
 11
2930.581379
 21
1575.262295
 31
0.0
  0
CIRCLE
  5
54D0
  8
0
 10
2925.992806
 20
1587.762295
 30
0.0
 40
3.0
  0
CIRCLE
  5
54D1
  8
0
 10
2958.461367
 20
1587.762295
 30
0.0
 40
3.0
  0
ARC
  5
54D2
  8
0
 10
2925.992806
 20
1587.762295
 30
0.0
 40
2.3
 50
0.0
 51
270.0
  0
ARC
  5
54D3
  8
0
 10
2958.461367
 20
1587.762295
 30
0.0
 40
2.3
 50
90.0
 51
0.0
  0
LINE
  5
54D4
  8
0
 10
2913.56566
 20
1600.262295
 30
0.0
 11
2913.56566
 21
1575.262295
 31
0.0
  0
LINE
  5
54D5
  8
0
 10
2920.06566
 20
1600.262295
 30
0.0
 11
2920.06566
 21
1575.262295
 31
0.0
  0
LINE
  5
54D6
  8
0
 10
2964.388513
 20
1600.262295
 30
0.0
 11
2964.388513
 21
1575.262295
 31
0.0
  0
LINE
  5
54D7
  8
0
 10
2970.888513
 20
1600.262295
 30
0.0
 11
2970.888513
 21
1575.262295
 31
0.0
  0
LINE
  5
54D8
  8
0
 10
2912.227087
 20
1600.262295
 30
0.0
 11
2972.227087
 21
1600.262295
 31
0.0
  0
LINE
  5
54D9
  8
0
 10
2972.227087
 20
1575.262295
 30
0.0
 11
2912.227087
 21
1575.262295
 31
0.0
  0
LINE
  5
54DA
  8
0
 10
2953.872794
 20
1632.267802
 30
0.0
 11
2930.581379
 21
1632.267802
 31
0.0
  0
LINE
  5
54DB
  8
0
 10
2967.227087
 20
1650.304703
 30
0.0
 11
2953.917794
 21
1650.304703
 31
0.0
  0
LINE
  5
54DC
  8
0
 10
2930.536379
 20
1650.304703
 30
0.0
 11
2917.227087
 21
1650.304703
 31
0.0
  0
LINE
  5
54DD
  8
0
 10
2972.227087
 20
1624.267802
 30
0.0
 11
2972.227087
 21
1632.267802
 31
0.0
  0
LINE
  5
54DE
  8
0
 10
2912.227087
 20
1624.267802
 30
0.0
 11
2912.227087
 21
1632.267802
 31
0.0
  0
LINE
  5
54DF
  8
0
 10
2972.227087
 20
1624.267802
 30
0.0
 11
2912.227087
 21
1624.267802
 31
0.0
  0
LINE
  5
54E0
  8
0
 10
2972.227087
 20
1650.304703
 30
0.0
 11
2953.917794
 21
1650.304703
 31
0.0
  0
LINE
  5
54E1
  8
0
 10
2972.227087
 20
1692.704703
 30
0.0
 11
2912.227087
 21
1692.704703
 31
0.0
  0
LINE
  5
54E2
  8
0
 10
2972.227087
 20
1632.267802
 30
0.0
 11
2912.227087
 21
1632.267802
 31
0.0
  0
LINE
  5
54E3
  8
0
 10
2930.536379
 20
1650.304703
 30
0.0
 11
2912.227087
 21
1650.304703
 31
0.0
  0
LINE
  5
54E4
  8
0
 10
2912.227087
 20
1650.304703
 30
0.0
 11
2912.227087
 21
1692.704703
 31
0.0
  0
LINE
  5
54E5
  8
0
  6
ACAD_ISO02W100
 10
2922.992806
 20
1624.267802
 30
0.0
 11
2922.992806
 21
1632.267802
 31
0.0
  0
LINE
  5
54E6
  8
0
  6
ACAD_ISO02W100
 10
2928.992806
 20
1624.267802
 30
0.0
 11
2928.992806
 21
1632.267802
 31
0.0
  0
LINE
  5
54E7
  8
0
  6
ACAD_ISO02W100
 10
2955.461367
 20
1624.267802
 30
0.0
 11
2955.461367
 21
1632.267802
 31
0.0
  0
LINE
  5
54E8
  8
0
  6
ACAD_ISO02W100
 10
2961.461367
 20
1624.267802
 30
0.0
 11
2961.461367
 21
1632.267802
 31
0.0
  0
LINE
  5
54E9
  8
0
  6
ACAD_ISO02W100
 10
2961.461367
 20
1667.004703
 30
0.0
 11
2955.461367
 21
1667.004703
 31
0.0
  0
LINE
  5
54EA
  8
0
  6
ACAD_ISO02W100
 10
2928.992806
 20
1667.004703
 30
0.0
 11
2922.992806
 21
1667.004703
 31
0.0
  0
LINE
  5
54EB
  8
0
  6
ACAD_ISO02W100
 10
2955.461367
 20
1667.004703
 30
0.0
 11
2958.461367
 21
1669.004703
 31
0.0
  0
LINE
  5
54EC
  8
0
  6
ACAD_ISO02W100
 10
2961.461367
 20
1667.004703
 30
0.0
 11
2958.461367
 21
1669.004703
 31
0.0
  0
LINE
  5
54ED
  8
0
  6
ACAD_ISO02W100
 10
2922.992806
 20
1667.004703
 30
0.0
 11
2925.992806
 21
1669.004703
 31
0.0
  0
LINE
  5
54EE
  8
0
  6
ACAD_ISO02W100
 10
2928.992806
 20
1667.004703
 30
0.0
 11
2925.992806
 21
1669.004703
 31
0.0
  0
LINE
  5
54EF
  8
0
  6
ACAD_ISO02W100
 10
2928.992806
 20
1650.304703
 30
0.0
 11
2928.992806
 21
1667.004703
 31
0.0
  0
LINE
  5
54F0
  8
0
  6
ACAD_ISO02W100
 10
2922.992806
 20
1650.304703
 30
0.0
 11
2922.992806
 21
1667.004703
 31
0.0
  0
LINE
  5
54F1
  8
0
  6
ACAD_ISO02W100
 10
2955.461367
 20
1650.304703
 30
0.0
 11
2955.461367
 21
1667.004703
 31
0.0
  0
LINE
  5
54F2
  8
0
  6
ACAD_ISO02W100
 10
2961.461367
 20
1650.304703
 30
0.0
 11
2961.461367
 21
1667.004703
 31
0.0
  0
LINE
  5
54F3
  8
0
  6
ACAD_ISO02W100
 10
2960.761367
 20
1650.304703
 30
0.0
 11
2960.761367
 21
1667.471369
 31
0.0
  0
LINE
  5
54F4
  8
0
  6
ACAD_ISO02W100
 10
2956.161367
 20
1650.304703
 30
0.0
 11
2956.161367
 21
1667.471369
 31
0.0
  0
LINE
  5
54F5
  8
0
  6
ACAD_ISO02W100
 10
2923.692806
 20
1650.304703
 30
0.0
 11
2923.692806
 21
1667.471369
 31
0.0
  0
LINE
  5
54F6
  8
0
  6
ACAD_ISO02W100
 10
2928.292806
 20
1650.304703
 30
0.0
 11
2928.292806
 21
1667.471369
 31
0.0
  0
LINE
  5
54F7
  8
0
  6
ACAD_ISO02W100
 10
2933.227087
 20
1624.267802
 30
0.0
 11
2933.227087
 21
1632.267802
 31
0.0
  0
LINE
  5
54F8
  8
0
  6
ACAD_ISO02W100
 10
2951.227087
 20
1624.267802
 30
0.0
 11
2951.227087
 21
1632.267802
 31
0.0
  0
LINE
  5
54F9
  8
0
  6
ACAD_ISO02W100
 10
2933.227087
 20
1680.104703
 30
0.0
 11
2933.227087
 21
1692.704703
 31
0.0
  0
LINE
  5
54FA
  8
0
  6
ACAD_ISO02W100
 10
2951.227087
 20
1680.104703
 30
0.0
 11
2951.227087
 21
1692.704703
 31
0.0
  0
CIRCLE
  5
54FB
  8
0
 10
2967.638513
 20
1665.204703
 30
0.0
 40
3.25
  0
CIRCLE
  5
54FC
  8
0
 10
2916.81566
 20
1665.204703
 30
0.0
 40
3.25
  0
LINE
  5
54FD
  8
0
 10
2972.227087
 20
1650.304703
 30
0.0
 11
2972.227087
 21
1692.704703
 31
0.0
  0
LINE
  5
54FE
  8
0
 10
2953.917794
 20
1650.304703
 30
0.0
 11
2953.917794
 21
1680.104703
 31
0.0
  0
LINE
  5
54FF
  8
0
 10
2930.536379
 20
1650.304703
 30
0.0
 11
2930.536379
 21
1680.104703
 31
0.0
  0
LINE
  5
5500
  8
0
 10
2930.536379
 20
1680.104703
 30
0.0
 11
2953.917794
 21
1680.104703
 31
0.0
  0
CIRCLE
  5
5501
  8
0
 10
2942.227087
 20
1590.592295
 30
0.0
 40
9.0
  0
TEXT
  8
0
  40
5
  5
59EC
  72
0
  71
0
 10
2910.64
 20
1553.16
 30
0.000000
  1
Trapezium moer ophanging 
  0
TEXT
  8
0
  40
5
  5
59ED
  72
0
  71
0
 10
2910.64
 20
1546.66
 30
0.000000
  1
centerend t.o.v. de X as
  0
TEXT
  8
0
  40
5
  5
59EE
  72
0
  71
0
 10
2910.64
 20
1540.16
 30
0.000000
  1
J.Stinissen 07-12-2000 
  0
LINE
  5
5503
  8
0
 10
2906.42437
 20
1259.582362
 30
0.0
 11
2906.42437
 21
1239.582362
 31
0.0
  0
LINE
  5
5504
  8
0
 10
2883.132955
 20
1259.582362
 30
0.0
 11
2883.132955
 21
1239.582362
 31
0.0
  0
CIRCLE
  5
5505
  8
0
 10
2894.778663
 20
1249.582362
 30
0.0
 40
8.0
  0
ARC
  5
5506
  8
0
 10
2894.778663
 20
1249.582362
 30
0.0
 40
15.35
 50
220.652208
 51
248.995214
  0
LINE
  5
5507
  8
0
 10
2889.276518
 20
1235.252362
 30
0.0
 11
2900.280808
 21
1235.252362
 31
0.0
  0
ARC
  5
5508
  8
0
 10
2894.778663
 20
1249.582362
 30
0.0
 40
5.75
 50
0.0
 51
270.0
  0
ARC
  5
5509
  8
0
 10
2894.778663
 20
1249.582362
 30
0.0
 40
15.35
 50
291.004786
 51
319.347792
  0
ARC
  5
550A
  8
0
 10
2894.778663
 20
1249.582362
 30
0.0
 40
15.35
 50
40.652208
 51
139.347792
  0
ARC
  5
550B
  8
0
 10
3165.04723
 20
994.129151
 30
0.0
 40
15.35
 50
220.652208
 51
319.347792
  0
ARC
  5
550C
  8
0
 10
3165.04723
 20
994.129151
 30
0.0
 40
15.35
 50
40.652208
 51
68.995214
  0
LINE
  5
550D
  8
0
 10
3176.692937
 20
984.129151
 30
0.0
 11
3176.692937
 21
1004.129151
 31
0.0
  0
ARC
  5
550E
  8
0
 10
3165.04723
 20
994.129151
 30
0.0
 40
15.35
 50
111.004786
 51
139.347792
  0
LINE
  5
550F
  8
0
 10
3170.549375
 20
1008.459151
 30
0.0
 11
3159.545085
 21
1008.459151
 31
0.0
  0
LINE
  5
5510
  8
0
 10
3153.401522
 20
984.129151
 30
0.0
 11
3153.401522
 21
1004.129151
 31
0.0
  0
LINE
  5
5511
  8
HULPLIJN
 10
3107.87223
 20
1016.459151
 30
0.0
 11
3222.22223
 21
1016.459151
 31
0.0
  0
LINE
  5
5512
  8
HULPLIJN
 10
3107.87223
 20
1016.459151
 30
0.0
 11
3107.87223
 21
981.459151
 31
0.0
  0
LINE
  5
5513
  8
HULPLIJN
 10
3222.22223
 20
1016.459151
 30
0.0
 11
3222.22223
 21
981.459151
 31
0.0
  0
LINE
  5
5514
  8
0
 10
3121.17223
 20
981.459151
 30
0.0
 11
3107.87223
 21
981.459151
 31
0.0
  0
LINE
  5
5515
  8
HULPLIJN
 10
3107.87223
 20
981.459151
 30
0.0
 11
3222.22223
 21
981.459151
 31
0.0
  0
CIRCLE
  5
5516
  8
HULPLIJN
 10
3165.04723
 20
994.129151
 30
0.0
 40
5.25
  0
DIMENSION
  5
5517
  8
0
  2
*D31
 10
3019.609445
 20
1334.009252
 30
0.0
 11
3019.609445
 21
1347.02834
 31
0.0
 12
0.0
 22
-1104.855286
 32
0.0
 70
   128
 13
3005.227548
 23
1358.009252
 33
0.0
 14
3005.227548
 24
1334.009252
 34
0.0
 50
90.0
1001
ACAD
1000
DSTYLE
1002
{
1070
    78
1070
     8
1070
   288
1070
     1
1070
   140
1040
2.0
1070
    74
1070
     0
1070
   172
1070
     1
1070
    73
1070
     0
1070
    77
1070
     1
1070
   147
1040
1.0
1070
    42
1040
0.625
1070
    44
1040
1.25
1070
    43
1040
3.75
1070
   271
1070
     2
1070
   141
1040
1.0
1070
   275
1070
     1
1070
    41
1040
2.0
1070
   273
1070
     8
1070
   274
1070
     4
1070
   143
1040
0.0394
1070
   171
1070
     4
1002
}
  0
CIRCLE
  5
5518
  8
HULPLIJN
 10
3165.04723
 20
994.129151
 30
0.0
 40
12.0
  0
LINE
  5
5519
  8
HULPLIJN
 10
3107.87223
 20
1154.272909
 30
0.0
 11
3222.22223
 21
1154.272909
 31
0.0
  0
LINE
  5
551A
  8
HULPLIJN
 10
3107.87223
 20
1146.272909
 30
0.0
 11
3222.22223
 21
1146.272909
 31
0.0
  0
LINE
  5
551B
  8
HULPLIJN
 10
3222.22223
 20
1146.272909
 30
0.0
 11
3222.22223
 21
1154.272909
 31
0.0
  0
LINE
  5
551C
  8
HULPLIJN
 10
3107.87223
 20
1146.272909
 30
0.0
 11
3107.87223
 21
1154.272909
 31
0.0
  0
LINE
  5
551D
  8
HULPLIJN
 10
3119.67223
 20
1154.272909
 30
0.0
 11
3119.67223
 21
1146.272909
 31
0.0
  0
LINE
  5
551E
  8
HULPLIJN
 10
3125.67223
 20
1154.272909
 30
0.0
 11
3125.67223
 21
1146.272909
 31
0.0
  0
LINE
  5
551F
  8
HULPLIJN
 10
3210.02223
 20
1154.272909
 30
0.0
 11
3210.02223
 21
1146.272909
 31
0.0
  0
LINE
  5
5520
  8
HULPLIJN
 10
3204.02223
 20
1154.272909
 30
0.0
 11
3204.02223
 21
1146.272909
 31
0.0
  0
LINE
  5
5521
  8
HULPLIJN
 10
3159.79723
 20
1151.272909
 30
0.0
 11
3159.79723
 21
1146.272909
 31
0.0
  0
LINE
  5
5522
  8
HULPLIJN
 10
3170.29723
 20
1151.272909
 30
0.0
 11
3170.29723
 21
1146.272909
 31
0.0
  0
DIMENSION
  5
5523
  8
HULPLIJN
  2
*D32
 10
2996.227548
 20
1364.31343
 30
0.0
 11
3000.077548
 21
1364.31343
 31
0.0
 12
0.0
 22
-1104.855286
 32
0.0
 70
   128
 13
3003.927548
 23
1358.009252
 33
0.0
 14
2996.227548
 24
1358.009252
 34
0.0
1001
ACAD
1000
DSTYLE
1002
{
1070
    78
1070
     8
1070
   288
1070
     1
1070
   140
1040
2.0
1070
    74
1070
     0
1070
   172
1070
     1
1070
    73
1070
     0
1070
    77
1070
     1
1070
   147
1040
1.0
1070
    42
1040
0.625
1070
    44
1040
1.25
1070
    43
1040
3.75
1070
   271
1070
     2
1070
   141
1040
1.0
1070
   275
1070
     1
1070
    41
1040
2.0
1070
   273
1070
     8
1070
   274
1070
     4
1070
   143
1040
0.0394
1070
   171
1070
     4
1002
}
  0
LINE
  5
5524
  8
HULPLIJN
 10
3153.04723
 20
1151.272909
 30
0.0
 11
3177.04723
 21
1151.272909
 31
0.0
  0
LINE
  5
5525
  8
HULPLIJN
 10
3153.04723
 20
1154.272909
 30
0.0
 11
3153.04723
 21
1151.272909
 31
0.0
  0
LINE
  5
5526
  8
HULPLIJN
 10
3177.04723
 20
1154.272909
 30
0.0
 11
3177.04723
 21
1151.272909
 31
0.0
  0
LINE
  5
5527
  8
HULPLIJN
 10
3207.02223
 20
1150.272909
 30
0.0
 11
3207.02223
 21
1146.272909
 31
0.0
  0
LINE
  5
5528
  8
HULPLIJN
 10
3122.67223
 20
1150.272909
 30
0.0
 11
3122.67223
 21
1146.272909
 31
0.0
  0
LINE
  5
5529
  8
HULPLIJN
 10
3153.04723
 20
1391.272909
 30
0.0
 11
3177.04723
 21
1391.272909
 31
0.0
  0
LINE
  5
552A
  8
HULPLIJN
 10
3122.67223
 20
1392.272909
 30
0.0
 11
3122.67223
 21
1396.272909
 31
0.0
  0
LINE
  5
552B
  8
HULPLIJN
 10
3153.04723
 20
1388.272909
 30
0.0
 11
3153.04723
 21
1391.272909
 31
0.0
  0
LINE
  5
552C
  8
HULPLIJN
 10
3119.67223
 20
1388.272909
 30
0.0
 11
3119.67223
 21
1396.272909
 31
0.0
  0
LINE
  5
552D
  8
HULPLIJN
 10
3125.67223
 20
1388.272909
 30
0.0
 11
3125.67223
 21
1396.272909
 31
0.0
  0
LINE
  5
552E
  8
HULPLIJN
 10
3159.79723
 20
1391.272909
 30
0.0
 11
3159.79723
 21
1396.272909
 31
0.0
  0
LINE
  5
552F
  8
HULPLIJN
 10
3170.29723
 20
1391.272909
 30
0.0
 11
3170.29723
 21
1396.272909
 31
0.0
  0
LINE
  5
5530
  8
HULPLIJN
 10
3177.04723
 20
1388.272909
 30
0.0
 11
3177.04723
 21
1391.272909
 31
0.0
  0
LINE
  5
5531
  8
HULPLIJN
 10
3204.02223
 20
1388.272909
 30
0.0
 11
3204.02223
 21
1396.272909
 31
0.0
  0
LINE
  5
5532
  8
HULPLIJN
 10
3207.02223
 20
1392.272909
 30
0.0
 11
3207.02223
 21
1396.272909
 31
0.0
  0
LINE
  5
5533
  8
HULPLIJN
 10
3210.02223
 20
1388.272909
 30
0.0
 11
3210.02223
 21
1396.272909
 31
0.0
  0
LINE
  5
5534
  8
0
 10
3170.54723
 20
1370.972909
 30
0.0
 11
3170.54723
 21
1160.272909
 31
0.0
  0
LINE
  5
5535
  8
0
 10
3159.54723
 20
1370.972909
 30
0.0
 11
3159.54723
 21
1160.272909
 31
0.0
  0
LINE
  5
5536
  8
0
 10
3173.04723
 20
1370.972909
 30
0.0
 11
3173.04723
 21
1160.272909
 31
0.0
  0
LINE
  5
5537
  8
0
 10
3157.04723
 20
1370.972909
 30
0.0
 11
3157.04723
 21
1160.272909
 31
0.0
  0
LINE
  5
5538
  8
0
 10
3173.04723
 20
1370.972909
 30
0.0
 11
3157.04723
 21
1370.972909
 31
0.0
  0
LINE
  5
5539
  8
0
 10
3153.231443
 20
1380.011554
 30
0.0
 11
3176.855299
 21
1379.51438
 31
0.0
  0
LINE
  5
553A
  8
0
 10
3153.04723
 20
1376.022909
 30
0.0
 11
3176.855299
 21
1375.51438
 31
0.0
  0
LINE
  5
553B
  8
0
 10
3153.04723
 20
1372.0436
 30
0.0
 11
3176.860466
 21
1371.534582
 31
0.0
  0
ARC
  5
553C
  8
0
 10
3153.04723
 20
1382.522909
 30
0.0
 40
1.5
 50
189.594068
 51
270.0
  0
ARC
  5
553D
  8
0
 10
3153.04723
 20
1370.522909
 30
0.0
 40
1.520691
 50
87.514275
 51
162.787397
  0
ARC
  5
553E
  8
0
 10
3153.04723
 20
1374.522909
 30
0.0
 40
1.5
 50
87.613021
 51
270.0
  0
ARC
  5
553F
  8
0
 10
3153.04723
 20
1378.522909
 30
0.0
 40
1.5
 50
87.711771
 51
270.0
  0
ARC
  5
5540
  8
0
 10
3177.047236
 20
1373.022909
 30
0.0
 40
1.5
 50
267.613021
 51
90.0
  0
ARC
  5
5541
  8
0
 10
3177.047236
 20
1377.022909
 30
0.0
 40
1.520691
 50
267.514275
 51
90.0
  0
ARC
  5
5542
  8
0
 10
3177.047236
 20
1381.022909
 30
0.0
 40
1.520691
 50
267.514275
 51
55.284996
  0
LINE
  5
5543
  8
0
 10
3177.913262
 20
1382.272909
 30
0.0
 11
3151.56821
 21
1382.272909
 31
0.0
  0
LINE
  5
5544
  8
0
 10
3153.04723
 20
1382.272909
 30
0.0
 11
3177.04723
 21
1382.272909
 31
0.0
  0
LINE
  5
5545
  8
0
 10
3153.04723
 20
1372.0436
 30
0.0
 11
3169.945198
 21
1370.972909
 31
0.0
  0
LINE
  5
5546
  8
0
 10
3153.04723
 20
1373.022909
 30
0.0
 11
3177.047236
 21
1371.522909
 31
0.0
  0
LINE
  5
5547
  8
0
 10
3153.04723
 20
1376.022909
 30
0.0
 11
3177.047236
 21
1374.522909
 31
0.0
  0
LINE
  5
5548
  8
0
 10
3153.04723
 20
1377.022909
 30
0.0
 11
3177.047236
 21
1375.502218
 31
0.0
  0
LINE
  5
5549
  8
0
 10
3153.04723
 20
1380.022909
 30
0.0
 11
3177.047236
 21
1378.5436
 31
0.0
  0
LINE
  5
554A
  8
0
 10
3153.04723
 20
1381.022909
 30
0.0
 11
3177.047236
 21
1379.502218
 31
0.0
  0
LINE
  5
554B
  8
0
 10
3157.04723
 20
1370.972909
 30
0.0
 11
3151.594646
 21
1370.972909
 31
0.0
  0
LINE
  5
554C
  8
0
 10
3170.04723
 20
1391.272909
 30
0.0
 11
3160.04723
 21
1391.272909
 31
0.0
  0
ARC
  5
554D
  8
0
 10
3156.54723
 20
1386.772909
 30
0.0
 40
2.2
 50
120.272641
 51
239.727359
  0
ARC
  5
554E
  8
0
 10
3156.54723
 20
1386.772909
 30
0.0
 40
2.2
 50
300.272641
 51
59.727359
  0
ARC
  5
554F
  8
0
 10
3173.54723
 20
1386.772909
 30
0.0
 40
2.2
 50
300.272641
 51
59.727359
  0
ARC
  5
5550
  8
0
 10
3173.54723
 20
1386.772909
 30
0.0
 40
2.2
 50
120.272641
 51
239.727359
  0
LINE
  5
5551
  8
0
 10
3159.54723
 20
1388.672909
 30
0.0
 11
3159.54723
 21
1391.272909
 31
0.0
  0
LINE
  5
5552
  8
0
 10
3170.54723
 20
1388.672909
 30
0.0
 11
3170.54723
 21
1391.272909
 31
0.0
  0
LINE
  5
5553
  8
0
 10
3153.04723
 20
1388.672909
 30
0.0
 11
3153.04723
 21
1391.272909
 31
0.0
  0
LINE
  5
5554
  8
0
 10
3177.04723
 20
1388.672909
 30
0.0
 11
3177.04723
 21
1391.272909
 31
0.0
  0
LINE
  5
5555
  8
0
 10
3153.04723
 20
1391.272909
 30
0.0
 11
3177.04723
 21
1391.272909
 31
0.0
  0
LINE
  5
5556
  8
0
 10
3153.04723
 20
1388.672909
 30
0.0
 11
3177.04723
 21
1388.672909
 31
0.0
  0
LINE
  5
5557
  8
0
 10
3153.04723
 20
1384.872909
 30
0.0
 11
3177.04723
 21
1384.872909
 31
0.0
  0
LINE
  5
5558
  8
0
 10
3170.04723
 20
1391.272909
 30
0.0
 11
3170.04723
 21
1370.972909
 31
0.0
  0
LINE
  5
5559
  8
0
 10
3160.04723
 20
1391.272909
 30
0.0
 11
3160.04723
 21
1370.972909
 31
0.0
  0
LINE
  5
555A
  8
0
 10
3153.04723
 20
1382.272909
 30
0.0
 11
3153.04723
 21
1384.872909
 31
0.0
  0
LINE
  5
555B
  8
0
 10
3160.04723
 20
1382.272909
 30
0.0
 11
3160.04723
 21
1384.872909
 31
0.0
  0
LINE
  5
555C
  8
0
 10
3177.04723
 20
1382.272909
 30
0.0
 11
3177.04723
 21
1384.872909
 31
0.0
  0
LINE
  5
555D
  8
0
 10
3170.04723
 20
1382.272909
 30
0.0
 11
3170.04723
 21
1384.872909
 31
0.0
  0
LINE
  5
555E
  8
0
 10
3177.04723
 20
1153.872909
 30
0.0
 11
3170.04723
 21
1153.872909
 31
0.0
  0
LINE
  5
555F
  8
0
 10
3177.04723
 20
1151.272909
 30
0.0
 11
3170.04723
 21
1151.272909
 31
0.0
  0
LINE
  5
5560
  8
0
 10
3153.04723
 20
1153.872909
 30
0.0
 11
3153.04723
 21
1151.272909
 31
0.0
  0
LINE
  5
5561
  8
0
 10
3177.04723
 20
1153.872909
 30
0.0
 11
3177.04723
 21
1151.272909
 31
0.0
  0
LINE
  5
5562
  8
0
 10
3160.04723
 20
1153.872909
 30
0.0
 11
3153.04723
 21
1153.872909
 31
0.0
  0
LINE
  5
5563
  8
0
 10
3160.04723
 20
1151.272909
 30
0.0
 11
3153.04723
 21
1151.272909
 31
0.0
  0
LINE
  5
5564
  8
0
 10
3170.04723
 20
1145.272909
 30
0.0
 11
3160.04723
 21
1145.272909
 31
0.0
  0
LINE
  5
5565
  8
0
 10
3170.54723
 20
1153.872909
 30
0.0
 11
3170.54723
 21
1151.272909
 31
0.0
  0
LINE
  5
5566
  8
0
 10
3159.54723
 20
1153.872909
 30
0.0
 11
3159.54723
 21
1151.272909
 31
0.0
  0
LINE
  5
5567
  8
0
 10
3173.04723
 20
1160.272909
 30
0.0
 11
3157.04723
 21
1160.272909
 31
0.0
  0
LINE
  5
5568
  8
0
 10
3177.04723
 20
1157.672909
 30
0.0
 11
3170.04723
 21
1157.672909
 31
0.0
  0
LINE
  5
5569
  8
0
 10
3177.04723
 20
1160.272909
 30
0.0
 11
3153.04723
 21
1160.272909
 31
0.0
  0
LINE
  5
556A
  8
0
 10
3153.04723
 20
1160.272909
 30
0.0
 11
3153.04723
 21
1157.672909
 31
0.0
  0
LINE
  5
556B
  8
0
 10
3177.04723
 20
1160.272909
 30
0.0
 11
3177.04723
 21
1157.672909
 31
0.0
  0
LINE
  5
556C
  8
0
 10
3160.04723
 20
1157.672909
 30
0.0
 11
3153.04723
 21
1157.672909
 31
0.0
  0
ARC
  5
556D
  8
0
 10
3156.54723
 20
1155.772909
 30
0.0
 40
2.2
 50
120.272641
 51
239.727359
  0
ARC
  5
556E
  8
0
 10
3156.54723
 20
1155.772909
 30
0.0
 40
2.2
 50
300.272641
 51
59.727359
  0
ARC
  5
556F
  8
0
 10
3173.54723
 20
1155.772909
 30
0.0
 40
2.2
 50
120.272641
 51
239.727359
  0
ARC
  5
5570
  8
0
 10
3173.54723
 20
1155.772909
 30
0.0
 40
2.2
 50
300.272641
 51
59.727359
  0
LINE
  5
5571
  8
0
 10
3170.04723
 20
1160.272909
 30
0.0
 11
3170.04723
 21
1145.272909
 31
0.0
  0
LINE
  5
5572
  8
0
 10
3160.04723
 20
1160.272909
 30
0.0
 11
3160.04723
 21
1145.272909
 31
0.0
  0
LINE
  5
5573
  8
0
 10
3160.04723
 20
1151.272909
 30
0.0
 11
3170.04723
 21
1151.272909
 31
0.0
  0
DIMENSION
  5
5574
  8
MATEN
  2
*D33
 10
3252.133127
 20
1146.272909
 30
0.0
 11
3252.133127
 21
1259.114167
 31
0.0
 12
0.0
 22
-1104.855286
 32
0.0
 70
   128
 13
3222.22223
 23
1396.272909
 33
0.0
 14
3222.22223
 24
1146.272909
 34
0.0
 50
90.0
1001
ACAD
1000
DSTYLE
1002
{
1070
    78
1070
     8
1070
   288
1070
     1
1070
   140
1040
2.0
1070
    74
1070
     0
1070
   172
1070
     1
1070
    73
1070
     0
1070
    77
1070
     1
1070
   147
1040
1.0
1070
    42
1040
0.625
1070
    44
1040
1.25
1070
    43
1040
3.75
1070
   271
1070
     2
1070
   141
1040
1.0
1070
   275
1070
     1
1070
    41
1040
2.0
1070
   273
1070
     8
1070
   274
1070
     4
1070
   143
1040
0.0394
1070
   171
1070
     4
1002
}
  0
LINE
  5
5575
  8
0
 10
3107.87223
 20
1345.543149
 30
0.0
 11
3222.22223
 21
1345.543149
 31
0.0
  0
LINE
  5
5576
  8
0
 10
3107.87223
 20
1270.543149
 30
0.0
 11
3222.22223
 21
1270.543149
 31
0.0
  0
LINE
  5
5577
  8
0
  6
DASHED
 10
3205.52223
 20
1274.102105
 30
0.0
 11
3192.42223
 21
1274.102105
 31
0.0
  0
LINE
  5
5578
  8
0
  6
DASHED
 10
3205.52223
 20
1278.984193
 30
0.0
 11
3192.42223
 21
1278.984193
 31
0.0
  0
LINE
  5
5579
  8
0
  6
DASHED
 10
3205.52223
 20
1279.484193
 30
0.0
 11
3192.42223
 21
1279.484193
 31
0.0
  0
LINE
  5
557A
  8
0
  6
DASHED
 10
3205.52223
 20
1273.602105
 30
0.0
 11
3192.42223
 21
1273.602105
 31
0.0
  0
LINE
  5
557B
  8
0
  6
DASHED
 10
3199.54723
 20
1270.543149
 30
0.0
 11
3215.54723
 21
1270.543149
 31
0.0
  0
LINE
  5
557C
  8
0
  6
DASHED
 10
3205.52223
 20
1320.602105
 30
0.0
 11
3192.42223
 21
1320.602105
 31
0.0
  0
LINE
  5
557D
  8
0
  6
DASHED
 10
3205.52223
 20
1326.484193
 30
0.0
 11
3192.42223
 21
1326.484193
 31
0.0
  0
LINE
  5
557E
  8
0
  6
DASHED
 10
3205.52223
 20
1336.602105
 30
0.0
 11
3192.42223
 21
1336.602105
 31
0.0
  0
LINE
  5
557F
  8
0
  6
DASHED
 10
3205.52223
 20
1342.484193
 30
0.0
 11
3192.42223
 21
1342.484193
 31
0.0
  0
LINE
  5
5580
  8
0
  6
DASHED
 10
3205.52223
 20
1321.102105
 30
0.0
 11
3192.42223
 21
1321.102105
 31
0.0
  0
LINE
  5
5581
  8
0
  6
DASHED
 10
3205.52223
 20
1325.984193
 30
0.0
 11
3192.42223
 21
1325.984193
 31
0.0
  0
LINE
  5
5582
  8
0
  6
DASHED
 10
3205.52223
 20
1337.102105
 30
0.0
 11
3192.42223
 21
1337.102105
 31
0.0
  0
LINE
  5
5583
  8
0
  6
DASHED
 10
3205.52223
 20
1341.984193
 30
0.0
 11
3192.42223
 21
1341.984193
 31
0.0
  0
LINE
  5
5584
  8
0
  6
DASHED
 10
3205.52223
 20
1290.102105
 30
0.0
 11
3192.42223
 21
1290.102105
 31
0.0
  0
LINE
  5
5585
  8
0
  6
DASHED
 10
3205.52223
 20
1294.984193
 30
0.0
 11
3192.42223
 21
1294.984193
 31
0.0
  0
LINE
  5
5586
  8
0
  6
DASHED
 10
3205.52223
 20
1295.484193
 30
0.0
 11
3192.42223
 21
1295.484193
 31
0.0
  0
LINE
  5
5587
  8
0
  6
DASHED
 10
3205.52223
 20
1289.602105
 30
0.0
 11
3192.42223
 21
1289.602105
 31
0.0
  0
LINE
  5
5588
  8
0
  6
DASHED
 10
3197.42223
 20
1317.543149
 30
0.0
 11
3216.62223
 21
1317.543149
 31
0.0
  0
LINE
  5
5589
  8
0
  6
DASHED
 10
3197.42223
 20
1298.543149
 30
0.0
 11
3216.62223
 21
1298.543149
 31
0.0
  0
LINE
  5
558A
  8
0
  6
DASHED
 10
3199.54723
 20
1345.543149
 30
0.0
 11
3215.54723
 21
1345.543149
 31
0.0
  0
LINE
  5
558B
  8
0
 10
3124.17223
 20
1345.543149
 30
0.0
 11
3124.17223
 21
1270.543149
 31
0.0
  0
LINE
  5
558C
  8
0
 10
3121.17223
 20
1345.543149
 30
0.0
 11
3121.17223
 21
1270.543149
 31
0.0
  0
LINE
  5
558D
  8
0
 10
3137.67223
 20
1270.543149
 30
0.0
 11
3137.67223
 21
1345.543149
 31
0.0
  0
LINE
  5
558E
  8
0
  6
DASHED
 10
3113.07223
 20
1270.543149
 30
0.0
 11
3113.07223
 21
1345.543149
 31
0.0
  0
LINE
  5
558F
  8
0
  6
DASHED
 10
3132.27223
 20
1270.543149
 30
0.0
 11
3132.27223
 21
1345.543149
 31
0.0
  0
LINE
  5
5590
  8
0
 10
3192.42223
 20
1270.543149
 30
0.0
 11
3192.42223
 21
1345.543149
 31
0.0
  0
LINE
  5
5591
  8
0
  6
DASHED
 10
3197.42223
 20
1270.543149
 30
0.0
 11
3197.42223
 21
1345.543149
 31
0.0
  0
LINE
  5
5592
  8
0
 10
3107.87223
 20
1270.543149
 30
0.0
 11
3107.87223
 21
1345.543149
 31
0.0
  0
LINE
  5
5593
  8
0
  6
DASHED
 10
3121.17223
 20
1279.484193
 30
0.0
 11
3107.87223
 21
1279.484193
 31
0.0
  0
LINE
  5
5594
  8
0
  6
DASHED
 10
3121.17223
 20
1273.602105
 30
0.0
 11
3107.87223
 21
1273.602105
 31
0.0
  0
LINE
  5
5595
  8
0
  6
DASHED
 10
3121.17223
 20
1295.484193
 30
0.0
 11
3107.87223
 21
1295.484193
 31
0.0
  0
LINE
  5
5596
  8
0
  6
DASHED
 10
3121.17223
 20
1289.602105
 30
0.0
 11
3107.87223
 21
1289.602105
 31
0.0
  0
LINE
  5
5597
  8
0
  6
DASHED
 10
3137.67223
 20
1290.102105
 30
0.0
 11
3124.17223
 21
1290.102105
 31
0.0
  0
LINE
  5
5598
  8
0
  6
DASHED
 10
3137.67223
 20
1294.984193
 30
0.0
 11
3124.17223
 21
1294.984193
 31
0.0
  0
LINE
  5
5599
  8
0
  6
DASHED
 10
3137.67223
 20
1295.484193
 30
0.0
 11
3124.17223
 21
1295.484193
 31
0.0
  0
LINE
  5
559A
  8
0
  6
DASHED
 10
3137.67223
 20
1289.602105
 30
0.0
 11
3124.17223
 21
1289.602105
 31
0.0
  0
LINE
  5
559B
  8
0
  6
DASHED
 10
3113.54723
 20
1298.543149
 30
0.0
 11
3132.27223
 21
1298.543149
 31
0.0
  0
LINE
  5
559C
  8
0
  6
DASHED
 10
3113.54723
 20
1298.543149
 30
0.0
 11
3113.07223
 21
1298.543149
 31
0.0
  0
LINE
  5
559D
  8
0
  6
DASHED
 10
3137.67223
 20
1274.102105
 30
0.0
 11
3124.17223
 21
1274.102105
 31
0.0
  0
LINE
  5
559E
  8
0
  6
DASHED
 10
3137.67223
 20
1278.984193
 30
0.0
 11
3124.17223
 21
1278.984193
 31
0.0
  0
LINE
  5
559F
  8
0
  6
DASHED
 10
3137.67223
 20
1273.602105
 30
0.0
 11
3124.17223
 21
1273.602105
 31
0.0
  0
LINE
  5
55A0
  8
0
  6
DASHED
 10
3137.67223
 20
1279.484193
 30
0.0
 11
3124.17223
 21
1279.484193
 31
0.0
  0
LINE
  5
55A1
  8
0
  6
DASHED
 10
3114.54723
 20
1270.543149
 30
0.0
 11
3130.54723
 21
1270.543149
 31
0.0
  0
LINE
  5
55A2
  8
0
  6
DASHED
 10
3121.17223
 20
1320.602105
 30
0.0
 11
3107.87223
 21
1320.602105
 31
0.0
  0
LINE
  5
55A3
  8
0
  6
DASHED
 10
3121.17223
 20
1326.484193
 30
0.0
 11
3107.87223
 21
1326.484193
 31
0.0
  0
LINE
  5
55A4
  8
0
  6
DASHED
 10
3121.17223
 20
1336.602105
 30
0.0
 11
3107.87223
 21
1336.602105
 31
0.0
  0
LINE
  5
55A5
  8
0
  6
DASHED
 10
3121.17223
 20
1342.484193
 30
0.0
 11
3107.87223
 21
1342.484193
 31
0.0
  0
LINE
  5
55A6
  8
0
  6
DASHED
 10
3137.67223
 20
1336.602105
 30
0.0
 11
3124.17223
 21
1336.602105
 31
0.0
  0
LINE
  5
55A7
  8
0
  6
DASHED
 10
3137.67223
 20
1342.484193
 30
0.0
 11
3124.17223
 21
1342.484193
 31
0.0
  0
LINE
  5
55A8
  8
0
  6
DASHED
 10
3137.67223
 20
1337.102105
 30
0.0
 11
3124.17223
 21
1337.102105
 31
0.0
  0
LINE
  5
55A9
  8
0
  6
DASHED
 10
3137.67223
 20
1341.984193
 30
0.0
 11
3124.17223
 21
1341.984193
 31
0.0
  0
LINE
  5
55AA
  8
0
  6
DASHED
 10
3137.67223
 20
1320.602105
 30
0.0
 11
3124.17223
 21
1320.602105
 31
0.0
  0
LINE
  5
55AB
  8
0
  6
DASHED
 10
3137.67223
 20
1326.484193
 30
0.0
 11
3124.17223
 21
1326.484193
 31
0.0
  0
LINE
  5
55AC
  8
0
  6
DASHED
 10
3137.67223
 20
1325.984193
 30
0.0
 11
3124.17223
 21
1325.984193
 31
0.0
  0
LINE
  5
55AD
  8
0
  6
DASHED
 10
3137.67223
 20
1321.102105
 30
0.0
 11
3124.17223
 21
1321.102105
 31
0.0
  0
LINE
  5
55AE
  8
0
  6
DASHED
 10
3113.54723
 20
1317.543149
 30
0.0
 11
3132.27223
 21
1317.543149
 31
0.0
  0
LINE
  5
55AF
  8
0
  6
DASHED
 10
3113.54723
 20
1317.543149
 30
0.0
 11
3113.07223
 21
1317.543149
 31
0.0
  0
LINE
  5
55B0
  8
0
  6
DASHED
 10
3114.54723
 20
1345.543149
 30
0.0
 11
3130.54723
 21
1345.543149
 31
0.0
  0
LINE
  5
55B1
  8
0
 10
3208.52223
 20
1345.543149
 30
0.0
 11
3208.52223
 21
1270.543149
 31
0.0
  0
LINE
  5
55B2
  8
0
 10
3205.52223
 20
1345.543149
 30
0.0
 11
3205.52223
 21
1270.543149
 31
0.0
  0
LINE
  5
55B3
  8
0
  6
DASHED
 10
3216.62223
 20
1270.543149
 30
0.0
 11
3216.62223
 21
1345.543149
 31
0.0
  0
LINE
  5
55B4
  8
0
 10
3222.22223
 20
1270.543149
 30
0.0
 11
3222.22223
 21
1345.543149
 31
0.0
  0
LINE
  5
55B5
  8
0
  6
DASHED
 10
3222.22223
 20
1295.484193
 30
0.0
 11
3208.52223
 21
1295.484193
 31
0.0
  0
LINE
  5
55B6
  8
0
  6
DASHED
 10
3222.22223
 20
1289.602105
 30
0.0
 11
3208.52223
 21
1289.602105
 31
0.0
  0
LINE
  5
55B7
  8
0
  6
DASHED
 10
3222.22223
 20
1273.602105
 30
0.0
 11
3208.52223
 21
1273.602105
 31
0.0
  0
LINE
  5
55B8
  8
0
  6
DASHED
 10
3222.22223
 20
1279.484193
 30
0.0
 11
3208.52223
 21
1279.484193
 31
0.0
  0
LINE
  5
55B9
  8
0
  6
DASHED
 10
3222.22223
 20
1336.602105
 30
0.0
 11
3208.52223
 21
1336.602105
 31
0.0
  0
LINE
  5
55BA
  8
0
  6
DASHED
 10
3222.22223
 20
1342.484193
 30
0.0
 11
3208.52223
 21
1342.484193
 31
0.0
  0
LINE
  5
55BB
  8
0
  6
DASHED
 10
3222.22223
 20
1320.602105
 30
0.0
 11
3208.52223
 21
1320.602105
 31
0.0
  0
LINE
  5
55BC
  8
0
  6
DASHED
 10
3222.22223
 20
1326.484193
 30
0.0
 11
3208.52223
 21
1326.484193
 31
0.0
  0
LINE
  5
55BD
  8
0
 10
3116.67223
 20
1388.272909
 30
0.0
 11
3116.67223
 21
1154.272909
 31
0.0
  0
LINE
  5
55BE
  8
0
 10
3128.67223
 20
1154.272909
 30
0.0
 11
3128.67223
 21
1388.272909
 31
0.0
  0
LINE
  5
55BF
  8
0
 10
3201.02223
 20
1388.272909
 30
0.0
 11
3201.02223
 21
1154.272909
 31
0.0
  0
LINE
  5
55C0
  8
0
 10
3213.02223
 20
1388.272909
 30
0.0
 11
3213.02223
 21
1154.272909
 31
0.0
  0
LINE
  5
55C1
  8
HULPLIJN
 10
3511.28773
 20
1396.272909
 30
0.0
 11
3396.93773
 21
1396.272909
 31
0.0
  0
LINE
  5
55C2
  8
HULPLIJN
 10
3459.36273
 20
1391.272909
 30
0.0
 11
3459.36273
 21
1396.272909
 31
0.0
  0
LINE
  5
55C3
  8
HULPLIJN
 10
3448.86273
 20
1391.272909
 30
0.0
 11
3448.86273
 21
1396.272909
 31
0.0
  0
LINE
  5
55C4
  8
HULPLIJN
 10
3466.11273
 20
1391.272909
 30
0.0
 11
3442.11273
 21
1391.272909
 31
0.0
  0
LINE
  5
55C5
  8
HULPLIJN
 10
3466.11273
 20
1388.272909
 30
0.0
 11
3466.11273
 21
1391.272909
 31
0.0
  0
LINE
  5
55C6
  8
HULPLIJN
 10
3442.11273
 20
1388.272909
 30
0.0
 11
3442.11273
 21
1391.272909
 31
0.0
  0
LINE
  5
55C7
  8
HULPLIJN
 10
3511.28773
 20
1146.272909
 30
0.0
 11
3396.93773
 21
1146.272909
 31
0.0
  0
LINE
  5
55C8
  8
HULPLIJN
 10
3466.11273
 20
1151.272909
 30
0.0
 11
3442.11273
 21
1151.272909
 31
0.0
  0
LINE
  5
55C9
  8
HULPLIJN
  6
DASHED
 10
3466.11273
 20
1154.272909
 30
0.0
 11
3466.11273
 21
1151.272909
 31
0.0
  0
LINE
  5
55CA
  8
HULPLIJN
 10
3459.36273
 20
1151.272909
 30
0.0
 11
3459.36273
 21
1146.272909
 31
0.0
  0
LINE
  5
55CB
  8
HULPLIJN
 10
3448.86273
 20
1151.272909
 30
0.0
 11
3448.86273
 21
1146.272909
 31
0.0
  0
LINE
  5
55CC
  8
HULPLIJN
  6
DASHED
 10
3442.11273
 20
1154.272909
 30
0.0
 11
3442.11273
 21
1151.272909
 31
0.0
  0
LINE
  5
55CD
  8
0
  6
DASHED
 10
3448.61273
 20
1171.572909
 30
0.0
 11
3448.61273
 21
1382.272909
 31
0.0
  0
LINE
  5
55CE
  8
0
  6
DASHED
 10
3459.61273
 20
1171.572909
 30
0.0
 11
3459.61273
 21
1382.272909
 31
0.0
  0
LINE
  5
55CF
  8
0
  6
DASHED
 10
3446.11273
 20
1171.572909
 30
0.0
 11
3446.11273
 21
1382.272909
 31
0.0
  0
LINE
  5
55D0
  8
0
  6
DASHED
 10
3462.11273
 20
1171.572909
 30
0.0
 11
3462.11273
 21
1382.272909
 31
0.0
  0
LINE
  5
55D1
  8
0
  6
DASHED
 10
3446.11273
 20
1171.572909
 30
0.0
 11
3462.11273
 21
1171.572909
 31
0.0
  0
LINE
  5
55D2
  8
0
  6
DASHED
 10
3465.928516
 20
1162.534264
 30
0.0
 11
3442.304661
 21
1163.031438
 31
0.0
  0
LINE
  5
55D3
  8
0
  6
DASHED
 10
3466.11273
 20
1166.522909
 30
0.0
 11
3442.304661
 21
1167.031438
 31
0.0
  0
LINE
  5
55D4
  8
0
  6
DASHED
 10
3466.11273
 20
1170.502218
 30
0.0
 11
3442.299493
 21
1171.011236
 31
0.0
  0
ARC
  5
55D5
  8
0
  6
DASHED
 10
3466.11273
 20
1160.022909
 30
0.0
 40
1.5
 50
9.594068
 51
90.0
  0
ARC
  5
55D6
  8
0
  6
DASHED
 10
3466.11273
 20
1172.022909
 30
0.0
 40
1.520691
 50
267.514275
 51
342.787397
  0
ARC
  5
55D7
  8
0
  6
DASHED
 10
3466.11273
 20
1168.022909
 30
0.0
 40
1.5
 50
267.613021
 51
90.0
  0
ARC
  5
55D8
  8
0
  6
DASHED
 10
3466.11273
 20
1164.022909
 30
0.0
 40
1.5
 50
267.711771
 51
90.0
  0
ARC
  5
55D9
  8
0
  6
DASHED
 10
3442.112723
 20
1169.522909
 30
0.0
 40
1.5
 50
87.613021
 51
270.0
  0
ARC
  5
55DA
  8
0
  6
DASHED
 10
3442.112723
 20
1165.522909
 30
0.0
 40
1.520691
 50
87.514275
 51
270.0
  0
ARC
  5
55DB
  8
0
  6
DASHED
 10
3442.112723
 20
1161.522909
 30
0.0
 40
1.520691
 50
87.514275
 51
235.284996
  0
LINE
  5
55DC
  8
0
  6
DASHED
 10
3441.246698
 20
1160.272909
 30
0.0
 11
3467.591749
 21
1160.272909
 31
0.0
  0
LINE
  5
55DD
  8
0
  6
DASHED
 10
3466.11273
 20
1160.272909
 30
0.0
 11
3442.11273
 21
1160.272909
 31
0.0
  0
LINE
  5
55DE
  8
0
  6
DASHED
 10
3466.11273
 20
1170.502218
 30
0.0
 11
3449.214761
 21
1171.572909
 31
0.0
  0
LINE
  5
55DF
  8
0
  6
DASHED
 10
3466.11273
 20
1169.522909
 30
0.0
 11
3442.112723
 21
1171.022909
 31
0.0
  0
LINE
  5
55E0
  8
0
  6
DASHED
 10
3466.11273
 20
1166.522909
 30
0.0
 11
3442.112723
 21
1168.022909
 31
0.0
  0
LINE
  5
55E1
  8
0
  6
DASHED
 10
3466.11273
 20
1165.522909
 30
0.0
 11
3442.112723
 21
1167.0436
 31
0.0
  0
LINE
  5
55E2
  8
0
  6
DASHED
 10
3466.11273
 20
1162.522909
 30
0.0
 11
3442.112723
 21
1164.002218
 31
0.0
  0
LINE
  5
55E3
  8
0
  6
DASHED
 10
3466.11273
 20
1161.522909
 30
0.0
 11
3442.112723
 21
1163.0436
 31
0.0
  0
LINE
  5
55E4
  8
0
  6
DASHED
 10
3462.11273
 20
1171.572909
 30
0.0
 11
3467.565313
 21
1171.572909
 31
0.0
  0
LINE
  5
55E5
  8
0
 10
3449.11273
 20
1151.272909
 30
0.0
 11
3459.11273
 21
1151.272909
 31
0.0
  0
ARC
  5
55E6
  8
0
  6
DASHED
 10
3462.61273
 20
1155.772909
 30
0.0
 40
2.2
 50
300.272641
 51
59.727359
  0
ARC
  5
55E7
  8
0
  6
DASHED
 10
3462.61273
 20
1155.772909
 30
0.0
 40
2.2
 50
120.272641
 51
239.727359
  0
ARC
  5
55E8
  8
0
  6
DASHED
 10
3445.61273
 20
1155.772909
 30
0.0
 40
2.2
 50
120.272641
 51
239.727359
  0
ARC
  5
55E9
  8
0
  6
DASHED
 10
3445.61273
 20
1155.772909
 30
0.0
 40
2.2
 50
300.272641
 51
59.727359
  0
LINE
  5
55EA
  8
0
  6
DASHED
 10
3459.61273
 20
1153.872909
 30
0.0
 11
3459.61273
 21
1151.272909
 31
0.0
  0
LINE
  5
55EB
  8
0
  6
DASHED
 10
3448.61273
 20
1153.872909
 30
0.0
 11
3448.61273
 21
1151.272909
 31
0.0
  0
LINE
  5
55EC
  8
0
  6
DASHED
 10
3466.11273
 20
1153.872909
 30
0.0
 11
3466.11273
 21
1151.272909
 31
0.0
  0
LINE
  5
55ED
  8
0
  6
DASHED
 10
3442.11273
 20
1153.872909
 30
0.0
 11
3442.11273
 21
1151.272909
 31
0.0
  0
LINE
  5
55EE
  8
0
  6
DASHED
 10
3466.11273
 20
1151.272909
 30
0.0
 11
3442.11273
 21
1151.272909
 31
0.0
  0
LINE
  5
55EF
  8
0
  6
DASHED
 10
3466.11273
 20
1153.872909
 30
0.0
 11
3442.11273
 21
1153.872909
 31
0.0
  0
LINE
  5
55F0
  8
0
  6
DASHED
 10
3466.11273
 20
1157.672909
 30
0.0
 11
3442.11273
 21
1157.672909
 31
0.0
  0
LINE
  5
55F1
  8
0
  6
DASHED
 10
3449.11273
 20
1151.272909
 30
0.0
 11
3449.11273
 21
1171.572909
 31
0.0
  0
LINE
  5
55F2
  8
0
  6
DASHED
 10
3459.11273
 20
1151.272909
 30
0.0
 11
3459.11273
 21
1171.572909
 31
0.0
  0
LINE
  5
55F3
  8
0
  6
DASHED
 10
3466.11273
 20
1160.272909
 30
0.0
 11
3466.11273
 21
1157.672909
 31
0.0
  0
LINE
  5
55F4
  8
0
 10
3459.11273
 20
1160.272909
 30
0.0
 11
3459.11273
 21
1157.672909
 31
0.0
  0
LINE
  5
55F5
  8
0
  6
DASHED
 10
3442.11273
 20
1160.272909
 30
0.0
 11
3442.11273
 21
1157.672909
 31
0.0
  0
LINE
  5
55F6
  8
0
 10
3449.11273
 20
1160.272909
 30
0.0
 11
3449.11273
 21
1157.672909
 31
0.0
  0
LINE
  5
55F7
  8
0
  6
DASHED
 10
3442.11273
 20
1388.672909
 30
0.0
 11
3449.11273
 21
1388.672909
 31
0.0
  0
LINE
  5
55F8
  8
0
  6
DASHED
 10
3442.11273
 20
1391.272909
 30
0.0
 11
3449.11273
 21
1391.272909
 31
0.0
  0
LINE
  5
55F9
  8
0
  6
DASHED
 10
3466.11273
 20
1388.672909
 30
0.0
 11
3466.11273
 21
1391.272909
 31
0.0
  0
LINE
  5
55FA
  8
0
  6
DASHED
 10
3442.11273
 20
1388.672909
 30
0.0
 11
3442.11273
 21
1391.272909
 31
0.0
  0
LINE
  5
55FB
  8
0
  6
DASHED
 10
3459.11273
 20
1388.672909
 30
0.0
 11
3466.11273
 21
1388.672909
 31
0.0
  0
LINE
  5
55FC
  8
0
  6
DASHED
 10
3459.11273
 20
1391.272909
 30
0.0
 11
3466.11273
 21
1391.272909
 31
0.0
  0
LINE
  5
55FD
  8
0
 10
3448.61273
 20
1388.672909
 30
0.0
 11
3448.61273
 21
1391.272909
 31
0.0
  0
LINE
  5
55FE
  8
0
  6
DASHED
 10
3459.61273
 20
1388.672909
 30
0.0
 11
3459.61273
 21
1391.272909
 31
0.0
  0
LINE
  5
55FF
  8
0
  6
DASHED
 10
3446.11273
 20
1382.272909
 30
0.0
 11
3462.11273
 21
1382.272909
 31
0.0
  0
LINE
  5
5600
  8
0
  6
DASHED
 10
3442.11273
 20
1384.872909
 30
0.0
 11
3449.11273
 21
1384.872909
 31
0.0
  0
LINE
  5
5601
  8
0
  6
DASHED
 10
3442.11273
 20
1382.272909
 30
0.0
 11
3466.11273
 21
1382.272909
 31
0.0
  0
LINE
  5
5602
  8
0
  6
DASHED
 10
3466.11273
 20
1382.272909
 30
0.0
 11
3466.11273
 21
1384.872909
 31
0.0
  0
LINE
  5
5603
  8
0
  6
DASHED
 10
3442.11273
 20
1382.272909
 30
0.0
 11
3442.11273
 21
1384.872909
 31
0.0
  0
LINE
  5
5604
  8
0
  6
DASHED
 10
3459.11273
 20
1384.872909
 30
0.0
 11
3466.11273
 21
1384.872909
 31
0.0
  0
ARC
  5
5605
  8
0
  6
DASHED
 10
3462.61273
 20
1386.772909
 30
0.0
 40
2.2
 50
300.272641
 51
59.727359
  0
ARC
  5
5606
  8
0
  6
DASHED
 10
3462.61273
 20
1386.772909
 30
0.0
 40
2.2
 50
120.272641
 51
239.727359
  0
ARC
  5
5607
  8
0
  6
DASHED
 10
3445.61273
 20
1386.772909
 30
0.0
 40
2.2
 50
300.272641
 51
59.727359
  0
ARC
  5
5608
  8
0
  6
DASHED
 10
3445.61273
 20
1386.772909
 30
0.0
 40
2.2
 50
120.272641
 51
239.727359
  0
LINE
  5
5609
  8
0
  6
DASHED
 10
3449.11273
 20
1382.272909
 30
0.0
 11
3449.11273
 21
1397.272909
 31
0.0
  0
LINE
  5
560A
  8
0
  6
DASHED
 10
3459.11273
 20
1382.272909
 30
0.0
 11
3459.11273
 21
1397.272909
 31
0.0
  0
LINE
  5
560B
  8
0
  6
DASHED
 10
3459.11273
 20
1391.272909
 30
0.0
 11
3449.11273
 21
1391.272909
 31
0.0
  0
LINE
  5
560C
  8
0
 10
3511.28773
 20
1238.002669
 30
0.0
 11
3511.28773
 21
1197.002669
 31
0.0
  0
LINE
  5
560D
  8
0
  6
DASHED
 10
3502.48773
 20
1154.272909
 30
0.0
 11
3502.48773
 21
1388.272909
 31
0.0
  0
LINE
  5
560E
  8
0
  6
DASHED
 10
3490.48773
 20
1388.272909
 30
0.0
 11
3490.48773
 21
1154.272909
 31
0.0
  0
LINE
  5
560F
  8
0
  6
DASHED
 10
3418.13773
 20
1154.272909
 30
0.0
 11
3418.13773
 21
1388.272909
 31
0.0
  0
LINE
  5
5610
  8
0
  6
DASHED
 10
3406.13773
 20
1154.272909
 30
0.0
 11
3406.13773
 21
1388.272909
 31
0.0
  0
LINE
  5
5611
  8
0
 10
3396.93773
 20
1197.002669
 30
0.0
 11
3396.93773
 21
1238.002669
 31
0.0
  0
LINE
  5
5612
  8
HULPLIJN
 10
3396.93773
 20
1146.272909
 30
0.0
 11
3396.93773
 21
1396.272909
 31
0.0
  0
LINE
  5
5613
  8
HULPLIJN
 10
3511.28773
 20
1146.272909
 30
0.0
 11
3511.28773
 21
1396.272909
 31
0.0
  0
LINE
  5
5614
  8
HULPLIJN
 10
3511.28773
 20
1154.272909
 30
0.0
 11
3396.93773
 21
1154.272909
 31
0.0
  0
LINE
  5
5615
  8
HULPLIJN
 10
3511.28773
 20
1388.272909
 30
0.0
 11
3396.93773
 21
1388.272909
 31
0.0
  0
LINE
  5
5616
  8
0
 10
3449.11273
 20
1416.272909
 30
0.0
 11
3459.11273
 21
1416.272909
 31
0.0
  0
LINE
  5
5617
  8
0
 10
3459.11273
 20
1397.272909
 30
0.0
 11
3459.11273
 21
1416.272909
 31
0.0
  0
LINE
  5
5618
  8
0
 10
3449.11273
 20
1397.272909
 30
0.0
 11
3449.11273
 21
1416.272909
 31
0.0
  0
DIMENSION
  5
5619
  8
MATEN
  2
*D34
 10
3527.974072
 20
1382.272909
 30
0.0
 11
3527.974072
 21
1398.031253
 31
0.0
 12
0.0
 22
-1104.855286
 32
0.0
 70
   128
 13
3459.11273
 23
1416.272909
 33
0.0
 14
3459.11273
 24
1382.272909
 34
0.0
 50
90.0
1001
ACAD
1000
DSTYLE
1002
{
1070
    78
1070
     8
1070
   288
1070
     1
1070
   140
1040
2.0
1070
    74
1070
     0
1070
   172
1070
     1
1070
    73
1070
     0
1070
    77
1070
     1
1070
   147
1040
1.0
1070
    42
1040
0.625
1070
    44
1040
1.25
1070
    43
1040
3.75
1070
   271
1070
     2
1070
   141
1040
1.0
1070
   275
1070
     1
1070
    41
1040
2.0
1070
   273
1070
     8
1070
   274
1070
     4
1070
   143
1040
0.0394
1070
   171
1070
     4
1002
}
  0
DIMENSION
  5
561A
  8
MATEN
  2
*D35
 10
3524.512077
 20
1151.272909
 30
0.0
 11
3524.512077
 21
1161.767531
 31
0.0
 12
0.0
 22
-1104.855286
 32
0.0
 70
   128
 13
3462.11273
 23
1171.572909
 33
0.0
 14
3466.11273
 24
1151.272909
 34
0.0
 50
90.0
1001
ACAD
1000
DSTYLE
1002
{
1070
    78
1070
     8
1070
   288
1070
     1
1070
   140
1040
2.0
1070
    74
1070
     0
1070
   172
1070
     1
1070
    73
1070
     0
1070
    77
1070
     1
1070
   147
1040
1.0
1070
    42
1040
0.625
1070
    44
1040
1.25
1070
    43
1040
3.75
1070
   271
1070
     2
1070
   141
1040
1.0
1070
   275
1070
     1
1070
    41
1040
2.0
1070
   273
1070
     8
1070
   274
1070
     4
1070
   143
1040
0.0394
1070
   171
1070
     4
1002
}
  0
DIMENSION
  5
561B
  8
MATEN
  2
*D36
 10
3239.495588
 20
1388.272909
 30
0.0
 11
3239.495588
 21
1259.588345
 31
0.0
 12
0.0
 22
-1104.855286
 32
0.0
 70
   128
 13
3222.22223
 23
1154.272909
 33
0.0
 14
3222.22223
 24
1388.272909
 34
0.0
 50
90.0
1001
ACAD
1000
DSTYLE
1002
{
1070
    78
1070
     8
1070
   288
1070
     1
1070
   140
1040
2.0
1070
    74
1070
     0
1070
   172
1070
     1
1070
    73
1070
     0
1070
    77
1070
     1
1070
   147
1040
1.0
1070
    42
1040
0.625
1070
    44
1040
1.25
1070
    43
1040
3.75
1070
   271
1070
     2
1070
   141
1040
1.0
1070
   275
1070
     1
1070
    41
1040
2.0
1070
   273
1070
     8
1070
   274
1070
     4
1070
   143
1040
0.0394
1070
   171
1070
     4
1002
}
  0
DIMENSION
  5
561C
  8
MATEN
  2
*D37
 10
3222.22223
 20
1355.78019
 30
0.0
 11
3183.60423
 21
1355.78019
 31
0.0
 12
0.0
 22
-1104.855286
 32
0.0
 70
   128
 13
3107.87223
 23
1345.543149
 33
0.0
 14
3222.22223
 24
1345.543149
 34
0.0
1001
ACAD
1000
DSTYLE
1002
{
1070
    78
1070
     8
1070
   288
1070
     1
1070
   140
1040
2.0
1070
    74
1070
     0
1070
   172
1070
     1
1070
    73
1070
     0
1070
    77
1070
     1
1070
   147
1040
1.0
1070
    42
1040
0.625
1070
    44
1040
1.25
1070
    43
1040
3.75
1070
   271
1070
     2
1070
   141
1040
1.0
1070
   275
1070
     1
1070
    41
1040
2.0
1070
   273
1070
     8
1070
   274
1070
     4
1070
   143
1040
0.0394
1070
   171
1070
     4
1002
}
  0
DIMENSION
  5
561D
  8
MATEN
  2
*D38
 10
3459.11273
 20
1422.225773
 30
0.0
 11
3454.491144
 21
1422.225773
 31
0.0
 12
0.0
 22
-1104.855286
 32
0.0
 70
   128
 13
3449.11273
 23
1416.272909
 33
0.0
 14
3459.11273
 24
1416.272909
 34
0.0
1001
ACAD
1000
DSTYLE
1002
{
1070
    78
1070
     8
1070
   288
1070
     1
1070
   140
1040
2.0
1070
    74
1070
     0
1070
   172
1070
     1
1070
    73
1070
     0
1070
    77
1070
     1
1070
   147
1040
1.0
1070
    42
1040
0.625
1070
    44
1040
1.25
1070
    43
1040
3.75
1070
   271
1070
     2
1070
   141
1040
1.0
1070
   275
1070
     1
1070
    41
1040
2.0
1070
   273
1070
     8
1070
   274
1070
     4
1070
   143
1040
0.0394
1070
   171
1070
     4
1002
}
  0
CIRCLE
  5
561E
  8
0
 10
3206.84723
 20
1624.653711
 30
0.0
 40
6.0
  0
CIRCLE
  5
561F
  8
0
 10
3122.84723
 20
1624.653711
 30
0.0
 40
6.0
  0
DIMENSION
  5
5620
  8
MATEN
  2
*D39
 10
3128.84723
 20
1649.473446
 30
0.0
 11
3164.989637
 21
1649.473446
 31
0.0
 12
0.0
 22
-1104.855286
 32
0.0
 70
   128
 13
3200.84723
 23
1624.653711
 33
0.0
 14
3128.84723
 24
1624.653711
 34
0.0
1001
ACAD
1000
DSTYLE
1002
{
1070
    78
1070
     8
1070
   288
1070
     1
1070
   140
1040
2.0
1070
    74
1070
     0
1070
   172
1070
     1
1070
    73
1070
     0
1070
    77
1070
     1
1070
   147
1040
1.0
1070
    42
1040
0.625
1070
    44
1040
1.25
1070
    43
1040
3.75
1070
   271
1070
     2
1070
   141
1040
1.0
1070
   275
1070
     1
1070
    41
1040
2.0
1070
   273
1070
     8
1070
   274
1070
     4
1070
   143
1040
0.0394
1070
   171
1070
     4
1002
}
  0
LINE
  5
5621
  8
HULPLIJN
 10
3222.04723
 20
1396.272909
 30
0.0
 11
3222.04723
 21
1388.272909
 31
0.0
  0
LINE
  5
5622
  8
HULPLIJN
 10
3108.04723
 20
1388.272909
 30
0.0
 11
3222.04723
 21
1388.272909
 31
0.0
  0
LINE
  5
5623
  8
HULPLIJN
 10
3222.04723
 20
1396.272909
 30
0.0
 11
3108.04723
 21
1396.272909
 31
0.0
  0
DIMENSION
  5
5624
  8
MATEN
  2
*D40
 10
3222.04723
 20
1478.539558
 30
0.0
 11
3162.294597
 21
1478.539558
 31
0.0
 12
0.0
 22
-1104.855286
 32
0.0
 70
   128
 13
3108.04723
 23
1505.044366
 33
0.0
 14
3222.04723
 24
1505.044366
 34
0.0
1001
ACAD
1000
DSTYLE
1002
{
1070
    78
1070
     8
1070
   288
1070
     1
1070
   140
1040
2.0
1070
    74
1070
     0
1070
   172
1070
     1
1070
    73
1070
     0
1070
    77
1070
     1
1070
   147
1040
1.0
1070
    42
1040
0.625
1070
    44
1040
1.25
1070
    43
1040
3.75
1070
   271
1070
     2
1070
   141
1040
1.0
1070
   275
1070
     1
1070
    41
1040
2.0
1070
   273
1070
     8
1070
   274
1070
     4
1070
   143
1040
0.0394
1070
   171
1070
     4
1002
}
  0
LINE
  5
5625
  8
HULPLIJN
 10
3108.04723
 20
1396.272909
 30
0.0
 11
3108.04723
 21
1388.272909
 31
0.0
  0
DIMENSION
  5
5626
  8
MATEN
  2
*D41
 10
3222.04723
 20
1409.890444
 30
0.0
 11
3165.70221
 21
1409.890444
 31
0.0
 12
0.0
 22
-1104.855286
 32
0.0
 70
   128
 13
3108.04723
 23
1396.272909
 33
0.0
 14
3222.04723
 24
1396.272909
 34
0.0
1001
ACAD
1000
DSTYLE
1002
{
1070
    78
1070
     8
1070
   288
1070
     1
1070
   140
1040
2.0
1070
    74
1070
     0
1070
   172
1070
     1
1070
    73
1070
     0
1070
    77
1070
     1
1070
   147
1040
1.0
1070
    42
1040
0.625
1070
    44
1040
1.25
1070
    43
1040
3.75
1070
   271
1070
     2
1070
   141
1040
1.0
1070
   275
1070
     1
1070
    41
1040
2.0
1070
   273
1070
     8
1070
   274
1070
     4
1070
   143
1040
0.0394
1070
   171
1070
     4
1002
}
  0
CIRCLE
  5
5627
  8
HULPLIJN
 10
3122.67223
 20
1001.259151
 30
0.0
 40
6.0
  0
CIRCLE
  5
5628
  8
HULPLIJN
 10
3207.02223
 20
1001.259151
 30
0.0
 40
6.0
  0
DIMENSION
  5
5629
  8
MATEN
  2
*D42
 10
3209.814563
 20
995.948513
 30
0.0
 11
3193.855096
 21
1026.301245
 31
0.0
 12
0.0
 22
-1159.827767
 32
0.0
 70
   131
 15
3204.229896
 25
1006.569788
 35
0.0
 40
0.0
1001
ACAD
1000
DSTYLE
1002
{
1070
    78
1070
     8
1070
   288
1070
     1
1070
   140
1040
2.0
1070
    74
1070
     0
1070
   172
1070
     1
1070
    73
1070
     0
1070
    77
1070
     1
1070
   147
1040
1.0
1070
    42
1040
0.625
1070
    44
1040
1.25
1070
    43
1040
3.75
1070
   271
1070
     2
1070
   141
1040
1.0
1070
   275
1070
     1
1070
    41
1040
2.0
1070
   273
1070
     8
1070
   274
1070
     4
1070
   143
1040
0.0394
1070
   171
1070
     4
1002
}
  0
DIMENSION
  5
562A
  8
MATEN
  2
*D43
 10
3518.096567
 20
1396.272909
 30
0.0
 11
3518.096567
 21
1406.499874
 31
0.0
 12
0.0
 22
-1104.855286
 32
0.0
 70
   128
 13
3459.11273
 23
1416.272909
 33
0.0
 14
3511.28773
 24
1396.272909
 34
0.0
 50
90.0
1001
ACAD
1000
DSTYLE
1002
{
1070
    78
1070
     8
1070
   288
1070
     1
1070
   140
1040
2.0
1070
    74
1070
     0
1070
   172
1070
     1
1070
    73
1070
     0
1070
    77
1070
     1
1070
   147
1040
1.0
1070
    42
1040
0.625
1070
    44
1040
1.25
1070
    43
1040
3.75
1070
   271
1070
     2
1070
   141
1040
1.0
1070
   275
1070
     1
1070
    41
1040
2.0
1070
   273
1070
     8
1070
   274
1070
     4
1070
   143
1040
0.0394
1070
   171
1070
     4
1002
}
  0
DIMENSION
  5
562B
  8
MATEN
  2
*D44
 10
3466.11273
 20
1403.022265
 30
0.0
 11
3474.680756
 21
1403.022265
 31
0.0
 12
0.0
 22
-1104.855286
 32
0.0
 70
   128
 13
3442.11273
 23
1391.272909
 33
0.0
 14
3466.11273
 24
1391.272909
 34
0.0
1001
ACAD
1000
DSTYLE
1002
{
1070
    78
1070
     8
1070
   288
1070
     1
1070
   140
1040
2.0
1070
    74
1070
     0
1070
   172
1070
     1
1070
    73
1070
     0
1070
    77
1070
     1
1070
   147
1040
1.0
1070
    42
1040
0.625
1070
    44
1040
1.25
1070
    43
1040
3.75
1070
   271
1070
     2
1070
   141
1040
1.0
1070
   275
1070
     1
1070
    41
1040
2.0
1070
   273
1070
     8
1070
   274
1070
     4
1070
   143
1040
0.0394
1070
   171
1070
     4
1002
}
  0
DIMENSION
  5
59B4
  8
MATEN
  6
DASHED
  2
*D45
 10
3369.920658
 20
1154.272909
 30
0.0
 11
3366.795658
 21
1271.272909
 31
0.0
 70
     0
 13
3396.93773
 23
1388.272909
 33
0.0
 14
3396.93773
 24
1154.272909
 34
0.0
 50
90.0
1001
ACAD
1000
DSTYLE
1002
{
1070
    78
1070
     8
1070
   140
1040
3.0
1070
    74
1070
     0
1070
   172
1070
     1
1070
    73
1070
     0
1070
    77
1070
     1
1070
   147
1040
1.625
1070
    42
1040
0.625
1070
    44
1040
1.25
1070
    43
1040
3.75
1070
   271
1070
     2
1070
   141
1040
2.5
1070
   275
1070
     1
1070
    41
1040
2.0
1070
   273
1070
     8
1070
   274
1070
     4
1070
   143
1040
0.0394
1070
   171
1070
     4
1002
}
  0
VIEWPORT
  5
1655
 67
     1
  8
0
 10
252.504596
 20
148.5
 30
0.0
 40
505.009191
 41
297.0
 68
    -1
 69
     1
1001
ACAD
1000
MVIEW
1002
{
1070
    16
1010
0.0
1020
0.0
1030
0.0
1010
0.0
1020
0.0
1030
1.0
1040
0.0
1040
297.0
1040
252.504596
1040
148.5
1040
50.0
1040
0.0
1040
0.0
1070
     0
1070
   100
1070
     1
1070
     1
1070
     0
1070
     0
1070
     0
1070
     0
1040
0.0
1040
0.0
1040
0.0
1040
10.0
1040
10.0
1040
25.0
1040
25.0
1070
     0
1002
{
1002
}
1002
}
  0
ENDSEC
  0
EOF
