  0
SECTION
  2
HEADER
  9
$ACADVER
  1
AC1009
  9
$INSBASE
 10
0.0
 20
0.0
 30
0.0
  9
$EXTMIN
 10
2208.159573
 20
1730.597285
 30
0.0
  9
$EXTMAX
 10
3435.255813
 20
2545.195533
 30
0.0
  9
$LIMMIN
 10
0.0
 20
0.0
  9
$LIMMAX
 10
4200.0
 20
2970.0
  9
$ORTHOMODE
 70
     1
  9
$REGENMODE
 70
     1
  9
$FILLMODE
 70
     1
  9
$QTEXTMODE
 70
     0
  9
$MIRRTEXT
 70
     1
  9
$DRAGMODE
 70
     2
  9
$LTSCALE
 40
0.3
  9
$OSMODE
 70
   167
  9
$ATTMODE
 70
     1
  9
$TEXTSIZE
 40
2.5
  9
$TRACEWID
 40
1.0
  9
$TEXTSTYLE
  7
STANDARD
  9
$CLAYER
  8
0
  9
$CELTYPE
  6
DASHED
  9
$CECOLOR
 62
   256
  9
$DIMSCALE
 40
0.0
  9
$DIMASZ
 40
3.0
  9
$DIMEXO
 40
0.625
  9
$DIMDLI
 40
3.75
  9
$DIMRND
 40
0.0
  9
$DIMDLE
 40
0.0
  9
$DIMEXE
 40
1.25
  9
$DIMTP
 40
0.0
  9
$DIMTM
 40
0.0
  9
$DIMTXT
 40
4.6
  9
$DIMCEN
 40
2.5
  9
$DIMTSZ
 40
0.0
  9
$DIMTOL
 70
     0
  9
$DIMLIM
 70
     0
  9
$DIMTIH
 70
     0
  9
$DIMTOH
 70
     0
  9
$DIMSE1
 70
     0
  9
$DIMSE2
 70
     0
  9
$DIMTAD
 70
     1
  9
$DIMZIN
 70
     8
  9
$DIMBLK
  1

  9
$DIMASO
 70
     1
  9
$DIMSHO
 70
     1
  9
$DIMPOST
  1

  9
$DIMAPOST
  1

  9
$DIMALT
 70
     0
  9
$DIMALTD
 70
     4
  9
$DIMALTF
 40
0.0394
  9
$DIMLFAC
 40
1.0
  9
$DIMTOFL
 70
     1
  9
$DIMTVP
 40
0.0
  9
$DIMTIX
 70
     0
  9
$DIMSOXD
 70
     0
  9
$DIMSAH
 70
     0
  9
$DIMBLK1
  1

  9
$DIMBLK2
  1

  9
$DIMSTYLE
  2
STANDARD
  9
$DIMCLRD
 70
     0
  9
$DIMCLRE
 70
     0
  9
$DIMCLRT
 70
     0
  9
$DIMTFAC
 40
1.0
  9
$DIMGAP
 40
1.25
  9
$LUNITS
 70
     2
  9
$LUPREC
 70
     4
  9
$SKETCHINC
 40
1.0
  9
$FILLETRAD
 40
2.0
  9
$AUNITS
 70
     0
  9
$AUPREC
 70
     0
  9
$MENU
  1
acad
  9
$ELEVATION
 40
0.0
  9
$PELEVATION
 40
0.0
  9
$THICKNESS
 40
0.0
  9
$LIMCHECK
 70
     0
  9
$BLIPMODE
 70
     0
  9
$CHAMFERA
 40
0.0
  9
$CHAMFERB
 40
0.0
  9
$SKPOLY
 70
     0
  9
$TDCREATE
 40
2451801.38001
  9
$TDUPDATE
 40
2451891.41982
  9
$TDINDWG
 40
1.676632
  9
$TDUSRTIMER
 40
1.676632
  9
$USRTIMER
 70
     1
  9
$ANGBASE
 50
0.0
  9
$ANGDIR
 70
     0
  9
$PDMODE
 70
     0
  9
$PDSIZE
 40
0.0
  9
$PLINEWID
 40
0.0
  9
$COORDS
 70
     1
  9
$SPLFRAME
 70
     0
  9
$SPLINETYPE
 70
     6
  9
$SPLINESEGS
 70
     8
  9
$ATTDIA
 70
     0
  9
$ATTREQ
 70
     1
  9
$HANDLING
 70
     1
  9
$HANDSEED
  5
174C
  9
$SURFTAB1
 70
     6
  9
$SURFTAB2
 70
     6
  9
$SURFTYPE
 70
     6
  9
$SURFU
 70
     6
  9
$SURFV
 70
     6
  9
$UCSNAME
  2

  9
$UCSORG
 10
0.0
 20
0.0
 30
0.0
  9
$UCSXDIR
 10
1.0
 20
0.0
 30
0.0
  9
$UCSYDIR
 10
0.0
 20
1.0
 30
0.0
  9
$PUCSNAME
  2

  9
$PUCSORG
 10
0.0
 20
0.0
 30
0.0
  9
$PUCSXDIR
 10
1.0
 20
0.0
 30
0.0
  9
$PUCSYDIR
 10
0.0
 20
1.0
 30
0.0
  9
$USERI1
 70
     0
  9
$USERI2
 70
     0
  9
$USERI3
 70
     0
  9
$USERI4
 70
     0
  9
$USERI5
 70
     0
  9
$USERR1
 40
0.0
  9
$USERR2
 40
0.0
  9
$USERR3
 40
0.0
  9
$USERR4
 40
0.0
  9
$USERR5
 40
0.0
  9
$WORLDVIEW
 70
     1
  9
$SHADEDGE
 70
     3
  9
$SHADEDIF
 70
    70
  9
$TILEMODE
 70
     1
  9
$MAXACTVP
 70
    48
  9
$PLIMCHECK
 70
     0
  9
$PEXTMIN
 10
1.000000E+020
 20
1.000000E+020
 30
1.000000E+020
  9
$PEXTMAX
 10
-1.000000E+020
 20
-1.000000E+020
 30
-1.000000E+020
  9
$PLIMMIN
 10
0.0
 20
0.0
  9
$PLIMMAX
 10
420.0
 20
297.0
  9
$UNITMODE
 70
     0
  9
$VISRETAIN
 70
     1
  9
$PLINEGEN
 70
     0
  9
$PSLTSCALE
 70
     1
  0
ENDSEC
  0
SECTION
  2
TABLES
  0
TABLE
  2
VPORT
 70
     2
  0
VPORT
  2
*ACTIVE
 70
     0
 10
0.0
 20
0.0
 11
1.0
 21
1.0
 12
2924.244359
 22
2141.693965
 13
0.0
 23
0.0
 14
10.0
 24
10.0
 15
25.0
 25
25.0
 16
0.0
 26
0.0
 36
1.0
 17
0.0
 27
0.0
 37
0.0
 40
910.805317
 41
1.700368
 42
50.0
 43
0.0
 44
0.0
 50
0.0
 51
0.0
 71
     0
 72
   100
 73
     1
 74
     1
 75
     0
 76
     0
 77
     0
 78
     0
  0
ENDTAB
  0
TABLE
  2
LTYPE
 70
     3
  0
LTYPE
  2
CONTINUOUS
 70
     0
  3
Solid line
 72
    65
 73
     0
 40
0.0
  0
LTYPE
  2
DASHED
 70
     0
  3
Dashed __ __ __ __ __ __ __ __ __ __ __ __ __ _
 72
    65
 73
     2
 40
19.05
 49
12.7
 49
-6.35
  0
LTYPE
  2
ACAD_ISO02W100
 70
     0
  3
ISO dash __ __ __ __ __ __ __ __ __ __ __ __ __
 72
    65
 73
     2
 40
15.0
 49
12.0
 49
-3.0
  0
ENDTAB
  0
TABLE
  2
LAYER
 70
     3
  0
LAYER
  2
0
 70
     0
 62
     7
  6
CONTINUOUS
  0
LAYER
  2
DEFPOINTS
 70
     0
 62
     7
  6
CONTINUOUS
  0
LAYER
  2
MATEN
 70
     0
 62
     1
  6
CONTINUOUS
  0
ENDTAB
  0
TABLE
  2
STYLE
 70
     1
  0
STYLE
  2
STANDARD
 70
     0
 40
0.0
 41
1.0
 50
0.0
 71
     0
 42
2.5
  3
txt
  4

  0
ENDTAB
  0
TABLE
  2
VIEW
 70
     0
  0
ENDTAB
  0
TABLE
  2
UCS
 70
     0
  0
ENDTAB
  0
TABLE
  2
APPID
 70
     6
  0
APPID
  2
ACAD
 70
     0
  0
APPID
  2
CONTENTBLOCKDESCRIPTION
 70
     0
  0
APPID
  2
CONTENTBLOCKICON
 70
     0
  0
APPID
  2
CONTENTTABDATA
 70
     0
  0
APPID
  2
CONTENTCURRENTTAB
 70
     0
  0
APPID
  2
DRAWINGVARIABLESXDATA
 70
     0
  0
ENDTAB
  0
TABLE
  2
DIMSTYLE
 70
     1
  0
DIMSTYLE
  2
STANDARD
 70
     0
  3

  4

  5

  6

  7

 40
1.0
 41
0.18
 42
0.0625
 43
0.38
 44
0.18
 45
0.0
 46
0.0
 47
0.0
 48
0.0
140
0.18
141
0.09
142
0.0
143
25.4
144
1.0
145
0.0
146
1.0
147
0.09
 71
     0
 72
     0
 73
     1
 74
     1
 75
     0
 76
     0
 77
     0
 78
     0
170
     0
171
     2
172
     0
173
     0
174
     0
175
     0
176
     0
177
     0
178
     0
  0
ENDTAB
  0
ENDSEC
  0
SECTION
  2
BLOCKS
  0
BLOCK
  8
0
  2
$MODEL_SPACE
 70
     0
 10
0.0
 20
0.0
 30
0.0
  3
$MODEL_SPACE
  1

  0
ENDBLK
  5
6
  8
0
  0
BLOCK
 67
     1
  8
0
  2
$PAPER_SPACE
 70
     0
 10
0.0
 20
0.0
 30
0.0
  3
$PAPER_SPACE
  1

  0
ENDBLK
  5
9
 67
     1
  8
0
  0
BLOCK
  8
0
  2
*D0
 70
     1
 10
0.0
 20
0.0
 30
0.0
  3
*D0
  1

  0
LINE
  5
165C
  8
0
  6
BYBLOCK
 62
     0
 10
3515.639614
 20
2000.009815
 30
0.0
 11
3515.639614
 21
1992.575658
 31
0.0
  0
LINE
  5
165D
  8
0
  6
BYBLOCK
 62
     0
 10
3458.464614
 20
2000.009815
 30
0.0
 11
3458.464614
 21
1992.575658
 31
0.0
  0
LINE
  5
165E
  8
0
  6
BYBLOCK
 62
     0
 10
3513.639614
 20
1993.825658
 30
0.0
 11
3460.464614
 21
1993.825658
 31
0.0
  0
SOLID
  5
165F
  8
0
  6
BYBLOCK
 62
     0
 10
3513.639614
 20
1994.158991
 30
0.0
 11
3513.639614
 21
1993.492325
 31
0.0
 12
3515.639614
 22
1993.825658
 32
0.0
 13
3515.639614
 23
1993.825658
 33
0.0
  0
SOLID
  5
1660
  8
0
  6
BYBLOCK
 62
     0
 10
3460.464614
 20
1994.158991
 30
0.0
 11
3460.464614
 21
1993.492325
 31
0.0
 12
3458.464614
 22
1993.825658
 32
0.0
 13
3458.464614
 23
1993.825658
 33
0.0
  0
TEXT
  8
0
  40
3
  5
1743
  62
0
  72
0
  71
0
 10
3481.05
 20
1991.64
 30
0.000000
  1
57.18
  0
POINT
  5
1662
  8
DEFPOINTS
  6
BYBLOCK
 62
     0
 10
3515.639614
 20
2000.634815
 30
0.0
  0
POINT
  5
1663
  8
DEFPOINTS
  6
BYBLOCK
 62
     0
 10
3458.464614
 20
2000.634815
 30
0.0
  0
POINT
  5
1664
  8
DEFPOINTS
  6
BYBLOCK
 62
     0
 10
3458.464614
 20
1993.825658
 30
0.0
  0
ENDBLK
  5
1665
  8
0
  0
BLOCK
  8
0
  2
*D2
 70
     1
 10
0.0
 20
0.0
 30
0.0
  3
*D2
  1

  0
LINE
  5
14BD
  8
0
  6
BYBLOCK
 62
     0
 10
2976.022864
 20
1458.311793
 30
0.0
 11
2976.022864
 21
1485.175886
 31
0.0
  0
LINE
  5
14BE
  8
0
  6
BYBLOCK
 62
     0
 10
3012.022864
 20
1458.311793
 30
0.0
 11
3012.022864
 21
1485.175886
 31
0.0
  0
LINE
  5
14BF
  8
0
  6
BYBLOCK
 62
     0
 10
2979.022864
 20
1483.925886
 30
0.0
 11
3009.022864
 21
1483.925886
 31
0.0
  0
SOLID
  5
14C0
  8
0
  6
BYBLOCK
 62
     0
 10
2979.022864
 20
1484.425886
 30
0.0
 11
2979.022864
 21
1483.425886
 31
0.0
 12
2976.022864
 22
1483.925886
 32
0.0
 13
2976.022864
 23
1483.925886
 33
0.0
  0
SOLID
  5
14C1
  8
0
  6
BYBLOCK
 62
     0
 10
3009.022864
 20
1484.425886
 30
0.0
 11
3009.022864
 21
1483.425886
 31
0.0
 12
3012.022864
 22
1483.925886
 32
0.0
 13
3012.022864
 23
1483.925886
 33
0.0
  0
TEXT
  8
0
  40
4.6
  5
1744
  62
0
  72
0
  71
0
 10
2984.82
 20
1479.33
 30
0.000000
  1
36
  0
POINT
  5
14C3
  8
DEFPOINTS
  6
BYBLOCK
 62
     0
 10
2976.022864
 20
1457.686793
 30
0.0
  0
POINT
  5
14C4
  8
DEFPOINTS
  6
BYBLOCK
 62
     0
 10
3012.022864
 20
1457.686793
 30
0.0
  0
POINT
  5
14C5
  8
DEFPOINTS
  6
BYBLOCK
 62
     0
 10
3012.022864
 20
1483.925886
 30
0.0
  0
ENDBLK
  5
14C6
  8
0
  0
BLOCK
  8
0
  2
*D3
 70
     1
 10
0.0
 20
0.0
 30
0.0
  3
*D3
  1

  0
LINE
  5
14B3
  8
0
  6
BYBLOCK
 62
     0
 10
3056.331584
 20
1472.719346
 30
0.0
 11
3004.113745
 21
1450.059991
 31
0.0
  0
LINE
  5
14B4
  8
0
  6
BYBLOCK
 62
     0
 10
2983.931983
 20
1441.302338
 30
0.0
 11
2981.179925
 21
1440.108113
 31
0.0
  0
TEXT
  8
0
  40
4.6
  5
1745
  62
0
  72
0
  71
0
 10
3039.65
 20
1465.20
 30
0.000000
  1
%%c16
  0
LINE
  5
14B6
  8
0
  6
BYBLOCK
 62
     0
 10
2986.684042
 20
1442.496563
 30
0.0
 11
3001.361687
 21
1448.865766
 31
0.0
  0
SOLID
  5
14B7
  8
0
  6
BYBLOCK
 62
     0
 10
2983.732946
 20
1441.761014
 30
0.0
 11
2984.131021
 21
1440.843662
 31
0.0
 12
2986.684042
 22
1442.496563
 32
0.0
 13
2986.684042
 23
1442.496563
 33
0.0
  0
SOLID
  5
14B8
  8
0
  6
BYBLOCK
 62
     0
 10
3003.914708
 20
1450.518667
 30
0.0
 11
3004.312783
 21
1449.601315
 31
0.0
 12
3001.361687
 22
1448.865766
 32
0.0
 13
3001.361687
 23
1448.865766
 33
0.0
  0
POINT
  5
14B9
  8
DEFPOINTS
  6
BYBLOCK
 62
     0
 10
3001.361687
 20
1448.865766
 30
0.0
  0
POINT
  5
14BA
  8
DEFPOINTS
  6
BYBLOCK
 62
     0
 10
2986.684042
 20
1442.496563
 30
0.0
  0
ENDBLK
  5
14BB
  8
0
  0
BLOCK
  8
0
  2
*D4
 70
     1
 10
0.0
 20
0.0
 30
0.0
  3
*D4
  1

  0
LINE
  5
1649
  8
0
  6
BYBLOCK
 62
     0
 10
2627.395824
 20
2124.380797
 30
0.0
 11
2627.395824
 21
2111.28513
 31
0.0
  0
LINE
  5
164A
  8
0
  6
BYBLOCK
 62
     0
 10
2747.395824
 20
2124.380797
 30
0.0
 11
2747.395824
 21
2111.28513
 31
0.0
  0
LINE
  5
164B
  8
0
  6
BYBLOCK
 62
     0
 10
2630.395824
 20
2112.53513
 30
0.0
 11
2744.395824
 21
2112.53513
 31
0.0
  0
SOLID
  5
164C
  8
0
  6
BYBLOCK
 62
     0
 10
2630.395824
 20
2113.03513
 30
0.0
 11
2630.395824
 21
2112.03513
 31
0.0
 12
2627.395824
 22
2112.53513
 32
0.0
 13
2627.395824
 23
2112.53513
 33
0.0
  0
SOLID
  5
164D
  8
0
  6
BYBLOCK
 62
     0
 10
2744.395824
 20
2113.03513
 30
0.0
 11
2744.395824
 21
2112.03513
 31
0.0
 12
2747.395824
 22
2112.53513
 32
0.0
 13
2747.395824
 23
2112.53513
 33
0.0
  0
TEXT
  8
0
  40
4.6
  5
1746
  62
0
  72
0
  71
0
 10
2678.20
 20
2107.94
 30
0.000000
  1
120
  0
POINT
  5
164F
  8
DEFPOINTS
  6
BYBLOCK
 62
     0
 10
2627.395824
 20
2125.005797
 30
0.0
  0
POINT
  5
1650
  8
DEFPOINTS
  6
BYBLOCK
 62
     0
 10
2747.395824
 20
2125.005797
 30
0.0
  0
POINT
  5
1651
  8
DEFPOINTS
  6
BYBLOCK
 62
     0
 10
2747.395824
 20
2112.53513
 30
0.0
  0
ENDBLK
  5
1652
  8
0
  0
BLOCK
  8
0
  2
*D5
 70
     1
 10
0.0
 20
0.0
 30
0.0
  3
*D5
  1

  0
LINE
  5
1692
  8
0
  6
BYBLOCK
 62
     0
 10
2407.409573
 20
2210.555797
 30
0.0
 11
2432.108196
 21
2210.555797
 31
0.0
  0
LINE
  5
1693
  8
0
  6
BYBLOCK
 62
     0
 10
2407.409573
 20
2172.555797
 30
0.0
 11
2432.108196
 21
2172.555797
 31
0.0
  0
LINE
  5
1694
  8
0
  6
BYBLOCK
 62
     0
 10
2430.858196
 20
2207.555797
 30
0.0
 11
2430.858196
 21
2175.555797
 31
0.0
  0
SOLID
  5
1695
  8
0
  6
BYBLOCK
 62
     0
 10
2430.358196
 20
2207.555797
 30
0.0
 11
2431.358196
 21
2207.555797
 31
0.0
 12
2430.858196
 22
2210.555797
 32
0.0
 13
2430.858196
 23
2210.555797
 33
0.0
  0
SOLID
  5
1696
  8
0
  6
BYBLOCK
 62
     0
 10
2430.358196
 20
2175.555797
 30
0.0
 11
2431.358196
 21
2175.555797
 31
0.0
 12
2430.858196
 22
2172.555797
 32
0.0
 13
2430.858196
 23
2172.555797
 33
0.0
  0
TEXT
  8
0
  40
4.6
  5
1747
  62
0
  72
0
  71
0
 10
2418.11
 20
2183.41
 30
0.000000
  1
38
  0
POINT
  5
1698
  8
DEFPOINTS
  6
BYBLOCK
 62
     0
 10
2406.784573
 20
2210.555797
 30
0.0
  0
POINT
  5
1699
  8
DEFPOINTS
  6
BYBLOCK
 62
     0
 10
2406.784573
 20
2172.555797
 30
0.0
  0
POINT
  5
169A
  8
DEFPOINTS
  6
BYBLOCK
 62
     0
 10
2430.858196
 20
2172.555797
 30
0.0
  0
ENDBLK
  5
169B
  8
0
  0
BLOCK
  8
0
  2
*D6
 70
     1
 10
0.0
 20
0.0
 30
0.0
  3
*D6
  1

  0
LINE
  5
16A2
  8
0
  6
BYBLOCK
 62
     0
 10
2403.740566
 20
2180.569164
 30
0.0
 11
2393.466449
 21
2188.80346
 31
0.0
  0
LINE
  5
16A3
  8
0
  6
BYBLOCK
 62
     0
 10
2384.102697
 20
2196.308134
 30
0.0
 11
2381.761759
 21
2198.184303
 31
0.0
  0
TEXT
  8
0
  40
4.6
  5
1748
  62
0
  72
0
  71
0
 10
2392.79
 20
2178.38
 30
0.000000
  1
%%c6
  0
LINE
  5
16A5
  8
0
  6
BYBLOCK
 62
     0
 10
2386.443635
 20
2194.431966
 30
0.0
 11
2391.125511
 21
2190.679628
 31
0.0
  0
SOLID
  5
16A6
  8
0
  6
BYBLOCK
 62
     0
 10
2384.415392
 20
2196.698291
 30
0.0
 11
2383.790002
 21
2195.917978
 31
0.0
 12
2386.443635
 22
2194.431966
 32
0.0
 13
2386.443635
 23
2194.431966
 33
0.0
  0
SOLID
  5
16A7
  8
0
  6
BYBLOCK
 62
     0
 10
2393.779144
 20
2189.193616
 30
0.0
 11
2393.153754
 21
2188.413303
 31
0.0
 12
2391.125511
 22
2190.679628
 32
0.0
 13
2391.125511
 23
2190.679628
 33
0.0
  0
POINT
  5
16A8
  8
DEFPOINTS
  6
BYBLOCK
 62
     0
 10
2391.125511
 20
2190.679628
 30
0.0
  0
POINT
  5
16A9
  8
DEFPOINTS
  6
BYBLOCK
 62
     0
 10
2386.443635
 20
2194.431966
 30
0.0
  0
ENDBLK
  5
16AA
  8
0
  0
BLOCK
  8
0
  2
*D7
 70
     1
 10
0.0
 20
0.0
 30
0.0
  3
*D7
  1

  0
LINE
  5
16C1
  8
0
  6
BYBLOCK
 62
     0
 10
2436.864496
 20
2340.754877
 30
0.0
 11
2400.529098
 21
2311.88672
 31
0.0
  0
LINE
  5
16C2
  8
0
  6
BYBLOCK
 62
     0
 10
2377.040048
 20
2293.224874
 30
0.0
 11
2374.691143
 21
2291.358689
 31
0.0
  0
TEXT
  8
0
  40
4.6
  5
1749
  62
0
  72
0
  71
0
 10
2419.68
 20
2330.80
 30
0.000000
  1
%%c24
  0
LINE
  5
16C4
  8
0
  6
BYBLOCK
 62
     0
 10
2379.388953
 20
2295.091059
 30
0.0
 11
2398.180193
 21
2310.020536
 31
0.0
  0
SOLID
  5
16C5
  8
0
  6
BYBLOCK
 62
     0
 10
2376.729017
 20
2293.616358
 30
0.0
 11
2377.351079
 21
2292.83339
 31
0.0
 12
2379.388953
 22
2295.091059
 32
0.0
 13
2379.388953
 23
2295.091059
 33
0.0
  0
SOLID
  5
16C6
  8
0
  6
BYBLOCK
 62
     0
 10
2400.218068
 20
2312.278204
 30
0.0
 11
2400.840129
 21
2311.495236
 31
0.0
 12
2398.180193
 22
2310.020536
 32
0.0
 13
2398.180193
 23
2310.020536
 33
0.0
  0
POINT
  5
16C7
  8
DEFPOINTS
  6
BYBLOCK
 62
     0
 10
2398.180193
 20
2310.020536
 30
0.0
  0
POINT
  5
16C8
  8
DEFPOINTS
  6
BYBLOCK
 62
     0
 10
2379.388953
 20
2295.091059
 30
0.0
  0
ENDBLK
  5
16C9
  8
0
  0
BLOCK
  8
0
  2
*D8
 70
     1
 10
0.0
 20
0.0
 30
0.0
  3
*D8
  1

  0
LINE
  5
16FC
  8
0
  6
BYBLOCK
 62
     0
 10
2748.020824
 20
2322.551426
 30
0.0
 11
2771.308444
 21
2322.551426
 31
0.0
  0
LINE
  5
16FD
  8
0
  6
BYBLOCK
 62
     0
 10
2748.020824
 20
2172.555797
 30
0.0
 11
2771.308444
 21
2172.555797
 31
0.0
  0
LINE
  5
16FE
  8
0
  6
BYBLOCK
 62
     0
 10
2770.058444
 20
2319.551426
 30
0.0
 11
2770.058444
 21
2175.555797
 31
0.0
  0
SOLID
  5
16FF
  8
0
  6
BYBLOCK
 62
     0
 10
2769.558444
 20
2319.551426
 30
0.0
 11
2770.558444
 21
2319.551426
 31
0.0
 12
2770.058444
 22
2322.551426
 32
0.0
 13
2770.058444
 23
2322.551426
 33
0.0
  0
SOLID
  5
1700
  8
0
  6
BYBLOCK
 62
     0
 10
2769.558444
 20
2175.555797
 30
0.0
 11
2770.558444
 21
2175.555797
 31
0.0
 12
2770.058444
 22
2172.555797
 32
0.0
 13
2770.058444
 23
2172.555797
 33
0.0
  0
TEXT
  8
0
  40
4.6
  5
174A
  62
0
  72
0
  71
0
 10
2757.31
 20
2239.41
 30
0.000000
  1
150
  0
POINT
  5
1702
  8
DEFPOINTS
  6
BYBLOCK
 62
     0
 10
2747.395824
 20
2322.551426
 30
0.0
  0
POINT
  5
1703
  8
DEFPOINTS
  6
BYBLOCK
 62
     0
 10
2747.395824
 20
2172.555797
 30
0.0
  0
POINT
  5
1704
  8
DEFPOINTS
  6
BYBLOCK
 62
     0
 10
2770.058444
 20
2172.555797
 30
0.0
  0
ENDBLK
  5
1705
  8
0
  0
BLOCK
  8
0
  2
*D9
 70
     1
 10
0.0
 20
0.0
 30
0.0
  3
*D9
  1

  0
LINE
  5
1733
  8
0
  6
BYBLOCK
 62
     0
 10
2389.409573
 20
2314.555797
 30
0.0
 11
2455.973841
 21
2314.555797
 31
0.0
  0
LINE
  5
1734
  8
0
  6
BYBLOCK
 62
     0
 10
2389.409573
 20
2180.555797
 30
0.0
 11
2455.973841
 21
2180.555797
 31
0.0
  0
LINE
  5
1735
  8
0
  6
BYBLOCK
 62
     0
 10
2454.723841
 20
2311.555797
 30
0.0
 11
2454.723841
 21
2183.555797
 31
0.0
  0
SOLID
  5
1736
  8
0
  6
BYBLOCK
 62
     0
 10
2454.223841
 20
2311.555797
 30
0.0
 11
2455.223841
 21
2311.555797
 31
0.0
 12
2454.723841
 22
2314.555797
 32
0.0
 13
2454.723841
 23
2314.555797
 33
0.0
  0
SOLID
  5
1737
  8
0
  6
BYBLOCK
 62
     0
 10
2454.223841
 20
2183.555797
 30
0.0
 11
2455.223841
 21
2183.555797
 31
0.0
 12
2454.723841
 22
2180.555797
 32
0.0
 13
2454.723841
 23
2180.555797
 33
0.0
  0
TEXT
  8
0
  40
4.6
  5
174B
  62
0
  72
0
  71
0
 10
2441.97
 20
2239.41
 30
0.000000
  1
134
  0
POINT
  5
1739
  8
DEFPOINTS
  6
BYBLOCK
 62
     0
 10
2388.784573
 20
2314.555797
 30
0.0
  0
POINT
  5
173A
  8
DEFPOINTS
  6
BYBLOCK
 62
     0
 10
2388.784573
 20
2180.555797
 30
0.0
  0
POINT
  5
173B
  8
DEFPOINTS
  6
BYBLOCK
 62
     0
 10
2454.723841
 20
2180.555797
 30
0.0
  0
ENDBLK
  5
173C
  8
0
  0
ENDSEC
  0
SECTION
  2
ENTITIES
  0
LINE
  5
72D
  8
0
 10
3097.955851
 20
2000.634815
 30
0.0
 11
3097.955851
 21
2075.634815
 31
0.0
  0
LINE
  5
72E
  8
0
 10
3097.955851
 20
2075.634815
 30
0.0
 11
3132.955851
 21
2075.634815
 31
0.0
  0
LINE
  5
72F
  8
0
 10
3132.955851
 20
2000.634815
 30
0.0
 11
3132.955851
 21
2075.634815
 31
0.0
  0
LINE
  5
730
  8
0
 10
3097.955851
 20
2000.634815
 30
0.0
 11
3132.955851
 21
2000.634815
 31
0.0
  0
CIRCLE
  5
731
  8
0
 10
3126.796895
 20
2006.634815
 30
0.0
 40
2.941044
  0
CIRCLE
  5
732
  8
0
 10
3126.796895
 20
2022.634815
 30
0.0
 40
2.941044
  0
CIRCLE
  5
733
  8
0
 10
3126.796895
 20
2053.634815
 30
0.0
 40
2.941044
  0
CIRCLE
  5
734
  8
0
 10
3126.796895
 20
2069.634815
 30
0.0
 40
2.941044
  0
ARC
  5
735
  8
0
 10
3126.796895
 20
2006.634815
 30
0.0
 40
2.441044
 50
180.0
 51
90.0
  0
ARC
  5
736
  8
0
 10
3126.796895
 20
2022.634815
 30
0.0
 40
2.441044
 50
90.0
 51
0.0
  0
ARC
  5
737
  8
0
 10
3126.796895
 20
2053.634815
 30
0.0
 40
2.441044
 50
0.0
 51
270.0
  0
ARC
  5
738
  8
0
 10
3126.796895
 20
2069.634815
 30
0.0
 40
2.441044
 50
270.0
 51
180.0
  0
LINE
  5
739
  8
0
  6
DASHED
 10
3101.555851
 20
2000.634815
 30
0.0
 11
3101.555851
 21
2075.634815
 31
0.0
  0
LINE
  5
73A
  8
0
  6
DASHED
 10
3120.755851
 20
2000.634815
 30
0.0
 11
3120.755851
 21
2075.634815
 31
0.0
  0
LINE
  5
73B
  8
0
  6
DASHED
 10
3120.755851
 20
2028.634815
 30
0.0
 11
3101.555851
 21
2028.634815
 31
0.0
  0
LINE
  5
73C
  8
0
  6
DASHED
 10
3120.755851
 20
2047.634815
 30
0.0
 11
3101.555851
 21
2047.634815
 31
0.0
  0
LINE
  5
73D
  8
0
  6
DASHED
 10
3105.155851
 20
2047.634815
 30
0.0
 11
3105.155851
 21
2075.634815
 31
0.0
  0
LINE
  5
73E
  8
0
  6
DASHED
 10
3117.155851
 20
2047.634815
 30
0.0
 11
3117.155851
 21
2075.634815
 31
0.0
  0
LINE
  5
73F
  8
0
  6
DASHED
 10
3105.155851
 20
2028.634815
 30
0.0
 11
3105.155851
 21
2000.634815
 31
0.0
  0
LINE
  5
740
  8
0
  6
DASHED
 10
3117.155851
 20
2028.634815
 30
0.0
 11
3117.155851
 21
2000.634815
 31
0.0
  0
LINE
  5
741
  8
0
 10
3215.752006
 20
2197.842266
 30
0.0
 11
3203.272006
 21
2197.842266
 31
0.0
  0
LINE
  5
742
  8
0
 10
3215.752006
 20
2211.242266
 30
0.0
 11
3203.272006
 21
2211.242266
 31
0.0
  0
LINE
  5
743
  8
0
 10
3219.512006
 20
2199.442266
 30
0.0
 11
3199.512006
 21
2199.442266
 31
0.0
  0
LINE
  5
744
  8
0
 10
3218.512006
 20
2205.042266
 30
0.0
 11
3200.512006
 21
2205.042266
 31
0.0
  0
LINE
  5
745
  8
0
 10
3198.512006
 20
2200.442266
 30
0.0
 11
3198.512006
 21
2203.042266
 31
0.0
  0
LINE
  5
746
  8
0
 10
3220.512006
 20
2200.442266
 30
0.0
 11
3220.512006
 21
2203.042266
 31
0.0
  0
LINE
  5
747
  8
0
  6
DASHED
 10
3206.412006
 20
2197.842266
 30
0.0
 11
3206.412006
 21
2211.242266
 31
0.0
  0
LINE
  5
748
  8
0
  6
DASHED
 10
3212.612006
 20
2197.842266
 30
0.0
 11
3212.612006
 21
2211.242266
 31
0.0
  0
LINE
  5
749
  8
0
 10
3203.272006
 20
2197.842266
 30
0.0
 11
3203.272006
 21
2199.442266
 31
0.0
  0
LINE
  5
74A
  8
0
 10
3215.752006
 20
2197.842266
 30
0.0
 11
3215.752006
 21
2199.442266
 31
0.0
  0
LINE
  5
74B
  8
0
 10
3215.752006
 20
2211.242266
 30
0.0
 11
3215.752006
 21
2205.042266
 31
0.0
  0
LINE
  5
74C
  8
0
 10
3203.272006
 20
2211.242266
 30
0.0
 11
3203.272006
 21
2205.042266
 31
0.0
  0
CIRCLE
  5
74D
  8
0
 10
3209.512006
 20
2180.951135
 30
0.0
 40
11.0
  0
CIRCLE
  5
74E
  8
0
 10
3209.512006
 20
2180.951135
 30
0.0
 40
6.24
  0
CIRCLE
  5
74F
  8
0
 10
3209.512006
 20
2180.951135
 30
0.0
 40
3.1
  0
ARC
  5
750
  8
0
 10
3200.512006
 20
2203.042266
 30
0.0
 40
2.0
 50
90.0
 51
180.0
  0
ARC
  5
751
  8
0
 10
3219.512006
 20
2200.442266
 30
0.0
 40
1.0
 50
270.0
 51
360.0
  0
ARC
  5
752
  8
0
 10
3199.512006
 20
2200.442266
 30
0.0
 40
1.0
 50
180.0
 51
270.0
  0
ARC
  5
753
  8
0
 10
3218.512006
 20
2203.042266
 30
0.0
 40
2.0
 50
360.0
 51
90.0
  0
LINE
  5
754
  8
0
 10
3150.248574
 20
2256.342646
 30
0.0
 11
3270.248574
 21
2256.342646
 31
0.0
  0
LINE
  5
755
  8
0
 10
3150.248574
 20
2231.342646
 30
0.0
 11
3270.248574
 21
2231.342646
 31
0.0
  0
LINE
  5
756
  8
0
 10
3150.248574
 20
2256.342646
 30
0.0
 11
3150.248574
 21
2231.342646
 31
0.0
  0
LINE
  5
757
  8
0
 10
3270.248574
 20
2256.342646
 30
0.0
 11
3270.248574
 21
2231.342646
 31
0.0
  0
CIRCLE
  5
758
  8
0
 10
3168.248574
 20
2241.642646
 30
0.0
 40
6.0
  0
CIRCLE
  5
759
  8
0
 10
3252.248574
 20
2241.642646
 30
0.0
 40
6.0
  0
CIRCLE
  5
75B
  8
0
 10
3210.248574
 20
2241.642646
 30
0.0
 40
6.24
  0
LINE
  5
75C
  8
0
 10
3306.823016
 20
2256.342646
 30
0.0
 11
3314.823016
 21
2256.342646
 31
0.0
  0
LINE
  5
75D
  8
0
 10
3306.823016
 20
2231.342646
 30
0.0
 11
3314.823016
 21
2231.342646
 31
0.0
  0
LINE
  5
75E
  8
0
 10
3314.823016
 20
2256.342646
 30
0.0
 11
3314.823016
 21
2231.342646
 31
0.0
  0
LINE
  5
75F
  8
0
 10
3306.823016
 20
2256.342646
 30
0.0
 11
3306.823016
 21
2231.342646
 31
0.0
  0
LINE
  5
760
  8
0
  6
DASHED
 10
3306.823016
 20
2247.882646
 30
0.0
 11
3314.823016
 21
2247.882646
 31
0.0
  0
LINE
  5
761
  8
0
  6
DASHED
 10
3306.823016
 20
2235.402646
 30
0.0
 11
3314.823016
 21
2235.402646
 31
0.0
  0
LINE
  5
762
  8
0
 10
3153.073574
 20
2000.634815
 30
0.0
 11
3267.423574
 21
2000.634815
 31
0.0
  0
LINE
  5
763
  8
0
  6
DASHED
 10
3159.748574
 20
2000.634815
 30
0.0
 11
3175.748574
 21
2000.634815
 31
0.0
  0
LINE
  5
764
  8
0
  6
DASHED
 10
3159.748574
 20
2075.634815
 30
0.0
 11
3175.748574
 21
2075.634815
 31
0.0
  0
LINE
  5
765
  8
0
  6
DASHED
 10
3244.748574
 20
2000.634815
 30
0.0
 11
3260.748574
 21
2000.634815
 31
0.0
  0
LINE
  5
766
  8
0
  6
DASHED
 10
3244.748574
 20
2075.634815
 30
0.0
 11
3260.748574
 21
2075.634815
 31
0.0
  0
LINE
  5
767
  8
0
 10
3153.073574
 20
2075.634815
 30
0.0
 11
3267.423574
 21
2075.634815
 31
0.0
  0
LINE
  5
768
  8
0
 10
3237.623574
 20
2127.44416
 30
0.0
 11
3182.873574
 21
2127.44416
 31
0.0
  0
LINE
  5
769
  8
0
 10
3153.073574
 20
2133.44416
 30
0.0
 11
3267.423574
 21
2133.44416
 31
0.0
  0
LINE
  5
76A
  8
0
  6
DASHED
 10
3170.123574
 20
2102.04416
 30
0.0
 11
3170.123574
 21
2107.04416
 31
0.0
  0
LINE
  5
76B
  8
0
  6
DASHED
 10
3182.123574
 20
2102.04416
 30
0.0
 11
3182.123574
 21
2107.04416
 31
0.0
  0
LINE
  5
76C
  8
0
 10
3182.873574
 20
2127.44416
 30
0.0
 11
3182.873574
 21
2098.44416
 31
0.0
  0
LINE
  5
76D
  8
0
 10
3169.373574
 20
2098.44416
 30
0.0
 11
3169.373574
 21
2110.762072
 31
0.0
  0
LINE
  5
76E
  8
0
 10
3166.373574
 20
2098.44416
 30
0.0
 11
3166.373574
 21
2110.762072
 31
0.0
  0
LINE
  5
76F
  8
0
 10
3153.073574
 20
2133.44416
 30
0.0
 11
3153.073574
 21
2098.44416
 31
0.0
  0
LINE
  5
770
  8
0
  6
DASHED
 10
3170.123574
 20
2102.04416
 30
0.0
 11
3182.123574
 21
2102.04416
 31
0.0
  0
LINE
  5
771
  8
0
  6
DASHED
 10
3169.373574
 20
2101.54416
 30
0.0
 11
3182.873574
 21
2101.54416
 31
0.0
  0
LINE
  5
772
  8
0
 10
3169.373574
 20
2098.44416
 30
0.0
 11
3182.873574
 21
2098.44416
 31
0.0
  0
LINE
  5
773
  8
0
  6
DASHED
 10
3170.123574
 20
2102.04416
 30
0.0
 11
3169.373574
 21
2101.54416
 31
0.0
  0
LINE
  5
774
  8
0
  6
DASHED
 10
3153.073574
 20
2101.54416
 30
0.0
 11
3166.373574
 21
2101.54416
 31
0.0
  0
LINE
  5
775
  8
0
 10
3166.373574
 20
2098.44416
 30
0.0
 11
3153.073574
 21
2098.44416
 31
0.0
  0
LINE
  5
776
  8
0
  6
DASHED
 10
3182.123574
 20
2102.04416
 30
0.0
 11
3182.873574
 21
2101.54416
 31
0.0
  0
LINE
  5
777
  8
0
  6
DASHED
 10
3170.123574
 20
2107.04416
 30
0.0
 11
3182.123574
 21
2107.04416
 31
0.0
  0
LINE
  5
778
  8
0
  6
DASHED
 10
3169.373574
 20
2107.54416
 30
0.0
 11
3182.873574
 21
2107.54416
 31
0.0
  0
ARC
  5
779
  8
0
 10
3167.873574
 20
2120.24416
 30
0.0
 40
9.6
 50
278.989299
 51
261.010701
  0
LINE
  5
77A
  8
0
  6
DASHED
 10
3170.123574
 20
2107.04416
 30
0.0
 11
3169.373574
 21
2107.54416
 31
0.0
  0
LINE
  5
77B
  8
0
  6
DASHED
 10
3153.073574
 20
2107.54416
 30
0.0
 11
3166.373574
 21
2107.54416
 31
0.0
  0
LINE
  5
77C
  8
0
  6
DASHED
 10
3182.123574
 20
2107.04416
 30
0.0
 11
3182.873574
 21
2107.54416
 31
0.0
  0
LINE
  5
77D
  8
0
  6
DASHED
 10
3249.973574
 20
2102.04416
 30
0.0
 11
3249.973574
 21
2107.04416
 31
0.0
  0
LINE
  5
77E
  8
0
  6
DASHED
 10
3238.373574
 20
2102.04416
 30
0.0
 11
3238.373574
 21
2107.04416
 31
0.0
  0
LINE
  5
77F
  8
0
 10
3237.623574
 20
2127.44416
 30
0.0
 11
3237.623574
 21
2098.44416
 31
0.0
  0
LINE
  5
780
  8
0
 10
3253.723574
 20
2098.44416
 30
0.0
 11
3253.723574
 21
2110.762072
 31
0.0
  0
LINE
  5
781
  8
0
 10
3250.723574
 20
2098.44416
 30
0.0
 11
3250.723574
 21
2110.762072
 31
0.0
  0
LINE
  5
782
  8
0
 10
3267.423574
 20
2133.44416
 30
0.0
 11
3267.423574
 21
2098.44416
 31
0.0
  0
LINE
  5
783
  8
0
  6
DASHED
 10
3253.723574
 20
2101.54416
 30
0.0
 11
3267.423574
 21
2101.54416
 31
0.0
  0
LINE
  5
784
  8
0
 10
3267.423574
 20
2098.44416
 30
0.0
 11
3253.723574
 21
2098.44416
 31
0.0
  0
LINE
  5
785
  8
0
  6
DASHED
 10
3249.973574
 20
2102.04416
 30
0.0
 11
3250.723574
 21
2101.54416
 31
0.0
  0
LINE
  5
786
  8
0
  6
DASHED
 10
3238.373574
 20
2102.04416
 30
0.0
 11
3237.623574
 21
2101.54416
 31
0.0
  0
LINE
  5
787
  8
0
  6
DASHED
 10
3238.373574
 20
2102.04416
 30
0.0
 11
3249.973574
 21
2102.04416
 31
0.0
  0
LINE
  5
788
  8
0
  6
DASHED
 10
3237.623574
 20
2101.54416
 30
0.0
 11
3250.723574
 21
2101.54416
 31
0.0
  0
LINE
  5
789
  8
0
 10
3237.623574
 20
2098.44416
 30
0.0
 11
3250.723574
 21
2098.44416
 31
0.0
  0
LINE
  5
78A
  8
0
  6
DASHED
 10
3253.723574
 20
2107.54416
 30
0.0
 11
3267.423574
 21
2107.54416
 31
0.0
  0
ARC
  5
78B
  8
0
 10
3252.223574
 20
2120.24416
 30
0.0
 40
9.6
 50
278.989299
 51
261.010701
  0
LINE
  5
78C
  8
0
  6
DASHED
 10
3249.973574
 20
2107.04416
 30
0.0
 11
3250.723574
 21
2107.54416
 31
0.0
  0
LINE
  5
78D
  8
0
  6
DASHED
 10
3238.373574
 20
2107.04416
 30
0.0
 11
3237.623574
 21
2107.54416
 31
0.0
  0
LINE
  5
78E
  8
0
  6
DASHED
 10
3238.373574
 20
2107.04416
 30
0.0
 11
3249.973574
 21
2107.04416
 31
0.0
  0
LINE
  5
78F
  8
0
  6
DASHED
 10
3237.623574
 20
2107.54416
 30
0.0
 11
3250.723574
 21
2107.54416
 31
0.0
  0
LINE
  5
790
  8
0
 10
3153.073574
 20
2000.634815
 30
0.0
 11
3153.073574
 21
2075.634815
 31
0.0
  0
LINE
  5
791
  8
0
 10
3267.423574
 20
2000.634815
 30
0.0
 11
3267.423574
 21
2075.634815
 31
0.0
  0
LINE
  5
792
  8
0
  6
DASHED
 10
3261.823574
 20
2000.634815
 30
0.0
 11
3261.823574
 21
2075.634815
 31
0.0
  0
LINE
  5
793
  8
0
  6
DASHED
 10
3242.623574
 20
2000.634815
 30
0.0
 11
3242.623574
 21
2075.634815
 31
0.0
  0
LINE
  5
794
  8
0
  6
DASHED
 10
3177.473574
 20
2000.634815
 30
0.0
 11
3177.473574
 21
2075.634815
 31
0.0
  0
LINE
  5
795
  8
0
  6
DASHED
 10
3158.273574
 20
2000.634815
 30
0.0
 11
3158.273574
 21
2075.634815
 31
0.0
  0
LINE
  5
796
  8
0
  6
DASHED
 10
3158.748574
 20
2028.634815
 30
0.0
 11
3158.273574
 21
2028.634815
 31
0.0
  0
LINE
  5
797
  8
0
  6
DASHED
 10
3158.748574
 20
2047.634815
 30
0.0
 11
3158.273574
 21
2047.634815
 31
0.0
  0
LINE
  5
798
  8
0
  6
DASHED
 10
3158.748574
 20
2047.634815
 30
0.0
 11
3177.473574
 21
2047.634815
 31
0.0
  0
LINE
  5
799
  8
0
  6
DASHED
 10
3158.748574
 20
2028.634815
 30
0.0
 11
3177.473574
 21
2028.634815
 31
0.0
  0
LINE
  5
79A
  8
0
  6
DASHED
 10
3242.623574
 20
2028.634815
 30
0.0
 11
3261.823574
 21
2028.634815
 31
0.0
  0
LINE
  5
79B
  8
0
  6
DASHED
 10
3242.623574
 20
2047.634815
 30
0.0
 11
3261.823574
 21
2047.634815
 31
0.0
  0
LINE
  5
79C
  8
0
 10
3182.873574
 20
2000.634815
 30
0.0
 11
3182.873574
 21
2075.634815
 31
0.0
  0
LINE
  5
79D
  8
0
 10
3237.623574
 20
2000.634815
 30
0.0
 11
3237.623574
 21
2075.634815
 31
0.0
  0
LINE
  5
79E
  8
0
 10
3250.723574
 20
2075.634815
 30
0.0
 11
3250.723574
 21
2000.634815
 31
0.0
  0
LINE
  5
79F
  8
0
 10
3253.723574
 20
2075.634815
 30
0.0
 11
3253.723574
 21
2000.634815
 31
0.0
  0
LINE
  5
7A0
  8
0
 10
3166.373574
 20
2075.634815
 30
0.0
 11
3166.373574
 21
2000.634815
 31
0.0
  0
LINE
  5
7A1
  8
0
 10
3169.373574
 20
2075.634815
 30
0.0
 11
3169.373574
 21
2000.634815
 31
0.0
  0
LINE
  5
7B6
  8
0
  6
DASHED
 10
3267.423574
 20
2009.575859
 30
0.0
 11
3253.723574
 21
2009.575859
 31
0.0
  0
LINE
  5
7B7
  8
0
  6
DASHED
 10
3267.423574
 20
2003.69377
 30
0.0
 11
3253.723574
 21
2003.69377
 31
0.0
  0
LINE
  5
7B8
  8
0
  6
DASHED
 10
3267.423574
 20
2019.69377
 30
0.0
 11
3253.723574
 21
2019.69377
 31
0.0
  0
LINE
  5
7B9
  8
0
  6
DASHED
 10
3267.423574
 20
2025.575859
 30
0.0
 11
3253.723574
 21
2025.575859
 31
0.0
  0
LINE
  5
7BA
  8
0
  6
DASHED
 10
3182.873574
 20
2009.575859
 30
0.0
 11
3169.373574
 21
2009.575859
 31
0.0
  0
LINE
  5
7BB
  8
0
  6
DASHED
 10
3182.873574
 20
2019.69377
 30
0.0
 11
3169.373574
 21
2019.69377
 31
0.0
  0
LINE
  5
7BC
  8
0
  6
DASHED
 10
3182.873574
 20
2025.575859
 30
0.0
 11
3169.373574
 21
2025.575859
 31
0.0
  0
LINE
  5
7BD
  8
0
  6
DASHED
 10
3182.873574
 20
2003.69377
 30
0.0
 11
3169.373574
 21
2003.69377
 31
0.0
  0
LINE
  5
7BE
  8
0
  6
DASHED
 10
3166.373574
 20
2003.69377
 30
0.0
 11
3153.073574
 21
2003.69377
 31
0.0
  0
LINE
  5
7BF
  8
0
  6
DASHED
 10
3166.373574
 20
2009.575859
 30
0.0
 11
3153.073574
 21
2009.575859
 31
0.0
  0
LINE
  5
7C0
  8
0
  6
DASHED
 10
3166.373574
 20
2019.69377
 30
0.0
 11
3153.073574
 21
2019.69377
 31
0.0
  0
LINE
  5
7C1
  8
0
  6
DASHED
 10
3166.373574
 20
2025.575859
 30
0.0
 11
3153.073574
 21
2025.575859
 31
0.0
  0
LINE
  5
7C2
  8
0
  6
DASHED
 10
3250.723574
 20
2003.69377
 30
0.0
 11
3237.623574
 21
2003.69377
 31
0.0
  0
LINE
  5
7C3
  8
0
  6
DASHED
 10
3250.723574
 20
2009.575859
 30
0.0
 11
3237.623574
 21
2009.575859
 31
0.0
  0
LINE
  5
7C4
  8
0
  6
DASHED
 10
3250.723574
 20
2019.69377
 30
0.0
 11
3237.623574
 21
2019.69377
 31
0.0
  0
LINE
  5
7C5
  8
0
  6
DASHED
 10
3250.723574
 20
2025.575859
 30
0.0
 11
3237.623574
 21
2025.575859
 31
0.0
  0
LINE
  5
7C6
  8
0
  6
DASHED
 10
3250.723574
 20
2025.075859
 30
0.0
 11
3237.623574
 21
2025.075859
 31
0.0
  0
LINE
  5
7C7
  8
0
  6
DASHED
 10
3250.723574
 20
2020.19377
 30
0.0
 11
3237.623574
 21
2020.19377
 31
0.0
  0
LINE
  5
7C8
  8
0
  6
DASHED
 10
3250.723574
 20
2009.075859
 30
0.0
 11
3237.623574
 21
2009.075859
 31
0.0
  0
LINE
  5
7C9
  8
0
  6
DASHED
 10
3250.723574
 20
2004.19377
 30
0.0
 11
3237.623574
 21
2004.19377
 31
0.0
  0
LINE
  5
7CA
  8
0
  6
DASHED
 10
3182.873574
 20
2025.075859
 30
0.0
 11
3169.373574
 21
2025.075859
 31
0.0
  0
LINE
  5
7CB
  8
0
  6
DASHED
 10
3182.873574
 20
2020.19377
 30
0.0
 11
3169.373574
 21
2020.19377
 31
0.0
  0
LINE
  5
7CC
  8
0
  6
DASHED
 10
3182.873574
 20
2009.075859
 30
0.0
 11
3169.373574
 21
2009.075859
 31
0.0
  0
LINE
  5
7CD
  8
0
  6
DASHED
 10
3182.873574
 20
2004.19377
 30
0.0
 11
3169.373574
 21
2004.19377
 31
0.0
  0
LINE
  5
7CE
  8
0
  6
DASHED
 10
3250.723574
 20
2072.075859
 30
0.0
 11
3237.623574
 21
2072.075859
 31
0.0
  0
LINE
  5
7CF
  8
0
  6
DASHED
 10
3250.723574
 20
2067.19377
 30
0.0
 11
3237.623574
 21
2067.19377
 31
0.0
  0
LINE
  5
7D0
  8
0
  6
DASHED
 10
3250.723574
 20
2056.075859
 30
0.0
 11
3237.623574
 21
2056.075859
 31
0.0
  0
LINE
  5
7D1
  8
0
  6
DASHED
 10
3250.723574
 20
2051.19377
 30
0.0
 11
3237.623574
 21
2051.19377
 31
0.0
  0
LINE
  5
7D2
  8
0
  6
DASHED
 10
3250.723574
 20
2072.575859
 30
0.0
 11
3237.623574
 21
2072.575859
 31
0.0
  0
LINE
  5
7D3
  8
0
  6
DASHED
 10
3250.723574
 20
2066.69377
 30
0.0
 11
3237.623574
 21
2066.69377
 31
0.0
  0
LINE
  5
7D4
  8
0
  6
DASHED
 10
3250.723574
 20
2056.575859
 30
0.0
 11
3237.623574
 21
2056.575859
 31
0.0
  0
LINE
  5
7D5
  8
0
  6
DASHED
 10
3250.723574
 20
2050.69377
 30
0.0
 11
3237.623574
 21
2050.69377
 31
0.0
  0
LINE
  5
7D6
  8
0
  6
DASHED
 10
3267.423574
 20
2056.575859
 30
0.0
 11
3253.723574
 21
2056.575859
 31
0.0
  0
LINE
  5
7D7
  8
0
  6
DASHED
 10
3267.423574
 20
2050.69377
 30
0.0
 11
3253.723574
 21
2050.69377
 31
0.0
  0
LINE
  5
7D8
  8
0
  6
DASHED
 10
3267.423574
 20
2072.575859
 30
0.0
 11
3253.723574
 21
2072.575859
 31
0.0
  0
LINE
  5
7D9
  8
0
  6
DASHED
 10
3267.423574
 20
2066.69377
 30
0.0
 11
3253.723574
 21
2066.69377
 31
0.0
  0
LINE
  5
7DA
  8
0
  6
DASHED
 10
3166.373574
 20
2072.575859
 30
0.0
 11
3153.073574
 21
2072.575859
 31
0.0
  0
LINE
  5
7DB
  8
0
  6
DASHED
 10
3166.373574
 20
2066.69377
 30
0.0
 11
3153.073574
 21
2066.69377
 31
0.0
  0
LINE
  5
7DC
  8
0
  6
DASHED
 10
3166.373574
 20
2056.575859
 30
0.0
 11
3153.073574
 21
2056.575859
 31
0.0
  0
LINE
  5
7DD
  8
0
  6
DASHED
 10
3166.373574
 20
2050.69377
 30
0.0
 11
3153.073574
 21
2050.69377
 31
0.0
  0
LINE
  5
7DE
  8
0
  6
DASHED
 10
3182.873574
 20
2051.19377
 30
0.0
 11
3169.373574
 21
2051.19377
 31
0.0
  0
LINE
  5
7DF
  8
0
  6
DASHED
 10
3182.873574
 20
2056.075859
 30
0.0
 11
3169.373574
 21
2056.075859
 31
0.0
  0
LINE
  5
7E0
  8
0
  6
DASHED
 10
3182.873574
 20
2056.575859
 30
0.0
 11
3169.373574
 21
2056.575859
 31
0.0
  0
LINE
  5
7E1
  8
0
  6
DASHED
 10
3182.873574
 20
2050.69377
 30
0.0
 11
3169.373574
 21
2050.69377
 31
0.0
  0
LINE
  5
7E2
  8
0
  6
DASHED
 10
3182.873574
 20
2072.075859
 30
0.0
 11
3169.373574
 21
2072.075859
 31
0.0
  0
LINE
  5
7E3
  8
0
  6
DASHED
 10
3182.873574
 20
2067.19377
 30
0.0
 11
3169.373574
 21
2067.19377
 31
0.0
  0
LINE
  5
7E4
  8
0
  6
DASHED
 10
3182.873574
 20
2072.575859
 30
0.0
 11
3169.373574
 21
2072.575859
 31
0.0
  0
LINE
  5
7E5
  8
0
  6
DASHED
 10
3182.873574
 20
2066.69377
 30
0.0
 11
3169.373574
 21
2066.69377
 31
0.0
  0
DIMENSION
  5
7F8
  8
MATEN
  2
*D0
 10
3153.073574
 20
1993.825658
 30
0.0
 11
3181.661074
 21
1996.950658
 31
0.0
 12
-305.39104
 22
0.0
 32
0.0
 70
     0
 13
3210.248574
 23
2000.634815
 33
0.0
 14
3153.073574
 24
2000.634815
 34
0.0
1001
ACAD
1000
DSTYLE
1002
{
1070
    78
1070
     8
1070
   140
1040
3.0
1070
    74
1070
     0
1070
   172
1070
     1
1070
    73
1070
     0
1070
    77
1070
     1
1070
   147
1040
1.625
1070
    42
1040
0.625
1070
    44
1040
1.25
1070
    43
1040
3.75
1070
   271
1070
     2
1070
   141
1040
2.5
1070
   275
1070
     1
1070
    41
1040
2.0
1070
   273
1070
     8
1070
   274
1070
     4
1070
   143
1040
0.0394
1070
   171
1070
     4
1002
}
  0
LINE
  5
7F9
  8
0
 10
3434.844215
 20
2323.790459
 30
0.0
 11
3434.844215
 21
2298.790459
 31
0.0
  0
CIRCLE
  5
7FA
  8
0
 10
3416.844215
 20
2309.090459
 30
0.0
 40
6.0
  0
LINE
  5
7FB
  8
0
 10
3314.844215
 20
2323.790459
 30
0.0
 11
3314.844215
 21
2298.790459
 31
0.0
  0
CIRCLE
  5
7FC
  8
0
 10
3332.844215
 20
2309.090459
 30
0.0
 40
6.0
  0
ARC
  5
7FE
  8
0
 10
3417.194215
 20
2309.090459
 30
0.0
 40
9.6
 50
278.989299
 51
261.010701
  0
LINE
  5
7FF
  8
0
 10
3432.394215
 20
2322.290459
 30
0.0
 11
3432.394215
 21
2287.290459
 31
0.0
  0
ARC
  5
801
  8
0
 10
3332.844215
 20
2309.090459
 30
0.0
 40
9.6
 50
278.989299
 51
261.010701
  0
LINE
  5
802
  8
0
 10
3318.044215
 20
2322.290459
 30
0.0
 11
3318.044215
 21
2287.290459
 31
0.0
  0
LINE
  5
803
  8
0
 10
3314.844215
 20
2298.790459
 30
0.0
 11
3344.844215
 21
2298.790459
 31
0.0
  0
LINE
  5
804
  8
0
  6
DASHED
 10
3335.094215
 20
2290.890459
 30
0.0
 11
3344.844215
 21
2290.890459
 31
0.0
  0
LINE
  5
805
  8
0
  6
DASHED
 10
3335.094215
 20
2295.890459
 30
0.0
 11
3344.844215
 21
2295.890459
 31
0.0
  0
LINE
  5
806
  8
0
  6
DASHED
 10
3334.344215
 20
2296.390459
 30
0.0
 11
3344.844215
 21
2296.390459
 31
0.0
  0
LINE
  5
807
  8
0
  6
DASHED
 10
3334.344215
 20
2290.390459
 30
0.0
 11
3344.844215
 21
2290.390459
 31
0.0
  0
LINE
  5
808
  8
0
 10
3334.344215
 20
2287.290459
 30
0.0
 11
3344.844215
 21
2287.290459
 31
0.0
  0
LINE
  5
809
  8
0
  6
DASHED
 10
3335.094215
 20
2290.890459
 30
0.0
 11
3335.094215
 21
2295.890459
 31
0.0
  0
LINE
  5
80A
  8
0
  6
DASHED
 10
3335.094215
 20
2290.890459
 30
0.0
 11
3334.344215
 21
2290.390459
 31
0.0
  0
LINE
  5
80B
  8
0
  6
DASHED
 10
3335.094215
 20
2295.890459
 30
0.0
 11
3334.344215
 21
2296.390459
 31
0.0
  0
LINE
  5
80C
  8
0
 10
3334.344215
 20
2287.290459
 30
0.0
 11
3334.344215
 21
2299.60837
 31
0.0
  0
LINE
  5
80D
  8
0
 10
3331.344215
 20
2287.290459
 30
0.0
 11
3331.344215
 21
2299.60837
 31
0.0
  0
LINE
  5
80E
  8
0
  6
DASHED
 10
3318.044215
 20
2290.390459
 30
0.0
 11
3331.344215
 21
2290.390459
 31
0.0
  0
LINE
  5
80F
  8
0
  6
DASHED
 10
3318.044215
 20
2296.390459
 30
0.0
 11
3331.344215
 21
2296.390459
 31
0.0
  0
LINE
  5
810
  8
0
 10
3331.344215
 20
2287.290459
 30
0.0
 11
3318.044215
 21
2287.290459
 31
0.0
  0
LINE
  5
814
  8
0
  6
DASHED
 10
3418.694215
 20
2296.390459
 30
0.0
 11
3432.394215
 21
2296.390459
 31
0.0
  0
LINE
  5
815
  8
0
  6
DASHED
 10
3418.694215
 20
2290.390459
 30
0.0
 11
3432.394215
 21
2290.390459
 31
0.0
  0
LINE
  5
816
  8
0
 10
3432.394215
 20
2287.290459
 30
0.0
 11
3418.694215
 21
2287.290459
 31
0.0
  0
LINE
  5
817
  8
0
  6
DASHED
 10
3414.944215
 20
2290.890459
 30
0.0
 11
3414.944215
 21
2295.890459
 31
0.0
  0
LINE
  5
819
  8
0
  6
DASHED
 10
3414.944215
 20
2290.890459
 30
0.0
 11
3415.694215
 21
2290.390459
 31
0.0
  0
LINE
  5
81A
  8
0
  6
DASHED
 10
3414.944215
 20
2295.890459
 30
0.0
 11
3415.694215
 21
2296.390459
 31
0.0
  0
LINE
  5
81D
  8
0
  6
DASHED
 10
3404.844215
 20
2295.890459
 30
0.0
 11
3414.944215
 21
2295.890459
 31
0.0
  0
LINE
  5
81E
  8
0
  6
DASHED
 10
3404.844215
 20
2290.890459
 30
0.0
 11
3414.944215
 21
2290.890459
 31
0.0
  0
LINE
  5
821
  8
0
 10
3404.844215
 20
2287.290459
 30
0.0
 11
3415.694215
 21
2287.290459
 31
0.0
  0
LINE
  5
822
  8
0
 10
3418.694215
 20
2287.290459
 30
0.0
 11
3418.694215
 21
2299.60837
 31
0.0
  0
LINE
  5
823
  8
0
 10
3415.694215
 20
2287.290459
 30
0.0
 11
3415.694215
 21
2299.60837
 31
0.0
  0
LINE
  5
824
  8
0
 10
3314.844215
 20
2323.790459
 30
0.0
 11
3344.844215
 21
2323.790459
 31
0.0
  0
LINE
  5
826
  8
0
 10
3318.044215
 20
2322.290459
 30
0.0
 11
3344.844215
 21
2322.290459
 31
0.0
  0
LINE
  5
827
  8
0
 10
3377.389273
 20
1853.66036
 30
0.0
 11
3377.889273
 21
1854.16036
 31
0.0
  0
LINE
  5
828
  8
0
 10
3377.389273
 20
2114.66036
 30
0.0
 11
3377.889273
 21
2114.16036
 31
0.0
  0
LINE
  5
829
  8
0
 10
3314.789273
 20
1862.66036
 30
0.0
 11
3434.789273
 21
1862.66036
 31
0.0
  0
LINE
  5
82A
  8
0
 10
3314.789273
 20
2096.66036
 30
0.0
 11
3434.789273
 21
2096.66036
 31
0.0
  0
LINE
  5
82B
  8
0
 10
3317.614273
 20
2009.71036
 30
0.0
 11
3431.964273
 21
2009.71036
 31
0.0
  0
LINE
  5
82C
  8
0
 10
3317.614273
 20
1934.71036
 30
0.0
 11
3431.964273
 21
1934.71036
 31
0.0
  0
LINE
  5
82D
  8
0
 10
3381.029273
 20
2105.86036
 30
0.0
 11
3368.549273
 21
2105.86036
 31
0.0
  0
LINE
  5
82E
  8
0
 10
3381.029273
 20
2092.46036
 30
0.0
 11
3368.549273
 21
2092.46036
 31
0.0
  0
LINE
  5
82F
  8
0
 10
3384.789273
 20
2094.06036
 30
0.0
 11
3364.789273
 21
2094.06036
 31
0.0
  0
LINE
  5
830
  8
0
 10
3383.789273
 20
2099.66036
 30
0.0
 11
3365.789273
 21
2099.66036
 31
0.0
  0
LINE
  5
831
  8
0
 10
3365.789273
 20
1865.26036
 30
0.0
 11
3383.789273
 21
1865.26036
 31
0.0
  0
LINE
  5
832
  8
0
 10
3368.549273
 20
1866.86036
 30
0.0
 11
3381.029273
 21
1866.86036
 31
0.0
  0
LINE
  5
833
  8
0
 10
3364.789273
 20
1859.66036
 30
0.0
 11
3384.789273
 21
1859.66036
 31
0.0
  0
LINE
  5
834
  8
0
 10
3368.549273
 20
1853.46036
 30
0.0
 11
3381.029273
 21
1853.46036
 31
0.0
  0
LINE
  5
835
  8
0
 10
3366.789273
 20
1854.66036
 30
0.0
 11
3382.789273
 21
1854.66036
 31
0.0
  0
LINE
  5
836
  8
0
 10
3314.789273
 20
2104.66036
 30
0.0
 11
3434.789273
 21
2104.66036
 31
0.0
  0
LINE
  5
837
  8
0
  6
DASHED
 10
3369.939273
 20
1964.76036
 30
0.0
 11
3369.939273
 21
1979.66036
 31
0.0
  0
LINE
  5
838
  8
0
 10
3317.614273
 20
1934.71036
 30
0.0
 11
3317.614273
 21
2009.71036
 31
0.0
  0
LINE
  5
839
  8
0
 10
3347.414273
 20
1934.71036
 30
0.0
 11
3347.414273
 21
2009.71036
 31
0.0
  0
LINE
  5
83A
  8
0
  6
DASHED
 10
3342.014273
 20
1934.71036
 30
0.0
 11
3342.014273
 21
2009.71036
 31
0.0
  0
LINE
  5
83B
  8
0
  6
DASHED
 10
3322.814273
 20
1934.71036
 30
0.0
 11
3322.814273
 21
2009.71036
 31
0.0
  0
LINE
  5
83C
  8
0
 10
3333.914273
 20
2009.71036
 30
0.0
 11
3333.914273
 21
1934.71036
 31
0.0
  0
LINE
  5
83D
  8
0
 10
3330.914273
 20
2009.71036
 30
0.0
 11
3330.914273
 21
1934.71036
 31
0.0
  0
LINE
  5
83E
  8
0
 10
3371.689273
 20
2114.16036
 30
0.0
 11
3371.689273
 21
1992.71036
 31
0.0
  0
LINE
  5
83F
  8
0
 10
3369.939273
 20
2092.46036
 30
0.0
 11
3369.939273
 21
1992.71036
 31
0.0
  0
LINE
  5
840
  8
0
 10
3338.289273
 20
2105.66036
 30
0.0
 11
3338.289273
 21
1851.66036
 31
0.0
  0
LINE
  5
841
  8
0
 10
3326.289273
 20
2105.66036
 30
0.0
 11
3326.289273
 21
1851.66036
 31
0.0
  0
LINE
  5
842
  8
0
 10
3368.549273
 20
1853.46036
 30
0.0
 11
3368.549273
 21
1859.66036
 31
0.0
  0
LINE
  5
843
  8
0
  6
DASHED
 10
3371.689273
 20
1866.86036
 30
0.0
 11
3371.689273
 21
1853.46036
 31
0.0
  0
LINE
  5
844
  8
0
 10
3314.789273
 20
1862.66036
 30
0.0
 11
3314.789273
 21
1854.66036
 31
0.0
  0
LINE
  5
845
  8
0
 10
3338.289273
 20
1851.66036
 30
0.0
 11
3326.289273
 21
1851.66036
 31
0.0
  0
LINE
  5
846
  8
0
 10
3314.789273
 20
1854.66036
 30
0.0
 11
3366.789273
 21
1854.66036
 31
0.0
  0
LINE
  5
847
  8
0
 10
3371.689273
 20
1854.16036
 30
0.0
 11
3372.189273
 21
1853.66036
 31
0.0
  0
LINE
  5
848
  8
0
 10
3372.189273
 20
1853.66036
 30
0.0
 11
3377.389273
 21
1853.66036
 31
0.0
  0
ARC
  5
849
  8
0
 10
3364.789273
 20
1860.66036
 30
0.0
 40
1.0
 50
180.0
 51
270.0
  0
ARC
  5
84A
  8
0
 10
3365.789273
 20
1863.26036
 30
0.0
 40
2.0
 50
90.0
 51
180.0
  0
LINE
  5
84B
  8
0
 10
3363.789273
 20
1863.26036
 30
0.0
 11
3363.789273
 21
1860.66036
 31
0.0
  0
LINE
  5
84C
  8
0
 10
3368.549273
 20
1866.86036
 30
0.0
 11
3368.549273
 21
1865.26036
 31
0.0
  0
LINE
  5
84D
  8
0
  6
DASHED
 10
3347.414273
 20
1953.769316
 30
0.0
 11
3333.914273
 21
1953.769316
 31
0.0
  0
LINE
  5
84E
  8
0
  6
DASHED
 10
3347.414273
 20
1959.651404
 30
0.0
 11
3333.914273
 21
1959.651404
 31
0.0
  0
LINE
  5
84F
  8
0
  6
DASHED
 10
3347.414273
 20
1954.269316
 30
0.0
 11
3333.914273
 21
1954.269316
 31
0.0
  0
LINE
  5
850
  8
0
  6
DASHED
 10
3347.414273
 20
1959.151404
 30
0.0
 11
3333.914273
 21
1959.151404
 31
0.0
  0
LINE
  5
851
  8
0
  6
DASHED
 10
3347.414273
 20
1937.769316
 30
0.0
 11
3333.914273
 21
1937.769316
 31
0.0
  0
LINE
  5
852
  8
0
  6
DASHED
 10
3347.414273
 20
1943.651404
 30
0.0
 11
3333.914273
 21
1943.651404
 31
0.0
  0
LINE
  5
853
  8
0
  6
DASHED
 10
3347.414273
 20
1943.151404
 30
0.0
 11
3333.914273
 21
1943.151404
 31
0.0
  0
LINE
  5
854
  8
0
  6
DASHED
 10
3347.414273
 20
1938.269316
 30
0.0
 11
3333.914273
 21
1938.269316
 31
0.0
  0
LINE
  5
855
  8
0
  6
DASHED
 10
3324.289273
 20
1934.71036
 30
0.0
 11
3340.289273
 21
1934.71036
 31
0.0
  0
LINE
  5
856
  8
0
  6
DASHED
 10
3323.289273
 20
1962.71036
 30
0.0
 11
3342.014273
 21
1962.71036
 31
0.0
  0
LINE
  5
857
  8
0
  6
DASHED
 10
3323.289273
 20
1962.71036
 30
0.0
 11
3322.814273
 21
1962.71036
 31
0.0
  0
LINE
  5
858
  8
0
  6
DASHED
 10
3330.914273
 20
1937.769316
 30
0.0
 11
3317.614273
 21
1937.769316
 31
0.0
  0
LINE
  5
859
  8
0
  6
DASHED
 10
3330.914273
 20
1943.651404
 30
0.0
 11
3317.614273
 21
1943.651404
 31
0.0
  0
LINE
  5
85A
  8
0
  6
DASHED
 10
3330.914273
 20
1953.769316
 30
0.0
 11
3317.614273
 21
1953.769316
 31
0.0
  0
LINE
  5
85B
  8
0
  6
DASHED
 10
3330.914273
 20
1959.651404
 30
0.0
 11
3317.614273
 21
1959.651404
 31
0.0
  0
LINE
  5
85C
  8
0
  6
DASHED
 10
3324.289273
 20
2009.71036
 30
0.0
 11
3340.289273
 21
2009.71036
 31
0.0
  0
LINE
  5
85D
  8
0
  6
DASHED
 10
3347.414273
 20
1985.269316
 30
0.0
 11
3333.914273
 21
1985.269316
 31
0.0
  0
LINE
  5
85E
  8
0
  6
DASHED
 10
3347.414273
 20
1990.151404
 30
0.0
 11
3333.914273
 21
1990.151404
 31
0.0
  0
LINE
  5
85F
  8
0
  6
DASHED
 10
3347.414273
 20
1990.651404
 30
0.0
 11
3333.914273
 21
1990.651404
 31
0.0
  0
LINE
  5
860
  8
0
  6
DASHED
 10
3347.414273
 20
1984.769316
 30
0.0
 11
3333.914273
 21
1984.769316
 31
0.0
  0
LINE
  5
861
  8
0
  6
DASHED
 10
3347.414273
 20
2006.151404
 30
0.0
 11
3333.914273
 21
2006.151404
 31
0.0
  0
LINE
  5
862
  8
0
  6
DASHED
 10
3347.414273
 20
2001.269316
 30
0.0
 11
3333.914273
 21
2001.269316
 31
0.0
  0
LINE
  5
863
  8
0
  6
DASHED
 10
3347.414273
 20
2006.651404
 30
0.0
 11
3333.914273
 21
2006.651404
 31
0.0
  0
LINE
  5
864
  8
0
  6
DASHED
 10
3347.414273
 20
2000.769316
 30
0.0
 11
3333.914273
 21
2000.769316
 31
0.0
  0
LINE
  5
865
  8
0
  6
DASHED
 10
3323.289273
 20
1981.71036
 30
0.0
 11
3342.014273
 21
1981.71036
 31
0.0
  0
LINE
  5
866
  8
0
  6
DASHED
 10
3323.289273
 20
1981.71036
 30
0.0
 11
3322.814273
 21
1981.71036
 31
0.0
  0
LINE
  5
867
  8
0
  6
DASHED
 10
3330.914273
 20
2006.651404
 30
0.0
 11
3317.614273
 21
2006.651404
 31
0.0
  0
LINE
  5
868
  8
0
  6
DASHED
 10
3330.914273
 20
2000.769316
 30
0.0
 11
3317.614273
 21
2000.769316
 31
0.0
  0
LINE
  5
869
  8
0
  6
DASHED
 10
3330.914273
 20
1990.651404
 30
0.0
 11
3317.614273
 21
1990.651404
 31
0.0
  0
LINE
  5
86A
  8
0
  6
DASHED
 10
3330.914273
 20
1984.769316
 30
0.0
 11
3317.614273
 21
1984.769316
 31
0.0
  0
LINE
  5
86B
  8
0
 10
3326.289273
 20
2105.66036
 30
0.0
 11
3338.289273
 21
2105.66036
 31
0.0
  0
LINE
  5
86C
  8
0
 10
3314.789273
 20
2096.66036
 30
0.0
 11
3314.789273
 21
2104.66036
 31
0.0
  0
LINE
  5
86E
  8
0
  6
DASHED
 10
3371.689273
 20
2092.46036
 30
0.0
 11
3371.689273
 21
2105.86036
 31
0.0
  0
LINE
  5
86F
  8
0
 10
3368.549273
 20
2105.86036
 30
0.0
 11
3368.549273
 21
2099.66036
 31
0.0
  0
LINE
  5
870
  8
0
 10
3368.549273
 20
2092.46036
 30
0.0
 11
3368.549273
 21
2094.06036
 31
0.0
  0
ARC
  5
871
  8
0
 10
3365.789273
 20
2097.66036
 30
0.0
 40
2.0
 50
90.0
 51
180.0
  0
ARC
  5
872
  8
0
 10
3364.789273
 20
2095.06036
 30
0.0
 40
1.0
 50
180.0
 51
270.0
  0
LINE
  5
873
  8
0
 10
3363.789273
 20
2095.06036
 30
0.0
 11
3363.789273
 21
2097.66036
 31
0.0
  0
LINE
  5
874
  8
0
  6
DASHED
 10
3371.689273
 20
2092.46036
 30
0.0
 11
3371.689273
 21
2105.86036
 31
0.0
  0
LINE
  5
875
  8
0
 10
3372.189273
 20
2114.66036
 30
0.0
 11
3377.389273
 21
2114.66036
 31
0.0
  0
LINE
  5
876
  8
0
  6
DASHED
 10
3379.639273
 20
1964.76036
 30
0.0
 11
3379.639273
 21
1979.66036
 31
0.0
  0
LINE
  5
877
  8
0
 10
3431.964273
 20
1934.71036
 30
0.0
 11
3431.964273
 21
2009.71036
 31
0.0
  0
LINE
  5
878
  8
0
 10
3402.164273
 20
1934.71036
 30
0.0
 11
3402.164273
 21
2009.71036
 31
0.0
  0
LINE
  5
879
  8
0
  6
DASHED
 10
3426.364273
 20
1934.71036
 30
0.0
 11
3426.364273
 21
2009.71036
 31
0.0
  0
LINE
  5
87A
  8
0
  6
DASHED
 10
3407.164273
 20
1934.71036
 30
0.0
 11
3407.164273
 21
2009.71036
 31
0.0
  0
LINE
  5
87B
  8
0
 10
3418.264273
 20
2009.71036
 30
0.0
 11
3418.264273
 21
1934.71036
 31
0.0
  0
LINE
  5
87C
  8
0
 10
3415.264273
 20
2009.71036
 30
0.0
 11
3415.264273
 21
1934.71036
 31
0.0
  0
LINE
  5
87D
  8
0
 10
3377.889273
 20
2114.16036
 30
0.0
 11
3377.889273
 21
1992.71036
 31
0.0
  0
LINE
  5
87E
  8
0
 10
3379.639273
 20
2092.46036
 30
0.0
 11
3379.639273
 21
1992.71036
 31
0.0
  0
LINE
  5
87F
  8
0
 10
3423.289273
 20
2105.66036
 30
0.0
 11
3423.289273
 21
1851.66036
 31
0.0
  0
LINE
  5
880
  8
0
 10
3411.289273
 20
2105.66036
 30
0.0
 11
3411.289273
 21
1851.66036
 31
0.0
  0
LINE
  5
881
  8
0
 10
3381.029273
 20
1853.46036
 30
0.0
 11
3381.029273
 21
1859.66036
 31
0.0
  0
LINE
  5
882
  8
0
  6
DASHED
 10
3377.889273
 20
1866.86036
 30
0.0
 11
3377.889273
 21
1853.46036
 31
0.0
  0
LINE
  5
883
  8
0
 10
3434.789273
 20
1862.66036
 30
0.0
 11
3434.789273
 21
1854.66036
 31
0.0
  0
LINE
  5
884
  8
0
 10
3423.289273
 20
1851.66036
 30
0.0
 11
3411.289273
 21
1851.66036
 31
0.0
  0
LINE
  5
885
  8
0
 10
3434.789273
 20
1854.66036
 30
0.0
 11
3382.789273
 21
1854.66036
 31
0.0
  0
ARC
  5
886
  8
0
 10
3384.789273
 20
1860.66036
 30
0.0
 40
1.0
 50
270.0
 51
0.0
  0
ARC
  5
887
  8
0
 10
3383.789273
 20
1863.26036
 30
0.0
 40
2.0
 50
0.0
 51
90.0
  0
LINE
  5
888
  8
0
 10
3385.789273
 20
1863.26036
 30
0.0
 11
3385.789273
 21
1860.66036
 31
0.0
  0
LINE
  5
889
  8
0
 10
3381.029273
 20
1866.86036
 30
0.0
 11
3381.029273
 21
1865.26036
 31
0.0
  0
LINE
  5
88A
  8
0
  6
DASHED
 10
3431.964273
 20
1953.769316
 30
0.0
 11
3418.264273
 21
1953.769316
 31
0.0
  0
LINE
  5
88B
  8
0
  6
DASHED
 10
3431.964273
 20
1959.651404
 30
0.0
 11
3418.264273
 21
1959.651404
 31
0.0
  0
LINE
  5
88C
  8
0
  6
DASHED
 10
3409.289273
 20
1934.71036
 30
0.0
 11
3425.289273
 21
1934.71036
 31
0.0
  0
LINE
  5
88D
  8
0
  6
DASHED
 10
3431.964273
 20
1937.769316
 30
0.0
 11
3418.264273
 21
1937.769316
 31
0.0
  0
LINE
  5
88E
  8
0
  6
DASHED
 10
3431.964273
 20
1943.651404
 30
0.0
 11
3418.264273
 21
1943.651404
 31
0.0
  0
LINE
  5
88F
  8
0
  6
DASHED
 10
3407.164273
 20
1962.71036
 30
0.0
 11
3426.364273
 21
1962.71036
 31
0.0
  0
LINE
  5
890
  8
0
  6
DASHED
 10
3415.264273
 20
1937.769316
 30
0.0
 11
3402.164273
 21
1937.769316
 31
0.0
  0
LINE
  5
891
  8
0
  6
DASHED
 10
3415.264273
 20
1943.651404
 30
0.0
 11
3402.164273
 21
1943.651404
 31
0.0
  0
LINE
  5
892
  8
0
  6
DASHED
 10
3415.264273
 20
1953.769316
 30
0.0
 11
3402.164273
 21
1953.769316
 31
0.0
  0
LINE
  5
893
  8
0
  6
DASHED
 10
3415.264273
 20
1959.651404
 30
0.0
 11
3402.164273
 21
1959.651404
 31
0.0
  0
LINE
  5
894
  8
0
  6
DASHED
 10
3415.264273
 20
1938.269316
 30
0.0
 11
3402.164273
 21
1938.269316
 31
0.0
  0
LINE
  5
895
  8
0
  6
DASHED
 10
3415.264273
 20
1943.151404
 30
0.0
 11
3402.164273
 21
1943.151404
 31
0.0
  0
LINE
  5
896
  8
0
  6
DASHED
 10
3415.264273
 20
1954.269316
 30
0.0
 11
3402.164273
 21
1954.269316
 31
0.0
  0
LINE
  5
897
  8
0
  6
DASHED
 10
3415.264273
 20
1959.151404
 30
0.0
 11
3402.164273
 21
1959.151404
 31
0.0
  0
LINE
  5
898
  8
0
  6
DASHED
 10
3409.289273
 20
2009.71036
 30
0.0
 11
3425.289273
 21
2009.71036
 31
0.0
  0
LINE
  5
899
  8
0
  6
DASHED
 10
3431.964273
 20
1990.651404
 30
0.0
 11
3418.264273
 21
1990.651404
 31
0.0
  0
LINE
  5
89A
  8
0
  6
DASHED
 10
3431.964273
 20
1984.769316
 30
0.0
 11
3418.264273
 21
1984.769316
 31
0.0
  0
LINE
  5
89B
  8
0
  6
DASHED
 10
3431.964273
 20
2006.651404
 30
0.0
 11
3418.264273
 21
2006.651404
 31
0.0
  0
LINE
  5
89C
  8
0
  6
DASHED
 10
3431.964273
 20
2000.769316
 30
0.0
 11
3418.264273
 21
2000.769316
 31
0.0
  0
LINE
  5
89D
  8
0
  6
DASHED
 10
3407.164273
 20
1981.71036
 30
0.0
 11
3426.364273
 21
1981.71036
 31
0.0
  0
LINE
  5
89E
  8
0
  6
DASHED
 10
3415.264273
 20
2006.151404
 30
0.0
 11
3402.164273
 21
2006.151404
 31
0.0
  0
LINE
  5
89F
  8
0
  6
DASHED
 10
3415.264273
 20
2001.269316
 30
0.0
 11
3402.164273
 21
2001.269316
 31
0.0
  0
LINE
  5
8A0
  8
0
  6
DASHED
 10
3415.264273
 20
1990.151404
 30
0.0
 11
3402.164273
 21
1990.151404
 31
0.0
  0
LINE
  5
8A1
  8
0
  6
DASHED
 10
3415.264273
 20
1985.269316
 30
0.0
 11
3402.164273
 21
1985.269316
 31
0.0
  0
LINE
  5
8A2
  8
0
  6
DASHED
 10
3415.264273
 20
2006.651404
 30
0.0
 11
3402.164273
 21
2006.651404
 31
0.0
  0
LINE
  5
8A3
  8
0
  6
DASHED
 10
3415.264273
 20
2000.769316
 30
0.0
 11
3402.164273
 21
2000.769316
 31
0.0
  0
LINE
  5
8A4
  8
0
  6
DASHED
 10
3415.264273
 20
1990.651404
 30
0.0
 11
3402.164273
 21
1990.651404
 31
0.0
  0
LINE
  5
8A5
  8
0
  6
DASHED
 10
3415.264273
 20
1984.769316
 30
0.0
 11
3402.164273
 21
1984.769316
 31
0.0
  0
LINE
  5
8A6
  8
0
 10
3411.289273
 20
2105.66036
 30
0.0
 11
3423.289273
 21
2105.66036
 31
0.0
  0
LINE
  5
8A7
  8
0
  6
DASHED
 10
3377.889273
 20
2092.46036
 30
0.0
 11
3377.889273
 21
2105.86036
 31
0.0
  0
LINE
  5
8A8
  8
0
 10
3381.029273
 20
2105.86036
 30
0.0
 11
3381.029273
 21
2099.66036
 31
0.0
  0
LINE
  5
8A9
  8
0
 10
3381.029273
 20
2092.46036
 30
0.0
 11
3381.029273
 21
2094.06036
 31
0.0
  0
ARC
  5
8AA
  8
0
 10
3384.789273
 20
2095.06036
 30
0.0
 40
1.0
 50
270.0
 51
360.0
  0
LINE
  5
8AB
  8
0
 10
3385.789273
 20
2095.06036
 30
0.0
 11
3385.789273
 21
2097.66036
 31
0.0
  0
ARC
  5
8AC
  8
0
 10
3383.789273
 20
2097.66036
 30
0.0
 40
2.0
 50
360.0
 51
90.0
  0
LINE
  5
8AD
  8
0
  6
DASHED
 10
3377.889273
 20
2092.46036
 30
0.0
 11
3377.889273
 21
2105.86036
 31
0.0
  0
LINE
  5
8AE
  8
0
 10
3434.789273
 20
2096.66036
 30
0.0
 11
3434.789273
 21
2104.66036
 31
0.0
  0
LINE
  5
B3A
  8
0
 10
3401.587565
 20
2139.66036
 30
0.0
 11
3401.587565
 21
2138.66036
 31
0.0
  0
LINE
  5
B3B
  8
0
 10
3347.631405
 20
2139.66036
 30
0.0
 11
3401.587565
 21
2139.66036
 31
0.0
  0
LINE
  5
B3C
  8
0
 10
3347.631405
 20
2125.66036
 30
0.0
 11
3401.587565
 21
2125.66036
 31
0.0
  0
LINE
  5
B3E
  8
0
 10
3384.609485
 20
2125.66036
 30
0.0
 11
3384.609485
 21
2114.66036
 31
0.0
  0
LINE
  5
B3F
  8
0
 10
3347.631405
 20
2126.66036
 30
0.0
 11
3401.587565
 21
2126.66036
 31
0.0
  0
LINE
  5
B40
  8
0
 10
3347.631405
 20
2138.66036
 30
0.0
 11
3401.587565
 21
2138.66036
 31
0.0
  0
LINE
  5
B42
  8
0
 10
3386.578816
 20
2126.66036
 30
0.0
 11
3386.578816
 21
2125.66036
 31
0.0
  0
LINE
  5
B44
  8
0
 10
3400.587565
 20
2138.66036
 30
0.0
 11
3400.587565
 21
2126.66036
 31
0.0
  0
LINE
  5
B45
  8
0
 10
3401.587565
 20
2126.66036
 30
0.0
 11
3401.587565
 21
2125.66036
 31
0.0
  0
LINE
  5
B46
  8
0
 10
3347.631405
 20
2126.86036
 30
0.0
 11
3401.587565
 21
2126.86036
 31
0.0
  0
LINE
  5
B47
  8
0
 10
3347.631405
 20
2138.46036
 30
0.0
 11
3401.587565
 21
2138.46036
 31
0.0
  0
LINE
  5
B48
  8
0
 10
3401.587565
 20
2138.46036
 30
0.0
 11
3401.587565
 21
2126.86036
 31
0.0
  0
LINE
  5
B4C
  8
0
  6
DASHED
 10
3378.589273
 20
2139.86036
 30
0.0
 11
3378.589273
 21
2105.86036
 31
0.0
  0
LINE
  5
B4D
  8
0
  6
DASHED
 10
3370.989273
 20
2139.86036
 30
0.0
 11
3370.989273
 21
2105.86036
 31
0.0
  0
LINE
  5
B4E
  8
0
 10
3364.609485
 20
2114.66036
 30
0.0
 11
3384.609485
 21
2114.66036
 31
0.0
  0
LINE
  5
B4F
  8
0
 10
3370.989273
 20
2139.86036
 30
0.0
 11
3378.589273
 21
2139.86036
 31
0.0
  0
LINE
  5
B52
  8
0
 10
3371.844215
 20
2125.46036
 30
0.0
 11
3377.844215
 21
2125.46036
 31
0.0
  0
LINE
  5
B53
  8
0
 10
3385.578816
 20
2126.66036
 30
0.0
 11
3385.578816
 21
2126.86036
 31
0.0
  0
LINE
  5
B54
  8
0
 10
3362.640154
 20
2126.86036
 30
0.0
 11
3386.578816
 21
2126.86036
 31
0.0
  0
LINE
  5
B55
  8
0
 10
3386.578816
 20
2125.66036
 30
0.0
 11
3386.578816
 21
2126.66036
 31
0.0
  0
LINE
  5
B57
  8
0
 10
3362.640154
 20
2126.66036
 30
0.0
 11
3386.578816
 21
2126.66036
 31
0.0
  0
LINE
  5
B58
  8
0
 10
3363.109613
 20
2125.66036
 30
0.0
 11
3362.640154
 21
2125.66036
 31
0.0
  0
LINE
  5
B59
  8
0
 10
3363.109613
 20
2125.66036
 30
0.0
 11
3386.578816
 21
2125.66036
 31
0.0
  0
LINE
  5
B5A
  8
0
 10
3385.578816
 20
2138.46036
 30
0.0
 11
3385.578816
 21
2138.66036
 31
0.0
  0
LINE
  5
B5B
  8
0
 10
3362.640154
 20
2138.46036
 30
0.0
 11
3386.578816
 21
2138.46036
 31
0.0
  0
LINE
  5
B5C
  8
0
 10
3386.578816
 20
2138.66036
 30
0.0
 11
3386.578816
 21
2139.66036
 31
0.0
  0
LINE
  5
B5D
  8
0
 10
3362.640154
 20
2138.66036
 30
0.0
 11
3362.640154
 21
2139.66036
 31
0.0
  0
LINE
  5
B5E
  8
0
 10
3362.640154
 20
2138.66036
 30
0.0
 11
3386.578816
 21
2138.66036
 31
0.0
  0
LINE
  5
B5F
  8
0
 10
3380.844215
 20
2139.66036
 30
0.0
 11
3380.844215
 21
2144.66036
 31
0.0
  0
LINE
  5
B60
  8
0
 10
3368.844215
 20
2139.66036
 30
0.0
 11
3368.844215
 21
2144.66036
 31
0.0
  0
LINE
  5
B61
  8
0
 10
3363.109613
 20
2139.66036
 30
0.0
 11
3386.578816
 21
2139.66036
 31
0.0
  0
LINE
  5
B62
  8
0
 10
3363.109613
 20
2139.66036
 30
0.0
 11
3362.640154
 21
2139.66036
 31
0.0
  0
LINE
  5
B72
  8
0
 10
3344.844215
 20
2145.66036
 30
0.0
 11
3344.609613
 21
2145.66036
 31
0.0
  0
LINE
  5
B73
  8
0
 10
3344.609613
 20
2145.66036
 30
0.0
 11
3404.607832
 21
2145.66036
 31
0.0
  0
LINE
  5
B74
  8
0
  6
DASHED
 10
3371.844215
 20
2125.46036
 30
0.0
 11
3371.844215
 21
2204.66036
 31
0.0
  0
LINE
  5
B75
  8
0
  6
DASHED
 10
3377.844215
 20
2125.46036
 30
0.0
 11
3377.844215
 21
2204.66036
 31
0.0
  0
LINE
  5
B76
  8
0
  6
DASHED
 10
3348.109613
 20
2151.66036
 30
0.0
 11
3348.109613
 21
2104.66036
 31
0.0
  0
LINE
  5
B77
  8
0
  6
DASHED
 10
3354.109613
 20
2151.66036
 30
0.0
 11
3354.109613
 21
2104.66036
 31
0.0
  0
LINE
  5
B78
  8
0
  6
DASHED
 10
3395.107832
 20
2151.66036
 30
0.0
 11
3395.107832
 21
2138.46036
 31
0.0
  0
LINE
  5
B79
  8
0
  6
DASHED
 10
3401.107832
 20
2151.66036
 30
0.0
 11
3401.107832
 21
2138.46036
 31
0.0
  0
LINE
  5
B7D
  8
0
 10
3344.609613
 20
2145.66036
 30
0.0
 11
3344.609613
 21
2151.66036
 31
0.0
  0
LINE
  5
B7E
  8
0
 10
3344.609613
 20
2151.66036
 30
0.0
 11
3404.607832
 21
2151.66036
 31
0.0
  0
LINE
  5
B7F
  8
0
 10
3404.607832
 20
2151.66036
 30
0.0
 11
3404.607832
 21
2145.66036
 31
0.0
  0
LINE
  5
B80
  8
0
 10
3344.609613
 20
2151.66036
 30
0.0
 11
3344.609613
 21
2201.66036
 31
0.0
  0
LINE
  5
B81
  8
0
 10
3404.607832
 20
2151.66036
 30
0.0
 11
3404.607832
 21
2201.66036
 31
0.0
  0
LINE
  5
B82
  8
0
 10
3404.607832
 20
2201.66036
 30
0.0
 11
3344.609613
 21
2201.66036
 31
0.0
  0
LINE
  5
B83
  8
0
 10
3368.844215
 20
2144.66036
 30
0.0
 11
3380.844215
 21
2144.66036
 31
0.0
  0
LINE
  5
B9D
  8
0
 10
3371.844215
 20
2204.66036
 30
0.0
 11
3377.844215
 21
2204.66036
 31
0.0
  0
LINE
  5
B9E
  8
0
 10
3367.290153
 20
1964.71036
 30
0.0
 11
3382.288393
 21
1964.71036
 31
0.0
  0
LINE
  5
B9F
  8
0
 10
3349.790153
 20
1992.71036
 30
0.0
 11
3399.788393
 21
1992.71036
 31
0.0
  0
LINE
  5
BA0
  8
0
  6
ACAD_ISO02W100
 10
3368.909273
 20
1979.71036
 30
0.0
 11
3368.909273
 21
1992.71036
 31
0.0
  0
LINE
  5
BA1
  8
0
  6
ACAD_ISO02W100
 10
3380.669273
 20
1979.71036
 30
0.0
 11
3380.669273
 21
1992.71036
 31
0.0
  0
LINE
  5
BA2
  8
0
 10
3368.103195
 20
1979.71036
 30
0.0
 11
3383.101434
 21
1979.71036
 31
0.0
  0
LINE
  5
BA3
  8
0
 10
3368.103195
 20
1964.71036
 30
0.0
 11
3383.101434
 21
1964.71036
 31
0.0
  0
LINE
  5
BA4
  8
0
  6
ACAD_ISO02W100
 10
3370.222315
 20
1964.71036
 30
0.0
 11
3370.222315
 21
1979.71036
 31
0.0
  0
LINE
  5
BA5
  8
0
  6
ACAD_ISO02W100
 10
3380.982315
 20
1964.71036
 30
0.0
 11
3380.982315
 21
1979.71036
 31
0.0
  0
LINE
  5
BA6
  8
0
  6
ACAD_ISO02W100
 10
3379.462315
 20
1964.71036
 30
0.0
 11
3379.462315
 21
1979.71036
 31
0.0
  0
LINE
  5
BA7
  8
0
  6
ACAD_ISO02W100
 10
3371.742315
 20
1964.71036
 30
0.0
 11
3371.742315
 21
1979.71036
 31
0.0
  0
LINE
  5
BA8
  8
0
 10
3383.101434
 20
1964.71036
 30
0.0
 11
3383.101434
 21
1979.71036
 31
0.0
  0
LINE
  5
BA9
  8
0
 10
3368.103195
 20
1964.71036
 30
0.0
 11
3368.103195
 21
1979.71036
 31
0.0
  0
LINE
  5
BAA
  8
0
 10
3349.790153
 20
1963.71036
 30
0.0
 11
3399.788393
 21
1963.71036
 31
0.0
  0
LINE
  5
BAB
  8
0
 10
3399.788393
 20
1956.71036
 30
0.0
 11
3349.790153
 21
1956.71036
 31
0.0
  0
LINE
  5
BAC
  8
0
  6
ACAD_ISO02W100
 10
3358.790153
 20
1964.71036
 30
0.0
 11
3358.790153
 21
1982.21036
 31
0.0
  0
LINE
  5
BAD
  8
0
  6
ACAD_ISO02W100
 10
3363.790153
 20
1964.71036
 30
0.0
 11
3363.790153
 21
1982.21036
 31
0.0
  0
LINE
  5
BAE
  8
0
  6
ACAD_ISO02W100
 10
3390.788363
 20
1963.71036
 30
0.0
 11
3390.788363
 21
1956.71036
 31
0.0
  0
LINE
  5
BAF
  8
0
  6
ACAD_ISO02W100
 10
3385.788363
 20
1963.71036
 30
0.0
 11
3385.788363
 21
1956.71036
 31
0.0
  0
LINE
  5
BB0
  8
0
  6
ACAD_ISO02W100
 10
3363.790153
 20
1963.71036
 30
0.0
 11
3363.790153
 21
1956.71036
 31
0.0
  0
LINE
  5
BB1
  8
0
  6
ACAD_ISO02W100
 10
3358.790153
 20
1963.71036
 30
0.0
 11
3358.790153
 21
1956.71036
 31
0.0
  0
LINE
  5
BB2
  8
0
  6
ACAD_ISO02W100
 10
3385.788363
 20
1982.204418
 30
0.0
 11
3388.27909
 21
1984.200217
 31
0.0
  0
LINE
  5
BB3
  8
0
  6
ACAD_ISO02W100
 10
3390.788348
 20
1982.195979
 30
0.0
 11
3388.27909
 21
1984.200217
 31
0.0
  0
LINE
  5
BB4
  8
0
  6
ACAD_ISO02W100
 10
3363.790153
 20
1982.21036
 30
0.0
 11
3361.290153
 21
1984.21036
 31
0.0
  0
LINE
  5
BB5
  8
0
  6
ACAD_ISO02W100
 10
3358.790153
 20
1982.21036
 30
0.0
 11
3361.290153
 21
1984.21036
 31
0.0
  0
LINE
  5
BB6
  8
0
  6
ACAD_ISO02W100
 10
3363.790153
 20
1982.21036
 30
0.0
 11
3358.790153
 21
1982.21036
 31
0.0
  0
LINE
  5
BB7
  8
0
  6
ACAD_ISO02W100
 10
3368.909273
 20
1963.71036
 30
0.0
 11
3368.909273
 21
1956.71036
 31
0.0
  0
LINE
  5
BB8
  8
0
  6
ACAD_ISO02W100
 10
3380.669273
 20
1963.71036
 30
0.0
 11
3380.669273
 21
1956.71036
 31
0.0
  0
LINE
  5
BB9
  8
0
 10
3399.788393
 20
1964.71036
 30
0.0
 11
3349.790153
 21
1964.71036
 31
0.0
  0
LINE
  5
BBA
  8
0
 10
3399.788393
 20
1992.71036
 30
0.0
 11
3399.788393
 21
1964.71036
 31
0.0
  0
LINE
  5
BBB
  8
0
 10
3349.790153
 20
1992.71036
 30
0.0
 11
3349.790153
 21
1964.71036
 31
0.0
  0
LINE
  5
BBC
  8
0
 10
3349.790153
 20
1956.71036
 30
0.0
 11
3349.790153
 21
1963.71036
 31
0.0
  0
LINE
  5
BBD
  8
0
 10
3399.788393
 20
1956.71036
 30
0.0
 11
3399.788393
 21
1963.71036
 31
0.0
  0
CIRCLE
  5
BBE
  8
0
 10
3354.290153
 20
1972.21036
 30
0.0
 40
2.5
  0
CIRCLE
  5
BBF
  8
0
 10
3395.294698
 20
1972.192629
 30
0.0
 40
2.5
  0
LINE
  5
BC0
  8
0
 10
3366.477111
 20
1979.71036
 30
0.0
 11
3383.101434
 21
1979.71036
 31
0.0
  0
LINE
  5
BC1
  8
0
 10
3383.101434
 20
1979.71036
 30
0.0
 11
3383.101434
 21
1964.71036
 31
0.0
  0
LINE
  5
BC2
  8
0
 10
3366.477111
 20
1979.71036
 30
0.0
 11
3366.477111
 21
1964.71036
 31
0.0
  0
LINE
  5
BC3
  8
0
  6
ACAD_ISO02W100
 10
3385.788363
 20
1964.71036
 30
0.0
 11
3385.788363
 21
1982.204418
 31
0.0
  0
LINE
  5
BC4
  8
0
  6
ACAD_ISO02W100
 10
3386.588361
 20
1964.70901
 30
0.0
 11
3386.588361
 21
1982.84545
 31
0.0
  0
LINE
  5
BC5
  8
0
  6
ACAD_ISO02W100
 10
3389.988364
 20
1964.71171
 30
0.0
 11
3389.988364
 21
1982.834957
 31
0.0
  0
LINE
  5
BC6
  8
0
  6
ACAD_ISO02W100
 10
3390.788363
 20
1964.71036
 30
0.0
 11
3390.788363
 21
1982.204418
 31
0.0
  0
LINE
  5
BC7
  8
0
  6
ACAD_ISO02W100
 10
3385.817887
 20
1982.204418
 30
0.0
 11
3385.788363
 21
1982.204418
 31
0.0
  0
LINE
  5
BC8
  8
0
  6
ACAD_ISO02W100
 10
3385.788363
 20
1982.204418
 30
0.0
 11
3390.788363
 21
1982.204418
 31
0.0
  0
LINE
  5
BC9
  8
0
  6
ACAD_ISO02W100
 10
3359.590153
 20
1964.71036
 30
0.0
 11
3359.590153
 21
1982.85036
 31
0.0
  0
LINE
  5
BCA
  8
0
  6
ACAD_ISO02W100
 10
3362.990153
 20
1964.71036
 30
0.0
 11
3362.990153
 21
1982.85036
 31
0.0
  0
LINE
  5
BCB
  8
0
 10
3399.788393
 20
1964.71036
 30
0.0
 11
3399.788393
 21
1963.71036
 31
0.0
  0
LINE
  5
BCC
  8
0
 10
3379.639273
 20
1956.71036
 30
0.0
 11
3379.639273
 21
1866.86036
 31
0.0
  0
LINE
  5
BCD
  8
0
 10
3377.889273
 20
1956.71036
 30
0.0
 11
3377.889273
 21
1854.16036
 31
0.0
  0
LINE
  5
BCE
  8
0
 10
3371.689273
 20
1956.71036
 30
0.0
 11
3371.689273
 21
1854.16036
 31
0.0
  0
LINE
  5
BCF
  8
0
 10
3369.939273
 20
1956.71036
 30
0.0
 11
3369.939273
 21
1866.86036
 31
0.0
  0
CIRCLE
  5
BD0
  8
0
 10
3189.749454
 20
2038.134815
 30
0.0
 40
2.5
  0
CIRCLE
  5
BD1
  8
0
 10
3230.753999
 20
2038.117084
 30
0.0
 40
2.5
  0
LINE
  5
E57
  8
0
 10
2735.895824
 20
2376.005797
 30
0.0
 11
2735.895824
 21
2375.005797
 31
0.0
  0
LINE
  5
E5B
  8
0
 62
     2
 10
2318.159573
 20
2177.555797
 30
0.0
 11
2208.159573
 21
1980.555797
 31
0.0
  0
LINE
  5
E5C
  8
0
 10
2627.395824
 20
2125.005797
 30
0.0
 11
2679.395824
 21
2125.005797
 31
0.0
  0
LINE
  5
E5D
  8
0
 10
2627.395824
 20
2133.005797
 30
0.0
 11
2747.395824
 21
2133.005797
 31
0.0
  0
LINE
  5
E5E
  8
0
 10
2627.395824
 20
2133.005797
 30
0.0
 11
2627.395824
 21
2125.005797
 31
0.0
  0
LINE
  5
E5F
  8
0
 10
2650.895824
 20
2122.005797
 30
0.0
 11
2638.895824
 21
2122.005797
 31
0.0
  0
LINE
  5
E60
  8
0
 62
     2
 10
2208.159573
 20
1908.555797
 30
0.0
 11
2418.159573
 21
1908.555797
 31
0.0
  0
CIRCLE
  5
E64
  8
0
 62
     2
 10
2230.659573
 20
1913.735797
 30
0.0
 40
4.33
  0
CIRCLE
  5
E65
  8
0
 62
     2
 10
2230.659573
 20
1971.375797
 30
0.0
 40
4.33
  0
CIRCLE
  5
E68
  8
0
 62
     2
 10
2395.659573
 20
1913.735797
 30
0.0
 40
4.33
  0
CIRCLE
  5
E69
  8
0
 62
     2
 10
2395.659573
 20
1971.375797
 30
0.0
 40
4.33
  0
LINE
  5
E6A
  8
0
 10
2747.395824
 20
2125.005797
 30
0.0
 11
2695.395824
 21
2125.005797
 31
0.0
  0
LINE
  5
E6B
  8
0
 10
2678.395824
 20
2135.605797
 30
0.0
 11
2696.395824
 21
2135.605797
 31
0.0
  0
LINE
  5
E6C
  8
0
 10
2681.155824
 20
2137.205797
 30
0.0
 11
2693.635824
 21
2137.205797
 31
0.0
  0
LINE
  5
E6D
  8
0
  6
DASHED
 10
2677.395824
 20
2130.005797
 30
0.0
 11
2697.395824
 21
2130.005797
 31
0.0
  0
LINE
  5
E6E
  8
0
 10
2681.155824
 20
2123.805797
 30
0.0
 11
2693.635824
 21
2123.805797
 31
0.0
  0
LINE
  5
E6F
  8
0
 10
2679.395824
 20
2125.005797
 30
0.0
 11
2695.395824
 21
2125.005797
 31
0.0
  0
LINE
  5
E70
  8
0
 10
2684.795824
 20
2124.005797
 30
0.0
 11
2689.995824
 21
2124.005797
 31
0.0
  0
LINE
  5
E71
  8
0
  6
DASHED
 10
2681.155824
 20
2123.805797
 30
0.0
 11
2681.155824
 21
2130.005797
 31
0.0
  0
LINE
  5
E72
  8
0
  6
DASHED
 10
2684.295824
 20
2137.205797
 30
0.0
 11
2684.295824
 21
2123.805797
 31
0.0
  0
LINE
  5
E73
  8
0
 10
2684.295824
 20
2124.505797
 30
0.0
 11
2684.795824
 21
2124.005797
 31
0.0
  0
ARC
  5
E74
  8
0
  6
DASHED
 10
2677.395824
 20
2131.005797
 30
0.0
 40
1.0
 50
180.0
 51
270.0
  0
ARC
  5
E75
  8
0
 10
2678.395824
 20
2133.605797
 30
0.0
 40
2.0
 50
90.0
 51
180.0
  0
LINE
  5
E76
  8
0
  6
DASHED
 10
2676.395824
 20
2133.605797
 30
0.0
 11
2676.395824
 21
2131.005797
 31
0.0
  0
LINE
  5
E77
  8
0
 10
2681.155824
 20
2137.205797
 30
0.0
 11
2681.155824
 21
2135.605797
 31
0.0
  0
LINE
  5
E78
  8
0
 10
2689.995824
 20
2124.005797
 30
0.0
 11
2690.495824
 21
2124.505797
 31
0.0
  0
LINE
  5
E79
  8
0
  6
DASHED
 10
2693.635824
 20
2123.805797
 30
0.0
 11
2693.635824
 21
2130.005797
 31
0.0
  0
LINE
  5
E7A
  8
0
  6
DASHED
 10
2690.495824
 20
2137.205797
 30
0.0
 11
2690.495824
 21
2123.805797
 31
0.0
  0
ARC
  5
E7B
  8
0
  6
DASHED
 10
2697.395824
 20
2131.005797
 30
0.0
 40
1.0
 50
270.0
 51
0.0
  0
ARC
  5
E7C
  8
0
 10
2696.395824
 20
2133.605797
 30
0.0
 40
2.0
 50
0.0
 51
90.0
  0
LINE
  5
E7D
  8
0
  6
DASHED
 10
2698.395824
 20
2133.605797
 30
0.0
 11
2698.395824
 21
2131.005797
 31
0.0
  0
LINE
  5
E7E
  8
0
 10
2693.635824
 20
2137.205797
 30
0.0
 11
2693.635824
 21
2135.605797
 31
0.0
  0
LINE
  5
E7F
  8
0
 10
2747.395824
 20
2133.005797
 30
0.0
 11
2747.395824
 21
2125.005797
 31
0.0
  0
LINE
  5
E80
  8
0
 10
2735.895824
 20
2122.005797
 30
0.0
 11
2723.895824
 21
2122.005797
 31
0.0
  0
LINE
  5
E83
  8
0
 10
2627.395824
 20
2367.005797
 30
0.0
 11
2747.395824
 21
2367.005797
 31
0.0
  0
LINE
  5
E84
  8
0
 10
2627.395824
 20
2375.005797
 30
0.0
 11
2747.395824
 21
2375.005797
 31
0.0
  0
LINE
  5
E9C
  8
0
  6
DASHED
 10
2630.220824
 20
2205.055797
 30
0.0
 11
2630.220824
 21
2280.055797
 31
0.0
  0
LINE
  5
EB0
  8
0
 10
2627.395824
 20
2367.005797
 30
0.0
 11
2627.395824
 21
2375.005797
 31
0.0
  0
LINE
  5
ED3
  8
0
 10
2380.784573
 20
2210.555797
 30
0.0
 11
2380.784573
 21
2284.555797
 31
0.0
  0
CIRCLE
  5
ED5
  8
0
 62
     2
 10
2413.159573
 20
2307.555797
 30
0.0
 40
3.0
  0
LINE
  5
ED6
  8
0
 62
     2
 10
2318.159573
 20
2317.555797
 30
0.0
 11
2318.159573
 21
2177.555797
 31
0.0
  0
LINE
  5
ED7
  8
0
  6
DASHED
 10
2744.570824
 20
2205.055797
 30
0.0
 11
2744.570824
 21
2280.055797
 31
0.0
  0
LINE
  5
F2C
  8
0
 10
2335.784573
 20
2206.058611
 30
0.0
 11
2370.784573
 21
2206.058611
 31
0.0
  0
LINE
  5
F2D
  8
0
 10
2335.784573
 20
2281.058611
 30
0.0
 11
2370.784573
 21
2281.058611
 31
0.0
  0
LINE
  5
F2E
  8
0
  6
DASHED
 10
2339.384573
 20
2206.058611
 30
0.0
 11
2339.384573
 21
2281.058611
 31
0.0
  0
LINE
  5
F2F
  8
0
  6
DASHED
 10
2358.584573
 20
2206.058611
 30
0.0
 11
2358.584573
 21
2281.058611
 31
0.0
  0
LINE
  5
F30
  8
0
 10
2370.784573
 20
2206.058611
 30
0.0
 11
2370.784573
 21
2281.058611
 31
0.0
  0
ARC
  5
F31
  8
0
 10
2364.625617
 20
2259.058611
 30
0.0
 40
2.441044
 50
0.0
 51
270.0
  0
CIRCLE
  5
F32
  8
0
 10
2364.625617
 20
2259.058611
 30
0.0
 40
2.941044
  0
CIRCLE
  5
F34
  8
0
 10
2364.625617
 20
2275.058611
 30
0.0
 40
2.941044
  0
ARC
  5
F35
  8
0
 10
2364.625617
 20
2275.058611
 30
0.0
 40
2.441044
 50
270.0
 51
180.0
  0
ARC
  5
F3A
  8
0
 10
2364.625617
 20
2212.058611
 30
0.0
 40
2.441044
 50
180.0
 51
90.0
  0
CIRCLE
  5
F3B
  8
0
 10
2364.625617
 20
2212.058611
 30
0.0
 40
2.941044
  0
ARC
  5
F3C
  8
0
 10
2364.625617
 20
2228.058611
 30
0.0
 40
2.441044
 50
90.0
 51
0.0
  0
CIRCLE
  5
F3D
  8
0
 10
2364.625617
 20
2228.058611
 30
0.0
 40
2.941044
  0
LINE
  5
F3F
  8
0
 10
2335.784573
 20
2206.058611
 30
0.0
 11
2335.784573
 21
2281.058611
 31
0.0
  0
CIRCLE
  5
F42
  8
0
 62
     2
 10
2413.159573
 20
2187.555797
 30
0.0
 40
3.0
  0
CIRCLE
  5
F43
  8
0
 10
2388.784573
 20
2192.555797
 30
0.0
 40
3.0
  0
CIRCLE
  5
F44
  8
0
 10
2388.784573
 20
2302.555797
 30
0.0
 40
3.0
  0
CIRCLE
  5
F45
  8
0
 62
     2
 10
2413.159573
 20
2247.555797
 30
0.0
 40
3.0
  0
LINE
  5
F4A
  8
0
 10
2693.635824
 20
2362.805797
 30
0.0
 11
2681.155824
 21
2362.805797
 31
0.0
  0
LINE
  5
F4B
  8
0
 10
2697.395824
 20
2364.405797
 30
0.0
 11
2677.395824
 21
2364.405797
 31
0.0
  0
LINE
  5
F4C
  8
0
  6
DASHED
 10
2696.395824
 20
2370.005797
 30
0.0
 11
2678.395824
 21
2370.005797
 31
0.0
  0
LINE
  5
F4D
  8
0
  6
DASHED
 10
2684.295824
 20
2362.805797
 30
0.0
 11
2684.295824
 21
2376.205797
 31
0.0
  0
LINE
  5
F4E
  8
0
  6
DASHED
 10
2681.155824
 20
2376.205797
 30
0.0
 11
2681.155824
 21
2370.005797
 31
0.0
  0
LINE
  5
F4F
  8
0
 10
2681.155824
 20
2362.805797
 30
0.0
 11
2681.155824
 21
2364.405797
 31
0.0
  0
ARC
  5
F50
  8
0
  6
DASHED
 10
2678.395824
 20
2368.005797
 30
0.0
 40
2.0
 50
90.0
 51
180.0
  0
ARC
  5
F51
  8
0
 10
2677.395824
 20
2365.405797
 30
0.0
 40
1.0
 50
180.0
 51
270.0
  0
LINE
  5
F52
  8
0
 10
2676.395824
 20
2365.405797
 30
0.0
 11
2676.395824
 21
2368.005797
 31
0.0
  0
LINE
  5
F53
  8
0
  6
DASHED
 10
2684.295824
 20
2362.805797
 30
0.0
 11
2684.295824
 21
2376.205797
 31
0.0
  0
LINE
  5
F54
  8
0
  6
DASHED
 10
2690.495824
 20
2362.805797
 30
0.0
 11
2690.495824
 21
2376.205797
 31
0.0
  0
LINE
  5
F55
  8
0
  6
DASHED
 10
2693.635824
 20
2376.205797
 30
0.0
 11
2693.635824
 21
2370.005797
 31
0.0
  0
LINE
  5
F56
  8
0
 10
2693.635824
 20
2362.805797
 30
0.0
 11
2693.635824
 21
2364.405797
 31
0.0
  0
ARC
  5
F57
  8
0
 10
2697.395824
 20
2365.405797
 30
0.0
 40
1.0
 50
270.0
 51
360.0
  0
LINE
  5
F58
  8
0
 10
2698.395824
 20
2365.405797
 30
0.0
 11
2698.395824
 21
2368.005797
 31
0.0
  0
ARC
  5
F59
  8
0
  6
DASHED
 10
2696.395824
 20
2368.005797
 30
0.0
 40
2.0
 50
360.0
 51
90.0
  0
LINE
  5
F5A
  8
0
  6
DASHED
 10
2690.495824
 20
2362.805797
 30
0.0
 11
2690.495824
 21
2376.205797
 31
0.0
  0
LINE
  5
F5B
  8
0
 10
2747.395824
 20
2367.005797
 30
0.0
 11
2747.395824
 21
2375.005797
 31
0.0
  0
LINE
  5
F5C
  8
0
 10
2723.895824
 20
2376.005797
 30
0.0
 11
2735.895824
 21
2376.005797
 31
0.0
  0
LINE
  5
F77
  8
0
 10
2627.395824
 20
2172.555797
 30
0.0
 11
2747.395824
 21
2172.555797
 31
0.0
  0
LINE
  5
F7B
  8
0
  6
DASHED
 10
2630.220824
 20
2280.055797
 30
0.0
 11
2744.570824
 21
2280.055797
 31
0.0
  0
LINE
  5
F7C
  8
0
  6
DASHED
 10
2630.220824
 20
2205.055797
 30
0.0
 11
2744.570824
 21
2205.055797
 31
0.0
  0
LINE
  5
F82
  8
0
 62
     2
 10
2504.75519
 20
2317.555797
 30
0.0
 11
2504.75519
 21
1908.555797
 31
0.0
  0
LINE
  5
F83
  8
0
 62
     2
 10
2973.361875
 20
2317.555797
 30
0.0
 11
2973.361875
 21
1908.555797
 31
0.0
  0
LINE
  5
F86
  8
0
 62
     2
 10
2510.75519
 20
2317.555797
 30
0.0
 11
2510.75519
 21
1908.555797
 31
0.0
  0
LINE
  5
F87
  8
0
 62
     2
 10
2967.361875
 20
2317.555797
 30
0.0
 11
2967.361875
 21
1908.555797
 31
0.0
  0
LINE
  5
F8D
  8
0
 10
2510.75519
 20
2310.555797
 30
0.0
 11
2627.395824
 21
2310.555797
 31
0.0
  0
LINE
  5
F8E
  8
0
 10
2510.75519
 20
2294.555797
 30
0.0
 11
2627.395824
 21
2294.555797
 31
0.0
  0
LINE
  5
F8F
  8
0
 10
2510.75519
 20
2200.555797
 30
0.0
 11
2627.395824
 21
2200.555797
 31
0.0
  0
LINE
  5
F90
  8
0
 10
2510.75519
 20
2184.555797
 30
0.0
 11
2627.395824
 21
2184.555797
 31
0.0
  0
LINE
  5
F91
  8
0
 10
2747.395824
 20
2200.555797
 30
0.0
 11
2967.361875
 21
2200.555797
 31
0.0
  0
LINE
  5
F92
  8
0
 10
2747.395824
 20
2184.555797
 30
0.0
 11
2967.361875
 21
2184.555797
 31
0.0
  0
LINE
  5
F93
  8
0
 10
2747.395824
 20
2294.555797
 30
0.0
 11
2967.361875
 21
2294.555797
 31
0.0
  0
LINE
  5
F97
  8
0
 10
2692.245824
 20
2362.805797
 30
0.0
 11
2692.245824
 21
2322.551426
 31
0.0
  0
LINE
  5
F98
  8
0
 10
2690.495824
 20
2384.505797
 30
0.0
 11
2690.495824
 21
2322.551426
 31
0.0
  0
LINE
  5
F99
  8
0
 10
2682.545824
 20
2362.805797
 30
0.0
 11
2682.545824
 21
2322.551426
 31
0.0
  0
LINE
  5
F9A
  8
0
 10
2684.295824
 20
2384.505797
 30
0.0
 11
2684.295824
 21
2322.551426
 31
0.0
  0
LINE
  5
F9B
  8
0
 10
2682.545824
 20
2172.555797
 30
0.0
 11
2682.545824
 21
2137.205797
 31
0.0
  0
LINE
  5
F9C
  8
0
 10
2684.295824
 20
2172.555797
 30
0.0
 11
2684.295824
 21
2137.205797
 31
0.0
  0
LINE
  5
F9D
  8
0
 10
2690.495824
 20
2172.555797
 30
0.0
 11
2690.495824
 21
2137.205797
 31
0.0
  0
LINE
  5
F9E
  8
0
 10
2692.245824
 20
2172.555797
 30
0.0
 11
2692.245824
 21
2137.205797
 31
0.0
  0
CIRCLE
  5
FA3
  8
0
 10
2388.784573
 20
2302.555797
 30
0.0
 40
8.0
  0
CIRCLE
  5
FA4
  8
0
 10
2388.784573
 20
2192.555797
 30
0.0
 40
8.0
  0
LINE
  5
FCC
  8
0
 10
2380.784573
 20
2284.555797
 30
0.0
 11
2406.784573
 21
2284.555797
 31
0.0
  0
LINE
  5
FCD
  8
0
 10
2380.784573
 20
2210.555797
 30
0.0
 11
2406.784573
 21
2210.555797
 31
0.0
  0
LINE
  5
FD1
  8
0
 10
2406.784573
 20
2172.555797
 30
0.0
 11
2406.784573
 21
2210.555797
 31
0.0
  0
LINE
  5
FD2
  8
0
 10
2406.784573
 20
2172.555797
 30
0.0
 11
2370.784573
 21
2172.555797
 31
0.0
  0
LINE
  5
FEE
  8
0
 10
2326.044573
 20
2111.108611
 30
0.0
 11
2326.044573
 21
2361.108611
 31
0.0
  0
LINE
  5
FEF
  8
0
 10
2334.044573
 20
2111.108611
 30
0.0
 11
2334.044573
 21
2361.108611
 31
0.0
  0
LINE
  5
1005
  8
0
 10
2650.895824
 20
2172.555797
 30
0.0
 11
2650.895824
 21
2133.005797
 31
0.0
  0
LINE
  5
1006
  8
0
 10
2638.895824
 20
2172.555797
 30
0.0
 11
2638.895824
 21
2133.005797
 31
0.0
  0
LINE
  5
1007
  8
0
 10
2723.895824
 20
2172.555797
 30
0.0
 11
2723.895824
 21
2133.005797
 31
0.0
  0
LINE
  5
1008
  8
0
 10
2735.895824
 20
2172.555797
 30
0.0
 11
2735.895824
 21
2133.005797
 31
0.0
  0
LINE
  5
1009
  8
0
 10
2735.895824
 20
2367.005797
 30
0.0
 11
2735.895824
 21
2322.551426
 31
0.0
  0
LINE
  5
100A
  8
0
 10
2723.895824
 20
2367.005797
 30
0.0
 11
2723.895824
 21
2322.551426
 31
0.0
  0
LINE
  5
100B
  8
0
 10
2638.895824
 20
2367.005797
 30
0.0
 11
2638.895824
 21
2322.551426
 31
0.0
  0
LINE
  5
100C
  8
0
 10
2650.895824
 20
2367.005797
 30
0.0
 11
2650.895824
 21
2322.551426
 31
0.0
  0
LINE
  5
100E
  8
0
 10
2638.895824
 20
2125.005797
 30
0.0
 11
2638.895824
 21
2122.005797
 31
0.0
  0
LINE
  5
100F
  8
0
 10
2650.895824
 20
2125.005797
 30
0.0
 11
2650.895824
 21
2122.005797
 31
0.0
  0
LINE
  5
1010
  8
0
 10
2723.895824
 20
2125.005797
 30
0.0
 11
2723.895824
 21
2122.005797
 31
0.0
  0
LINE
  5
1011
  8
0
 10
2735.895824
 20
2125.005797
 30
0.0
 11
2735.895824
 21
2122.005797
 31
0.0
  0
DIMENSION
  5
105F
  8
MATEN
  2
*D2
 10
2406.784573
 20
2340.800519
 30
0.0
 11
2388.784573
 21
2344.350519
 31
0.0
 12
-605.238291
 22
856.874633
 32
0.0
 70
     0
 13
2370.784573
 23
2314.561426
 33
0.0
 14
2406.784573
 24
2314.561426
 34
0.0
1001
ACAD
1000
DSTYLE
1002
{
1070
    78
1070
     8
1070
   140
1040
4.6
1070
    74
1070
     0
1070
   172
1070
     1
1070
    73
1070
     0
1070
    77
1070
     1
1070
   147
1040
1.25
1070
    42
1040
0.625
1070
    44
1040
1.25
1070
    43
1040
3.75
1070
   271
1070
     2
1070
   141
1040
2.5
1070
   275
1070
     1
1070
    41
1040
3.0
1070
   273
1070
     8
1070
   274
1070
     4
1070
   143
1040
0.0394
1070
   171
1070
     4
1002
}
  0
DIMENSION
  5
1084
  8
MATEN
  2
*D3
 10
2381.445751
 20
2299.371196
 30
0.0
 11
2445.023476
 21
2326.960049
 31
0.0
 12
-605.238291
 22
856.874633
 32
0.0
 70
   131
 15
2396.123396
 25
2305.740398
 35
0.0
 40
0.0
1001
ACAD
1000
DSTYLE
1002
{
1070
    78
1070
     8
1070
   140
1040
4.6
1070
    74
1070
     0
1070
   172
1070
     1
1070
    73
1070
     0
1070
    77
1070
     1
1070
   147
1040
1.25
1070
    42
1040
0.625
1070
    44
1040
1.25
1070
    43
1040
3.75
1070
   271
1070
     2
1070
   141
1040
2.5
1070
   275
1070
     1
1070
    41
1040
3.0
1070
   273
1070
     8
1070
   274
1070
     4
1070
   143
1040
0.0394
1070
   171
1070
     4
1002
}
  0
LINE
  5
108E
  8
0
 10
2354.984573
 20
2206.058611
 30
0.0
 11
2354.984573
 21
2110.108611
 31
0.0
  0
LINE
  5
108F
  8
0
 10
2342.984573
 20
2206.058611
 30
0.0
 11
2342.984573
 21
2110.108611
 31
0.0
  0
LINE
  5
10B8
  8
0
 10
2334.044573
 20
2119.108611
 30
0.0
 11
2359.044573
 21
2119.108611
 31
0.0
  0
LINE
  5
10B9
  8
0
 10
2334.044573
 20
2111.108611
 30
0.0
 11
2359.044573
 21
2111.108611
 31
0.0
  0
LINE
  5
10BB
  8
0
 10
2334.044573
 20
2111.108611
 30
0.0
 11
2334.044573
 21
2119.108611
 31
0.0
  0
LINE
  5
10BC
  8
0
 10
2359.044573
 20
2111.108611
 30
0.0
 11
2359.044573
 21
2119.108611
 31
0.0
  0
LINE
  5
10BD
  8
0
  6
DASHED
 10
2354.984573
 20
2111.108611
 30
0.0
 11
2354.984573
 21
2119.108611
 31
0.0
  0
LINE
  5
10BE
  8
0
 10
2342.984573
 20
2110.108611
 30
0.0
 11
2354.984573
 21
2110.108611
 31
0.0
  0
LINE
  5
10BF
  8
0
 10
2334.044573
 20
2111.108611
 30
0.0
 11
2326.044573
 21
2111.108611
 31
0.0
  0
LINE
  5
10C1
  8
0
 10
2334.044573
 20
2353.108611
 30
0.0
 11
2359.044573
 21
2353.108611
 31
0.0
  0
LINE
  5
10C3
  8
0
 10
2334.044573
 20
2353.108611
 30
0.0
 11
2334.044573
 21
2361.108611
 31
0.0
  0
LINE
  5
10C4
  8
0
 10
2359.044573
 20
2353.108611
 30
0.0
 11
2359.044573
 21
2361.108611
 31
0.0
  0
LINE
  5
10C6
  8
0
 10
2359.044573
 20
2361.108611
 30
0.0
 11
2326.044573
 21
2361.108611
 31
0.0
  0
LINE
  5
10C8
  8
0
 62
     2
 10
2318.159573
 20
2317.555797
 30
0.0
 11
2326.044573
 21
2317.555797
 31
0.0
  0
LINE
  5
10C9
  8
0
 62
     2
 10
2334.044573
 20
2317.555797
 30
0.0
 11
2342.984573
 21
2317.555797
 31
0.0
  0
LINE
  5
10CA
  8
0
 62
     2
 10
2354.984573
 20
2317.555797
 30
0.0
 11
2370.784573
 21
2317.555797
 31
0.0
  0
CIRCLE
  5
10CC
  8
0
 10
2388.784573
 20
2247.555797
 30
0.0
 40
3.0
  0
LINE
  5
10CD
  8
0
 10
2376.142441
 20
2395.308611
 30
0.0
 11
2322.186281
 21
2395.308611
 31
0.0
  0
LINE
  5
10CE
  8
0
 10
2376.142441
 20
2395.108611
 30
0.0
 11
2322.186281
 21
2395.108611
 31
0.0
  0
LINE
  5
10CF
  8
0
 10
2376.142441
 20
2394.108611
 30
0.0
 11
2322.186281
 21
2394.108611
 31
0.0
  0
LINE
  5
10D0
  8
0
 10
2376.142441
 20
2406.908611
 30
0.0
 11
2322.186281
 21
2406.908611
 31
0.0
  0
LINE
  5
10D1
  8
0
 10
2376.142441
 20
2407.108611
 30
0.0
 11
2322.186281
 21
2407.108611
 31
0.0
  0
LINE
  5
10D2
  8
0
 10
2376.142441
 20
2408.108611
 30
0.0
 11
2322.186281
 21
2408.108611
 31
0.0
  0
LINE
  5
10D4
  8
0
 10
2321.409573
 20
2381.108611
 30
0.0
 11
2459.159573
 21
2381.108611
 31
0.0
  0
LINE
  5
10D6
  8
0
  6
DASHED
 10
2431.924972
 20
2393.908611
 30
0.0
 11
2431.924972
 21
2473.108611
 31
0.0
  0
LINE
  5
10D7
  8
0
  6
DASHED
 10
2425.924972
 20
2393.908611
 30
0.0
 11
2425.924972
 21
2473.108611
 31
0.0
  0
LINE
  5
10D8
  8
0
 10
2399.161354
 20
2420.108611
 30
0.0
 11
2399.161354
 21
2470.108611
 31
0.0
  0
LINE
  5
10D9
  8
0
 10
2459.159573
 20
2420.108611
 30
0.0
 11
2459.159573
 21
2470.108611
 31
0.0
  0
LINE
  5
10DA
  8
0
 10
2431.924972
 20
2393.908611
 30
0.0
 11
2425.924972
 21
2393.908611
 31
0.0
  0
LINE
  5
10DB
  8
0
 10
2440.659573
 20
2394.108611
 30
0.0
 11
2417.19037
 21
2394.108611
 31
0.0
  0
LINE
  5
10DC
  8
0
 10
2441.129033
 20
2395.108611
 30
0.0
 11
2417.19037
 21
2395.108611
 31
0.0
  0
LINE
  5
10DD
  8
0
 10
2441.129033
 20
2395.308611
 30
0.0
 11
2417.19037
 21
2395.308611
 31
0.0
  0
LINE
  5
10DE
  8
0
 10
2434.924972
 20
2413.108611
 30
0.0
 11
2422.924972
 21
2413.108611
 31
0.0
  0
LINE
  5
10DF
  8
0
 10
2440.659573
 20
2408.108611
 30
0.0
 11
2417.19037
 21
2408.108611
 31
0.0
  0
LINE
  5
10E0
  8
0
 10
2441.129033
 20
2407.108611
 30
0.0
 11
2417.19037
 21
2407.108611
 31
0.0
  0
LINE
  5
10E1
  8
0
 10
2441.129033
 20
2406.908611
 30
0.0
 11
2417.19037
 21
2406.908611
 31
0.0
  0
LINE
  5
10E2
  8
0
 10
2459.159573
 20
2420.108611
 30
0.0
 11
2399.161354
 21
2420.108611
 31
0.0
  0
LINE
  5
10E3
  8
0
 10
2459.159573
 20
2414.108611
 30
0.0
 11
2399.161354
 21
2414.108611
 31
0.0
  0
LINE
  5
10E4
  8
0
 10
2408.984573
 20
2361.108611
 30
0.0
 11
2459.159573
 21
2361.108611
 31
0.0
  0
LINE
  5
10E5
  8
0
  6
DASHED
 10
2449.659573
 20
2420.108611
 30
0.0
 11
2449.659573
 21
2361.108611
 31
0.0
  0
LINE
  5
10E6
  8
0
  6
DASHED
 10
2455.659573
 20
2420.108611
 30
0.0
 11
2455.659573
 21
2361.108611
 31
0.0
  0
LINE
  5
10E7
  8
0
 10
2445.659573
 20
2381.108611
 30
0.0
 11
2445.659573
 21
2414.108611
 31
0.0
  0
LINE
  5
10E8
  8
0
 10
2459.659573
 20
2381.108611
 30
0.0
 11
2459.659573
 21
2414.108611
 31
0.0
  0
LINE
  5
10E9
  8
0
 10
2441.129033
 20
2395.308611
 30
0.0
 11
2441.129033
 21
2406.908611
 31
0.0
  0
LINE
  5
10EA
  8
0
 10
2459.159573
 20
2381.108611
 30
0.0
 11
2459.659573
 21
2381.108611
 31
0.0
  0
LINE
  5
10EB
  8
0
 10
2440.659573
 20
2394.108611
 30
0.0
 11
2441.129033
 21
2394.108611
 31
0.0
  0
LINE
  5
10EC
  8
0
 10
2441.129033
 20
2394.108611
 30
0.0
 11
2441.129033
 21
2395.108611
 31
0.0
  0
LINE
  5
10ED
  8
0
 10
2459.159573
 20
2381.108611
 30
0.0
 11
2459.159573
 21
2361.108611
 31
0.0
  0
LINE
  5
10EE
  8
0
 10
2459.159573
 20
2414.108611
 30
0.0
 11
2459.659573
 21
2414.108611
 31
0.0
  0
LINE
  5
10EF
  8
0
 10
2440.659573
 20
2408.108611
 30
0.0
 11
2441.129033
 21
2408.108611
 31
0.0
  0
LINE
  5
10F0
  8
0
 10
2434.924972
 20
2408.108611
 30
0.0
 11
2434.924972
 21
2413.108611
 31
0.0
  0
LINE
  5
10F1
  8
0
 10
2441.129033
 20
2407.108611
 30
0.0
 11
2441.129033
 21
2408.108611
 31
0.0
  0
LINE
  5
10F2
  8
0
 10
2459.159573
 20
2414.108611
 30
0.0
 11
2459.159573
 21
2420.108611
 31
0.0
  0
LINE
  5
10F3
  8
0
 10
2458.924972
 20
2414.108611
 30
0.0
 11
2459.159573
 21
2414.108611
 31
0.0
  0
LINE
  5
10F4
  8
0
  6
DASHED
 10
2408.661354
 20
2420.108611
 30
0.0
 11
2408.661354
 21
2361.108611
 31
0.0
  0
LINE
  5
10F5
  8
0
  6
DASHED
 10
2402.661354
 20
2420.108611
 30
0.0
 11
2402.661354
 21
2361.108611
 31
0.0
  0
LINE
  5
10F6
  8
0
 10
2412.661354
 20
2381.108611
 30
0.0
 11
2412.661354
 21
2414.108611
 31
0.0
  0
LINE
  5
10F7
  8
0
 10
2398.661354
 20
2381.108611
 30
0.0
 11
2398.661354
 21
2414.108611
 31
0.0
  0
LINE
  5
10F8
  8
0
  6
DASHED
 10
2345.184573
 20
2408.308611
 30
0.0
 11
2345.184573
 21
2374.108611
 31
0.0
  0
LINE
  5
10F9
  8
0
  6
DASHED
 10
2352.784573
 20
2408.308611
 30
0.0
 11
2352.784573
 21
2374.108611
 31
0.0
  0
LINE
  5
10FA
  8
0
 10
2376.142441
 20
2395.308611
 30
0.0
 11
2398.661354
 21
2395.308611
 31
0.0
  0
LINE
  5
10FB
  8
0
 10
2412.661354
 20
2395.308611
 30
0.0
 11
2417.19037
 21
2395.308611
 31
0.0
  0
LINE
  5
10FE
  8
0
 10
2417.19037
 20
2394.108611
 30
0.0
 11
2417.19037
 21
2395.108611
 31
0.0
  0
LINE
  5
10FF
  8
0
 10
2417.19037
 20
2395.108611
 30
0.0
 11
2417.19037
 21
2394.108611
 31
0.0
  0
LINE
  5
1100
  8
0
 10
2418.19037
 20
2395.108611
 30
0.0
 11
2418.19037
 21
2395.308611
 31
0.0
  0
LINE
  5
1102
  8
0
 10
2339.164361
 20
2394.108611
 30
0.0
 11
2339.164361
 21
2383.108611
 31
0.0
  0
LINE
  5
1104
  8
0
 10
2375.142441
 20
2395.308611
 30
0.0
 11
2375.142441
 21
2395.108611
 31
0.0
  0
LINE
  5
1105
  8
0
 10
2376.142441
 20
2395.108611
 30
0.0
 11
2376.142441
 21
2394.108611
 31
0.0
  0
LINE
  5
1106
  8
0
 10
2359.164361
 20
2394.108611
 30
0.0
 11
2359.164361
 21
2383.108611
 31
0.0
  0
LINE
  5
1108
  8
0
 10
2359.164361
 20
2383.108611
 30
0.0
 11
2339.164361
 21
2383.108611
 31
0.0
  0
LINE
  5
1109
  8
0
 10
2351.584573
 20
2383.108611
 30
0.0
 11
2346.384573
 21
2383.108611
 31
0.0
  0
LINE
  5
110F
  8
0
 10
2398.661354
 20
2406.908611
 30
0.0
 11
2376.142441
 21
2406.908611
 31
0.0
  0
LINE
  5
1110
  8
0
 10
2417.19037
 20
2406.908611
 30
0.0
 11
2412.661354
 21
2406.908611
 31
0.0
  0
LINE
  5
1111
  8
0
 10
2399.161354
 20
2414.108611
 30
0.0
 11
2398.661354
 21
2414.108611
 31
0.0
  0
LINE
  5
1112
  8
0
 10
2399.161354
 20
2420.108611
 30
0.0
 11
2399.161354
 21
2414.108611
 31
0.0
  0
LINE
  5
1113
  8
0
 10
2417.19037
 20
2407.108611
 30
0.0
 11
2417.19037
 21
2408.108611
 31
0.0
  0
LINE
  5
1114
  8
0
 10
2422.924972
 20
2408.108611
 30
0.0
 11
2422.924972
 21
2413.108611
 31
0.0
  0
LINE
  5
1115
  8
0
 10
2418.19037
 20
2406.908611
 30
0.0
 11
2418.19037
 21
2407.108611
 31
0.0
  0
LINE
  5
1116
  8
0
 10
2375.142441
 20
2407.108611
 30
0.0
 11
2375.142441
 21
2406.908611
 31
0.0
  0
LINE
  5
1117
  8
0
 10
2376.142441
 20
2408.108611
 30
0.0
 11
2376.142441
 21
2407.108611
 31
0.0
  0
LINE
  5
1118
  8
0
 10
2352.784573
 20
2408.308611
 30
0.0
 11
2345.184573
 21
2408.308611
 31
0.0
  0
LINE
  5
1119
  8
0
 10
2431.924972
 20
2473.108611
 30
0.0
 11
2425.924972
 21
2473.108611
 31
0.0
  0
LINE
  5
111A
  8
0
 10
2399.161354
 20
2470.108611
 30
0.0
 11
2459.159573
 21
2470.108611
 31
0.0
  0
LINE
  5
111B
  8
0
 10
2322.186281
 20
2406.908611
 30
0.0
 11
2322.186281
 21
2395.308611
 31
0.0
  0
LINE
  5
111E
  8
0
 10
2322.186281
 20
2395.108611
 30
0.0
 11
2322.186281
 21
2394.108611
 31
0.0
  0
LINE
  5
1120
  8
0
 10
2321.409573
 20
2381.108611
 30
0.0
 11
2321.409573
 21
2361.108611
 31
0.0
  0
LINE
  5
1121
  8
0
 10
2322.186281
 20
2408.108611
 30
0.0
 11
2322.186281
 21
2407.108611
 31
0.0
  0
LINE
  5
1125
  8
0
 10
2408.984573
 20
2361.108611
 30
0.0
 11
2321.409573
 21
2361.108611
 31
0.0
  0
LINE
  5
1139
  8
0
 10
3364.609485
 20
2114.66036
 30
0.0
 11
3364.609485
 21
2125.66036
 31
0.0
  0
LINE
  5
113A
  8
0
 10
3347.631405
 20
2139.66036
 30
0.0
 11
3347.631405
 21
2125.66036
 31
0.0
  0
LINE
  5
113B
  8
0
  6
DASHED
 10
3395.107832
 20
2138.46036
 30
0.0
 11
3395.107832
 21
2104.66036
 31
0.0
  0
LINE
  5
113C
  8
0
  6
DASHED
 10
3401.107832
 20
2138.46036
 30
0.0
 11
3401.107832
 21
2104.66036
 31
0.0
  0
LINE
  5
113D
  8
0
 10
3344.609613
 20
2124.66036
 30
0.0
 11
3404.607832
 21
2124.66036
 31
0.0
  0
LINE
  5
113E
  8
0
 10
3344.609613
 20
2124.66036
 30
0.0
 11
3344.609613
 21
2104.66036
 31
0.0
  0
LINE
  5
113F
  8
0
 10
3404.607832
 20
2124.66036
 30
0.0
 11
3404.607832
 21
2104.66036
 31
0.0
  0
LINE
  5
1142
  8
0
 10
3402.844215
 20
2359.26724
 30
0.0
 11
3346.844215
 21
2359.26724
 31
0.0
  0
CIRCLE
  5
1143
  8
0
 10
3374.844215
 20
2389.265459
 30
0.0
 40
30.0
  0
LINE
  5
1144
  8
0
 10
3346.844215
 20
2419.265459
 30
0.0
 11
3402.844215
 21
2419.265459
 31
0.0
  0
LINE
  5
1145
  8
0
 10
3346.844215
 20
2281.515459
 30
0.0
 11
3402.844215
 21
2281.515459
 31
0.0
  0
LINE
  5
1146
  8
0
 10
3386.04386
 20
2285.153033
 30
0.0
 11
3386.179864
 21
2284.885621
 31
0.0
  0
ARC
  5
1147
  8
0
 10
3385.954725
 20
2285.1077
 30
0.0
 40
0.1
 50
26.957622
 51
116.463687
  0
LINE
  5
1148
  8
0
 10
3386.044233
 20
2333.377694
 30
0.0
 11
3386.180247
 21
2333.645101
 31
0.0
  0
ARC
  5
1149
  8
0
 10
3385.955101
 20
2333.42303
 30
0.0
 40
0.1
 50
243.534242
 51
333.040306
  0
ARC
  5
114A
  8
0
  6
DASHED
 10
3374.844215
 20
2389.265459
 30
0.0
 40
12.0
 50
334.105772
 51
340.892157
  0
ARC
  5
114B
  8
0
  6
DASHED
 10
3374.844215
 20
2389.265459
 30
0.0
 40
12.0
 50
19.105772
 51
25.892157
  0
ARC
  5
114C
  8
0
  6
DASHED
 10
3374.844215
 20
2389.265459
 30
0.0
 40
11.5
 50
341.867575
 51
348.130354
  0
LINE
  5
114D
  8
0
  6
DASHED
 10
3385.836216
 20
2385.560611
 30
0.0
 11
3386.120513
 21
2385.464789
 31
0.0
  0
ARC
  5
114E
  8
0
  6
DASHED
 10
3374.844215
 20
2389.265459
 30
0.0
 40
11.5
 50
11.867575
 51
18.130354
  0
LINE
  5
114F
  8
0
  6
DASHED
 10
3385.83635
 20
2392.969909
 30
0.0
 11
3386.120651
 21
2393.065721
 31
0.0
  0
LINE
  5
1150
  8
0
 10
3344.844215
 20
2361.26724
 30
0.0
 11
3344.844215
 21
2283.515459
 31
0.0
  0
LINE
  5
1151
  8
0
 10
3356.981807
 20
2359.26724
 30
0.0
 11
3348.995031
 21
2317.004636
 31
0.0
  0
LINE
  5
1152
  8
0
 10
3344.844215
 20
2417.265459
 30
0.0
 11
3344.844215
 21
2361.26724
 31
0.0
  0
ARC
  5
1153
  8
0
  6
DASHED
 10
3374.844215
 20
2389.265459
 30
0.0
 40
12.0
 50
154.105772
 51
160.892157
  0
ARC
  5
1154
  8
0
 10
3346.844215
 20
2417.265459
 30
0.0
 40
2.0
 50
90.0
 51
180.0
  0
CIRCLE
  5
1155
  8
0
 10
3350.594215
 20
2412.765459
 30
0.0
 40
3.0
  0
ARC
  5
1156
  8
0
  6
DASHED
 10
3374.844215
 20
2389.265459
 30
0.0
 40
12.0
 50
34.105772
 51
40.892157
  0
ARC
  5
1157
  8
0
  6
DASHED
 10
3382.586497
 20
2397.903576
 30
0.0
 40
0.1
 50
138.624289
 51
228.130354
  0
ARC
  5
1158
  8
0
  6
DASHED
 10
3374.844215
 20
2389.265459
 30
0.0
 40
11.5
 50
41.867575
 51
48.130354
  0
ARC
  5
1159
  8
0
  6
DASHED
 10
3383.482611
 20
2397.007429
 30
0.0
 40
0.1
 50
221.867575
 51
311.37364
  0
LINE
  5
115A
  8
0
  6
DASHED
 10
3383.548708
 20
2396.932388
 30
0.0
 11
3383.773841
 21
2397.130685
 31
0.0
  0
ARC
  5
115B
  8
0
  6
DASHED
 10
3383.839938
 20
2397.055643
 30
0.0
 40
0.1
 50
40.892157
 51
131.37364
  0
LINE
  5
115C
  8
0
  6
DASHED
 10
3382.511458
 20
2397.969675
 30
0.0
 11
3382.709763
 21
2398.194801
 31
0.0
  0
ARC
  5
115D
  8
0
  6
DASHED
 10
3382.634724
 20
2398.2609
 30
0.0
 40
0.1
 50
318.624289
 51
49.105772
  0
ARC
  5
115E
  8
0
  6
DASHED
 10
3384.558395
 20
2395.605389
 30
0.0
 40
0.1
 50
123.624289
 51
213.130354
  0
ARC
  5
115F
  8
0
  6
DASHED
 10
3374.844215
 20
2389.265459
 30
0.0
 40
11.5
 50
26.867575
 51
33.130354
  0
ARC
  5
1160
  8
0
  6
DASHED
 10
3385.192035
 20
2394.507846
 30
0.0
 40
0.1
 50
206.867575
 51
296.37364
  0
LINE
  5
1161
  8
0
  6
DASHED
 10
3385.236457
 20
2394.418255
 30
0.0
 11
3385.505241
 21
2394.551526
 31
0.0
  0
ARC
  5
1162
  8
0
  6
DASHED
 10
3385.549664
 20
2394.461935
 30
0.0
 40
0.1
 50
25.892157
 51
116.37364
  0
LINE
  5
1163
  8
0
  6
DASHED
 10
3384.50302
 20
2395.688657
 30
0.0
 11
3384.752835
 21
2395.854787
 31
0.0
  0
ARC
  5
1164
  8
0
  6
DASHED
 10
3384.697461
 20
2395.938055
 30
0.0
 40
0.1
 50
303.624289
 51
34.105772
  0
ARC
  5
1165
  8
0
  6
DASHED
 10
3374.844215
 20
2389.265459
 30
0.0
 40
12.0
 50
64.105772
 51
70.892157
  0
ARC
  5
1166
  8
0
  6
DASHED
 10
3374.844215
 20
2389.265459
 30
0.0
 40
12.0
 50
79.105772
 51
85.892157
  0
ARC
  5
1167
  8
0
  6
DASHED
 10
3374.844215
 20
2389.265459
 30
0.0
 40
12.0
 50
94.105772
 51
100.892157
  0
ARC
  5
1168
  8
0
  6
DASHED
 10
3372.45867
 20
2400.617515
 30
0.0
 40
0.1
 50
281.867575
 51
11.37364
  0
LINE
  5
1169
  8
0
  6
DASHED
 10
3372.556706
 20
2400.637236
 30
0.0
 11
3372.497542
 21
2400.931355
 31
0.0
  0
ARC
  5
116A
  8
0
  6
DASHED
 10
3372.595579
 20
2400.951075
 30
0.0
 40
0.1
 50
100.892157
 51
191.37364
  0
ARC
  5
116B
  8
0
  6
DASHED
 10
3374.210764
 20
2400.84815
 30
0.0
 40
0.1
 50
183.624289
 51
273.130354
  0
ARC
  5
116C
  8
0
  6
DASHED
 10
3374.844215
 20
2389.265459
 30
0.0
 40
11.5
 50
86.867575
 51
93.130354
  0
ARC
  5
116D
  8
0
  6
DASHED
 10
3375.478084
 20
2400.848127
 30
0.0
 40
0.1
 50
266.867575
 51
356.37364
  0
LINE
  5
116E
  8
0
  6
DASHED
 10
3375.577884
 20
2400.841802
 30
0.0
 11
3375.596859
 21
2401.141213
 31
0.0
  0
ARC
  5
116F
  8
0
  6
DASHED
 10
3375.696659
 20
2401.134888
 30
0.0
 40
0.1
 50
85.892157
 51
176.37364
  0
LINE
  5
1170
  8
0
  6
DASHED
 10
3374.110964
 20
2400.841829
 30
0.0
 11
3374.092
 21
2401.14124
 31
0.0
  0
ARC
  5
1171
  8
0
  6
DASHED
 10
3373.9922
 20
2401.134918
 30
0.0
 40
0.1
 50
3.624289
 51
94.105772
  0
ARC
  5
1172
  8
0
  6
DASHED
 10
3377.23017
 20
2400.617429
 30
0.0
 40
0.1
 50
168.624289
 51
258.130354
  0
ARC
  5
1173
  8
0
  6
DASHED
 10
3374.844215
 20
2389.265459
 30
0.0
 40
11.5
 50
71.867575
 51
78.130354
  0
ARC
  5
1174
  8
0
  6
DASHED
 10
3378.454301
 20
2400.2894
 30
0.0
 40
0.1
 50
251.867575
 51
341.37364
  0
LINE
  5
1175
  8
0
  6
DASHED
 10
3378.549063
 20
2400.257461
 30
0.0
 11
3378.644885
 21
2400.541757
 31
0.0
  0
ARC
  5
1176
  8
0
  6
DASHED
 10
3378.739647
 20
2400.509818
 30
0.0
 40
0.1
 50
70.892157
 51
161.37364
  0
LINE
  5
1177
  8
0
  6
DASHED
 10
3377.132134
 20
2400.637153
 30
0.0
 11
3377.191309
 21
2400.93127
 31
0.0
  0
ARC
  5
1178
  8
0
  6
DASHED
 10
3377.093273
 20
2400.950994
 30
0.0
 40
0.1
 50
348.624289
 51
79.105772
  0
ARC
  5
1179
  8
0
  6
DASHED
 10
3380.086976
 20
2399.613089
 30
0.0
 40
0.1
 50
153.624289
 51
243.130354
  0
ARC
  5
117A
  8
0
  6
DASHED
 10
3374.844215
 20
2389.265459
 30
0.0
 40
11.5
 50
56.867575
 51
63.130354
  0
ARC
  5
117B
  8
0
  6
DASHED
 10
3381.184496
 20
2398.979409
 30
0.0
 40
0.1
 50
236.867575
 51
326.37364
  0
LINE
  5
117C
  8
0
  6
DASHED
 10
3381.267763
 20
2398.924032
 30
0.0
 11
3381.433901
 21
2399.173841
 31
0.0
  0
ARC
  5
117D
  8
0
  6
DASHED
 10
3381.517168
 20
2399.118463
 30
0.0
 40
0.1
 50
55.892157
 51
146.37364
  0
LINE
  5
117E
  8
0
  6
DASHED
 10
3379.997386
 20
2399.657515
 30
0.0
 11
3380.130668
 21
2399.926294
 31
0.0
  0
ARC
  5
117F
  8
0
  6
DASHED
 10
3380.041078
 20
2399.97072
 30
0.0
 40
0.1
 50
333.624289
 51
64.105772
  0
ARC
  5
1180
  8
0
  6
DASHED
 10
3374.844215
 20
2389.265459
 30
0.0
 40
12.0
 50
49.105772
 51
55.892157
  0
ARC
  5
1181
  8
0
  6
DASHED
 10
3374.844215
 20
2389.265459
 30
0.0
 40
12.0
 50
139.105772
 51
145.892157
  0
ARC
  5
1182
  8
0
  6
DASHED
 10
3364.496585
 20
2394.50822
 30
0.0
 40
0.1
 50
243.624289
 51
333.130354
  0
ARC
  5
1183
  8
0
  6
DASHED
 10
3374.844215
 20
2389.265459
 30
0.0
 40
11.5
 50
146.867575
 51
153.130354
  0
LINE
  5
1184
  8
0
  6
DASHED
 10
3365.185642
 20
2395.689007
 30
0.0
 11
3364.935833
 21
2395.855145
 31
0.0
  0
ARC
  5
1185
  8
0
  6
DASHED
 10
3364.99121
 20
2395.938412
 30
0.0
 40
0.1
 50
145.892157
 51
236.37364
  0
LINE
  5
1186
  8
0
  6
DASHED
 10
3364.452159
 20
2394.41863
 30
0.0
 11
3364.183379
 21
2394.551912
 31
0.0
  0
ARC
  5
1187
  8
0
  6
DASHED
 10
3364.138954
 20
2394.462322
 30
0.0
 40
0.1
 50
63.624289
 51
154.105772
  0
ARC
  5
1188
  8
0
  6
DASHED
 10
3365.130264
 20
2395.60574
 30
0.0
 40
0.1
 50
326.867575
 51
56.37364
  0
ARC
  5
1189
  8
0
  6
DASHED
 10
3366.206098
 20
2397.007741
 30
0.0
 40
0.1
 50
228.624289
 51
318.130354
  0
ARC
  5
118A
  8
0
  6
DASHED
 10
3374.844215
 20
2389.265459
 30
0.0
 40
11.5
 50
131.867575
 51
138.130354
  0
ARC
  5
118B
  8
0
  6
DASHED
 10
3367.102245
 20
2397.903856
 30
0.0
 40
0.1
 50
311.867575
 51
41.37364
  0
LINE
  5
118C
  8
0
  6
DASHED
 10
3367.177286
 20
2397.969952
 30
0.0
 11
3366.978989
 21
2398.195085
 31
0.0
  0
ARC
  5
118D
  8
0
  6
DASHED
 10
3367.05403
 20
2398.261182
 30
0.0
 40
0.1
 50
130.892157
 51
221.37364
  0
LINE
  5
118E
  8
0
  6
DASHED
 10
3366.139999
 20
2396.932702
 30
0.0
 11
3365.914873
 21
2397.131008
 31
0.0
  0
ARC
  5
118F
  8
0
  6
DASHED
 10
3365.848774
 20
2397.055968
 30
0.0
 40
0.1
 50
48.624289
 51
139.105772
  0
ARC
  5
1190
  8
0
  6
DASHED
 10
3374.844215
 20
2389.265459
 30
0.0
 40
12.0
 50
109.105772
 51
115.892157
  0
ARC
  5
1191
  8
0
  6
DASHED
 10
3368.504285
 20
2398.979639
 30
0.0
 40
0.1
 50
213.624289
 51
303.130354
  0
ARC
  5
1192
  8
0
  6
DASHED
 10
3374.844215
 20
2389.265459
 30
0.0
 40
11.5
 50
116.867575
 51
123.130354
  0
ARC
  5
1193
  8
0
  6
DASHED
 10
3369.601827
 20
2399.613279
 30
0.0
 40
0.1
 50
296.867575
 51
26.37364
  0
LINE
  5
1194
  8
0
  6
DASHED
 10
3369.691419
 20
2399.657701
 30
0.0
 11
3369.558147
 21
2399.926486
 31
0.0
  0
ARC
  5
1195
  8
0
  6
DASHED
 10
3369.647739
 20
2399.970908
 30
0.0
 40
0.1
 50
115.892157
 51
206.37364
  0
LINE
  5
1196
  8
0
  6
DASHED
 10
3368.421016
 20
2398.924264
 30
0.0
 11
3368.254887
 21
2399.174079
 31
0.0
  0
ARC
  5
1197
  8
0
  6
DASHED
 10
3368.171618
 20
2399.118705
 30
0.0
 40
0.1
 50
33.624289
 51
124.105772
  0
ARC
  5
1198
  8
0
  6
DASHED
 10
3371.234527
 20
2400.289531
 30
0.0
 40
0.1
 50
198.624289
 51
288.130354
  0
LINE
  5
1199
  8
0
  6
DASHED
 10
3371.139764
 20
2400.257594
 30
0.0
 11
3371.043952
 21
2400.541895
 31
0.0
  0
ARC
  5
119A
  8
0
  6
DASHED
 10
3370.949189
 20
2400.509959
 30
0.0
 40
0.1
 50
18.624289
 51
109.105772
  0
ARC
  5
119B
  8
0
  6
DASHED
 10
3374.844215
 20
2389.265459
 30
0.0
 40
12.0
 50
124.105772
 51
130.892157
  0
ARC
  5
119C
  8
0
  6
DASHED
 10
3374.844215
 20
2389.265459
 30
0.0
 40
11.5
 50
101.867575
 51
108.130354
  0
ARC
  5
119D
  8
0
 10
3346.844215
 20
2361.26724
 30
0.0
 40
2.0
 50
180.0
 51
270.0
  0
CIRCLE
  5
119E
  8
0
 10
3350.610579
 20
2365.76724
 30
0.0
 40
3.0
  0
ARC
  5
119F
  8
0
  6
DASHED
 10
3374.844215
 20
2389.265459
 30
0.0
 40
12.0
 50
259.105772
 51
265.892157
  0
ARC
  5
11A0
  8
0
  6
DASHED
 10
3374.844215
 20
2389.265459
 30
0.0
 40
12.0
 50
274.105772
 51
280.892157
  0
ARC
  5
11A1
  8
0
  6
DASHED
 10
3374.844215
 20
2389.265459
 30
0.0
 40
12.0
 50
289.105772
 51
295.892157
  0
ARC
  5
11A2
  8
0
  6
DASHED
 10
3374.844215
 20
2389.265459
 30
0.0
 40
12.0
 50
304.105772
 51
310.892157
  0
ARC
  5
11A3
  8
0
  6
DASHED
 10
3374.844215
 20
2389.265459
 30
0.0
 40
12.0
 50
319.105772
 51
325.892157
  0
ARC
  5
11A4
  8
0
  6
DASHED
 10
3385.868156
 20
2385.655373
 30
0.0
 40
0.1
 50
161.867575
 51
251.37364
  0
ARC
  5
11A5
  8
0
  6
DASHED
 10
3385.191845
 20
2384.022697
 30
0.0
 40
0.1
 50
63.624289
 51
153.130354
  0
ARC
  5
11A6
  8
0
  6
DASHED
 10
3374.844215
 20
2389.265459
 30
0.0
 40
11.5
 50
326.867575
 51
333.130354
  0
ARC
  5
11A7
  8
0
  6
DASHED
 10
3384.558165
 20
2382.925178
 30
0.0
 40
0.1
 50
146.867575
 51
236.37364
  0
LINE
  5
11A8
  8
0
  6
DASHED
 10
3384.502788
 20
2382.841911
 30
0.0
 11
3384.752597
 21
2382.675773
 31
0.0
  0
ARC
  5
11A9
  8
0
  6
DASHED
 10
3384.697219
 20
2382.592506
 30
0.0
 40
0.1
 50
325.892157
 51
56.37364
  0
LINE
  5
11AA
  8
0
  6
DASHED
 10
3385.236271
 20
2384.112287
 30
0.0
 11
3385.50505
 21
2383.979006
 31
0.0
  0
ARC
  5
11AB
  8
0
  6
DASHED
 10
3385.549476
 20
2384.068596
 30
0.0
 40
0.1
 50
243.624289
 51
334.105772
  0
ARC
  5
11AC
  8
0
  6
DASHED
 10
3383.482332
 20
2381.523176
 30
0.0
 40
0.1
 50
48.624289
 51
138.130354
  0
ARC
  5
11AD
  8
0
  6
DASHED
 10
3374.844215
 20
2389.265459
 30
0.0
 40
11.5
 50
311.867575
 51
318.130354
  0
ARC
  5
11AE
  8
0
  6
DASHED
 10
3382.586185
 20
2380.627062
 30
0.0
 40
0.1
 50
131.867575
 51
221.37364
  0
LINE
  5
11AF
  8
0
  6
DASHED
 10
3382.511143
 20
2380.560965
 30
0.0
 11
3382.709441
 21
2380.335833
 31
0.0
  0
ARC
  5
11B0
  8
0
  6
DASHED
 10
3382.634399
 20
2380.269736
 30
0.0
 40
0.1
 50
310.892157
 51
41.37364
  0
LINE
  5
11B1
  8
0
  6
DASHED
 10
3383.548431
 20
2381.598215
 30
0.0
 11
3383.773556
 21
2381.39991
 31
0.0
  0
ARC
  5
11B2
  8
0
  6
DASHED
 10
3383.839656
 20
2381.474949
 30
0.0
 40
0.1
 50
228.624289
 51
319.105772
  0
ARC
  5
11B3
  8
0
  6
DASHED
 10
3381.184145
 20
2379.551279
 30
0.0
 40
0.1
 50
33.624289
 51
123.130354
  0
ARC
  5
11B4
  8
0
  6
DASHED
 10
3374.844215
 20
2389.265459
 30
0.0
 40
11.5
 50
296.867575
 51
303.130354
  0
ARC
  5
11B5
  8
0
  6
DASHED
 10
3380.086602
 20
2378.917639
 30
0.0
 40
0.1
 50
116.867575
 51
206.37364
  0
LINE
  5
11B6
  8
0
  6
DASHED
 10
3379.997011
 20
2378.873217
 30
0.0
 11
3380.130282
 21
2378.604432
 31
0.0
  0
ARC
  5
11B7
  8
0
  6
DASHED
 10
3380.040691
 20
2378.56001
 30
0.0
 40
0.1
 50
295.892157
 51
26.37364
  0
LINE
  5
11B8
  8
0
  6
DASHED
 10
3381.267413
 20
2379.606654
 30
0.0
 11
3381.433543
 21
2379.356838
 31
0.0
  0
ARC
  5
11B9
  8
0
  6
DASHED
 10
3381.516811
 20
2379.412213
 30
0.0
 40
0.1
 50
213.624289
 51
304.105772
  0
ARC
  5
11BA
  8
0
  6
DASHED
 10
3378.453902
 20
2378.241387
 30
0.0
 40
0.1
 50
18.624289
 51
108.130354
  0
ARC
  5
11BB
  8
0
  6
DASHED
 10
3374.844215
 20
2389.265459
 30
0.0
 40
11.5
 50
281.867575
 51
288.130354
  0
ARC
  5
11BC
  8
0
  6
DASHED
 10
3377.229759
 20
2377.913403
 30
0.0
 40
0.1
 50
101.867575
 51
191.37364
  0
LINE
  5
11BD
  8
0
  6
DASHED
 10
3377.131723
 20
2377.893682
 30
0.0
 11
3377.190887
 21
2377.599563
 31
0.0
  0
ARC
  5
11BE
  8
0
  6
DASHED
 10
3377.092851
 20
2377.579842
 30
0.0
 40
0.1
 50
280.892157
 51
11.37364
  0
LINE
  5
11BF
  8
0
  6
DASHED
 10
3378.548665
 20
2378.273323
 30
0.0
 11
3378.644477
 21
2377.989023
 31
0.0
  0
ARC
  5
11C0
  8
0
  6
DASHED
 10
3378.73924
 20
2378.020959
 30
0.0
 40
0.1
 50
198.624289
 51
289.105772
  0
ARC
  5
11C1
  8
0
  6
DASHED
 10
3375.477665
 20
2377.682767
 30
0.0
 40
0.1
 50
3.624289
 51
93.130354
  0
ARC
  5
11C2
  8
0
  6
DASHED
 10
3374.844215
 20
2389.265459
 30
0.0
 40
11.5
 50
266.867575
 51
273.130354
  0
ARC
  5
11C3
  8
0
  6
DASHED
 10
3374.210346
 20
2377.68279
 30
0.0
 40
0.1
 50
86.867575
 51
176.37364
  0
LINE
  5
11C4
  8
0
  6
DASHED
 10
3374.110546
 20
2377.689115
 30
0.0
 11
3374.09157
 21
2377.389705
 31
0.0
  0
ARC
  5
11C5
  8
0
  6
DASHED
 10
3373.99177
 20
2377.39603
 30
0.0
 40
0.1
 50
265.892157
 51
356.37364
  0
LINE
  5
11C6
  8
0
  6
DASHED
 10
3375.577465
 20
2377.689089
 30
0.0
 11
3375.59643
 21
2377.389678
 31
0.0
  0
ARC
  5
11C7
  8
0
  6
DASHED
 10
3375.69623
 20
2377.395999
 30
0.0
 40
0.1
 50
183.624289
 51
274.105772
  0
ARC
  5
11C8
  8
0
  6
DASHED
 10
3372.45826
 20
2377.913489
 30
0.0
 40
0.1
 50
348.624289
 51
78.130354
  0
LINE
  5
11C9
  8
0
  6
DASHED
 10
3372.556295
 20
2377.893765
 30
0.0
 11
3372.497121
 21
2377.599648
 31
0.0
  0
ARC
  5
11CA
  8
0
  6
DASHED
 10
3372.595156
 20
2377.579924
 30
0.0
 40
0.1
 50
168.624289
 51
259.105772
  0
ARC
  5
11CB
  8
0
  6
DASHED
 10
3385.868286
 20
2392.875146
 30
0.0
 40
0.1
 50
108.624289
 51
198.130354
  0
CIRCLE
  5
11CC
  8
0
  6
DASHED
 10
3374.844215
 20
2389.265459
 30
0.0
 40
3.0
  0
ARC
  5
11CD
  8
0
  6
DASHED
 10
3374.844215
 20
2389.265459
 30
0.0
 40
12.0
 50
169.105772
 51
175.892157
  0
ARC
  5
11CE
  8
0
  6
DASHED
 10
3374.844215
 20
2389.265459
 30
0.0
 40
11.5
 50
176.867575
 51
183.130354
  0
ARC
  5
11CF
  8
0
  6
DASHED
 10
3363.261546
 20
2389.899328
 30
0.0
 40
0.1
 50
356.867575
 51
86.37364
  0
LINE
  5
11D0
  8
0
  6
DASHED
 10
3363.267871
 20
2389.999128
 30
0.0
 11
3362.968461
 21
2390.018103
 31
0.0
  0
ARC
  5
11D1
  8
0
  6
DASHED
 10
3362.974786
 20
2390.117903
 30
0.0
 40
0.1
 50
175.892157
 51
266.37364
  0
ARC
  5
11D2
  8
0
  6
DASHED
 10
3363.492245
 20
2391.651414
 30
0.0
 40
0.1
 50
258.624289
 51
348.130354
  0
ARC
  5
11D3
  8
0
  6
DASHED
 10
3374.844215
 20
2389.265459
 30
0.0
 40
11.5
 50
161.867575
 51
168.130354
  0
ARC
  5
11D4
  8
0
  6
DASHED
 10
3363.820274
 20
2392.875545
 30
0.0
 40
0.1
 50
341.867575
 51
71.37364
  0
LINE
  5
11D5
  8
0
  6
DASHED
 10
3363.852213
 20
2392.970307
 30
0.0
 11
3363.567916
 21
2393.066129
 31
0.0
  0
ARC
  5
11D6
  8
0
  6
DASHED
 10
3363.599856
 20
2393.160891
 30
0.0
 40
0.1
 50
160.892157
 51
251.37364
  0
LINE
  5
11D7
  8
0
  6
DASHED
 10
3363.472521
 20
2391.553378
 30
0.0
 11
3363.178404
 21
2391.612553
 31
0.0
  0
ARC
  5
11D8
  8
0
  6
DASHED
 10
3363.158679
 20
2391.514517
 30
0.0
 40
0.1
 50
78.624289
 51
169.105772
  0
ARC
  5
11D9
  8
0
  6
DASHED
 10
3374.844215
 20
2389.265459
 30
0.0
 40
12.0
 50
184.105772
 51
190.892157
  0
ARC
  5
11DA
  8
0
  6
DASHED
 10
3374.844215
 20
2389.265459
 30
0.0
 40
12.0
 50
199.105772
 51
205.892157
  0
ARC
  5
11DB
  8
0
  6
DASHED
 10
3374.844215
 20
2389.265459
 30
0.0
 40
12.0
 50
214.105772
 51
220.892157
  0
ARC
  5
11DC
  8
0
  6
DASHED
 10
3374.844215
 20
2389.265459
 30
0.0
 40
12.0
 50
229.105772
 51
235.892157
  0
ARC
  5
11DD
  8
0
  6
DASHED
 10
3374.844215
 20
2389.265459
 30
0.0
 40
12.0
 50
244.105772
 51
250.892157
  0
ARC
  5
11DE
  8
0
  6
DASHED
 10
3371.234129
 20
2378.241518
 30
0.0
 40
0.1
 50
71.867575
 51
161.37364
  0
LINE
  5
11DF
  8
0
  6
DASHED
 10
3371.139367
 20
2378.273457
 30
0.0
 11
3371.043545
 21
2377.98916
 31
0.0
  0
ARC
  5
11E0
  8
0
  6
DASHED
 10
3370.948783
 20
2378.0211
 30
0.0
 40
0.1
 50
250.892157
 51
341.37364
  0
ARC
  5
11E1
  8
0
  6
DASHED
 10
3369.601453
 20
2378.917829
 30
0.0
 40
0.1
 50
333.624289
 51
63.130354
  0
ARC
  5
11E2
  8
0
  6
DASHED
 10
3374.844215
 20
2389.265459
 30
0.0
 40
11.5
 50
236.867575
 51
243.130354
  0
ARC
  5
11E3
  8
0
  6
DASHED
 10
3368.503934
 20
2379.551508
 30
0.0
 40
0.1
 50
56.867575
 51
146.37364
  0
LINE
  5
11E4
  8
0
  6
DASHED
 10
3368.420667
 20
2379.606886
 30
0.0
 11
3368.254529
 21
2379.357077
 31
0.0
  0
ARC
  5
11E5
  8
0
  6
DASHED
 10
3368.171262
 20
2379.412454
 30
0.0
 40
0.1
 50
235.892157
 51
326.37364
  0
LINE
  5
11E6
  8
0
  6
DASHED
 10
3369.691043
 20
2378.873403
 30
0.0
 11
3369.557762
 21
2378.604623
 31
0.0
  0
ARC
  5
11E7
  8
0
  6
DASHED
 10
3369.647352
 20
2378.560198
 30
0.0
 40
0.1
 50
153.624289
 51
244.105772
  0
ARC
  5
11E8
  8
0
  6
DASHED
 10
3367.101932
 20
2380.627342
 30
0.0
 40
0.1
 50
318.624289
 51
48.130354
  0
ARC
  5
11E9
  8
0
  6
DASHED
 10
3374.844215
 20
2389.265459
 30
0.0
 40
11.5
 50
221.867575
 51
228.130354
  0
ARC
  5
11EA
  8
0
  6
DASHED
 10
3366.205818
 20
2381.523489
 30
0.0
 40
0.1
 50
41.867575
 51
131.37364
  0
LINE
  5
11EB
  8
0
  6
DASHED
 10
3366.139721
 20
2381.59853
 30
0.0
 11
3365.914589
 21
2381.400233
 31
0.0
  0
ARC
  5
11EC
  8
0
  6
DASHED
 10
3365.848492
 20
2381.475274
 30
0.0
 40
0.1
 50
220.892157
 51
311.37364
  0
LINE
  5
11ED
  8
0
  6
DASHED
 10
3367.176971
 20
2380.561243
 30
0.0
 11
3366.978666
 21
2380.336117
 31
0.0
  0
ARC
  5
11EE
  8
0
  6
DASHED
 10
3367.053705
 20
2380.270018
 30
0.0
 40
0.1
 50
138.624289
 51
229.105772
  0
ARC
  5
11EF
  8
0
  6
DASHED
 10
3365.130035
 20
2382.925529
 30
0.0
 40
0.1
 50
303.624289
 51
33.130354
  0
ARC
  5
11F0
  8
0
  6
DASHED
 10
3374.844215
 20
2389.265459
 30
0.0
 40
11.5
 50
206.867575
 51
213.130354
  0
ARC
  5
11F1
  8
0
  6
DASHED
 10
3364.496395
 20
2384.023071
 30
0.0
 40
0.1
 50
26.867575
 51
116.37364
  0
LINE
  5
11F2
  8
0
  6
DASHED
 10
3364.451973
 20
2384.112663
 30
0.0
 11
3364.183188
 21
2383.979391
 31
0.0
  0
ARC
  5
11F3
  8
0
  6
DASHED
 10
3364.138766
 20
2384.068983
 30
0.0
 40
0.1
 50
205.892157
 51
296.37364
  0
LINE
  5
11F4
  8
0
  6
DASHED
 10
3365.185409
 20
2382.84226
 30
0.0
 11
3364.935594
 21
2382.676131
 31
0.0
  0
ARC
  5
11F5
  8
0
  6
DASHED
 10
3364.990969
 20
2382.592862
 30
0.0
 40
0.1
 50
123.624289
 51
214.105772
  0
ARC
  5
11F6
  8
0
  6
DASHED
 10
3363.820143
 20
2385.655772
 30
0.0
 40
0.1
 50
288.624289
 51
18.130354
  0
ARC
  5
11F7
  8
0
  6
DASHED
 10
3374.844215
 20
2389.265459
 30
0.0
 40
11.5
 50
191.867575
 51
198.130354
  0
ARC
  5
11F8
  8
0
  6
DASHED
 10
3363.492159
 20
2386.879914
 30
0.0
 40
0.1
 50
11.867575
 51
101.37364
  0
LINE
  5
11F9
  8
0
  6
DASHED
 10
3363.472438
 20
2386.97795
 30
0.0
 11
3363.178319
 21
2386.918786
 31
0.0
  0
ARC
  5
11FA
  8
0
  6
DASHED
 10
3363.158598
 20
2387.016823
 30
0.0
 40
0.1
 50
190.892157
 51
281.37364
  0
LINE
  5
11FB
  8
0
  6
DASHED
 10
3363.852079
 20
2385.561008
 30
0.0
 11
3363.567779
 21
2385.465196
 31
0.0
  0
ARC
  5
11FC
  8
0
  6
DASHED
 10
3363.599715
 20
2385.370433
 30
0.0
 40
0.1
 50
108.624289
 51
199.105772
  0
ARC
  5
11FD
  8
0
  6
DASHED
 10
3363.261523
 20
2388.632008
 30
0.0
 40
0.1
 50
273.624289
 51
3.130354
  0
LINE
  5
11FE
  8
0
  6
DASHED
 10
3363.267845
 20
2388.532208
 30
0.0
 11
3362.968434
 21
2388.513244
 31
0.0
  0
ARC
  5
11FF
  8
0
  6
DASHED
 10
3362.974755
 20
2388.413444
 30
0.0
 40
0.1
 50
93.624289
 51
184.105772
  0
ARC
  5
1200
  8
0
  6
DASHED
 10
3374.844215
 20
2389.265459
 30
0.0
 40
11.5
 50
251.867575
 51
258.130354
  0
ARC
  5
1201
  8
0
 10
3374.844215
 20
2309.265459
 30
0.0
 40
26.982868
 50
195.140183
 51
198.191363
  0
ARC
  5
1202
  8
0
 10
3380.785411
 20
2323.0387
 30
0.0
 40
11.5
 50
63.534242
 51
69.79702
  0
ARC
  5
1203
  8
0
 10
3374.844215
 20
2309.265459
 30
0.0
 40
26.982868
 50
88.473516
 51
91.524696
  0
ARC
  5
1204
  8
0
 10
3374.844215
 20
2309.265459
 30
0.0
 40
26.982868
 50
81.80685
 51
84.85803
  0
ARC
  5
1205
  8
0
 10
3374.844215
 20
2309.265459
 30
0.0
 40
26.982868
 50
75.140183
 51
78.191363
  0
ARC
  5
1206
  8
0
 10
3374.844215
 20
2309.265459
 30
0.0
 40
26.982868
 50
68.473516
 51
71.524696
  0
ARC
  5
1207
  8
0
 10
3372.431321
 20
2336.039919
 30
0.0
 40
0.1
 50
6.957622
 51
97.439105
  0
LINE
  5
1208
  8
0
 10
3372.566926
 20
2335.754231
 30
0.0
 11
3372.530584
 21
2336.052033
 31
0.0
  0
ARC
  5
1209
  8
0
 10
3374.132899
 20
2336.138994
 30
0.0
 40
0.1
 50
89.22549
 51
179.706973
  0
LINE
  5
120A
  8
0
 10
3374.031366
 20
2335.839498
 30
0.0
 11
3374.0329
 21
2336.139505
 31
0.0
  0
ARC
  5
120B
  8
0
 10
3373.931367
 20
2335.84001
 30
0.0
 40
0.1
 50
270.200908
 51
359.706973
  0
ARC
  5
120C
  8
0
 10
3373.972042
 20
2324.240081
 30
0.0
 40
11.5
 50
90.200908
 51
96.463687
  0
ARC
  5
120D
  8
0
 10
3372.66619
 20
2335.766345
 30
0.0
 40
0.1
 50
186.957622
 51
276.463687
  0
ARC
  5
120E
  8
0
 10
3375.555961
 20
2336.139
 30
0.0
 40
0.1
 50
0.290956
 51
90.772438
  0
LINE
  5
120F
  8
0
 10
3375.657483
 20
2335.839501
 30
0.0
 11
3375.65596
 21
2336.139508
 31
0.0
  0
ARC
  5
1210
  8
0
 10
3377.257535
 20
2336.039864
 30
0.0
 40
0.1
 50
82.558824
 51
173.040306
  0
LINE
  5
1211
  8
0
 10
3377.121919
 20
2335.75418
 30
0.0
 11
3377.158272
 21
2336.051981
 31
0.0
  0
ARC
  5
1212
  8
0
 10
3377.022656
 20
2335.766297
 30
0.0
 40
0.1
 50
263.534242
 51
353.040306
  0
ARC
  5
1213
  8
0
 10
3375.716387
 20
2324.240081
 30
0.0
 40
11.5
 50
83.534242
 51
89.79702
  0
ARC
  5
1214
  8
0
 10
3375.757482
 20
2335.840008
 30
0.0
 40
0.1
 50
180.290956
 51
269.79702
  0
ARC
  5
1215
  8
0
 10
3378.670976
 20
2335.874662
 30
0.0
 40
0.1
 50
353.624289
 51
84.105772
  0
LINE
  5
1216
  8
0
 10
3378.737042
 20
2335.565402
 30
0.0
 11
3378.770358
 21
2335.863557
 31
0.0
  0
ARC
  5
1217
  8
0
 10
3380.349536
 20
2335.578655
 30
0.0
 40
0.1
 50
75.892157
 51
166.37364
  0
LINE
  5
1218
  8
0
 10
3380.181671
 20
2335.310648
 30
0.0
 11
3380.252351
 21
2335.602214
 31
0.0
  0
ARC
  5
1219
  8
0
 10
3380.084486
 20
2335.334207
 30
0.0
 40
0.1
 50
256.867575
 51
346.37364
  0
ARC
  5
121A
  8
0
 10
3377.448937
 20
2324.037575
 30
0.0
 40
11.5
 50
76.867575
 51
83.130354
  0
ARC
  5
121B
  8
0
 10
3378.836424
 20
2335.554297
 30
0.0
 40
0.1
 50
173.624289
 51
263.130354
  0
ARC
  5
121C
  8
0
 10
3381.734241
 20
2335.25048
 30
0.0
 40
0.1
 50
346.957622
 51
77.439105
  0
LINE
  5
121D
  8
0
 10
3381.763957
 20
2334.935641
 30
0.0
 11
3381.831661
 21
2335.227913
 31
0.0
  0
ARC
  5
121E
  8
0
 10
3383.367087
 20
2334.761606
 30
0.0
 40
0.1
 50
69.22549
 51
159.706973
  0
LINE
  5
121F
  8
0
 10
3383.169243
 20
2334.514899
 30
0.0
 11
3383.273293
 21
2334.796288
 31
0.0
  0
ARC
  5
1220
  8
0
 10
3383.07545
 20
2334.549581
 30
0.0
 40
0.1
 50
250.200908
 51
339.706973
  0
ARC
  5
1221
  8
0
 10
3379.146263
 20
2323.635302
 30
0.0
 40
11.5
 50
70.200908
 51
76.463687
  0
ARC
  5
1222
  8
0
 10
3381.861378
 20
2334.913074
 30
0.0
 40
0.1
 50
166.957622
 51
256.463687
  0
ARC
  5
1223
  8
0
 10
3384.70433
 20
2334.274895
 30
0.0
 40
0.1
 50
340.290956
 51
70.772438
  0
LINE
  5
1224
  8
0
 10
3384.697295
 20
2333.958736
 30
0.0
 11
3384.798472
 21
2334.241171
 31
0.0
  0
ARC
  5
1225
  8
0
 10
3384.791437
 20
2333.925011
 30
0.0
 40
0.1
 50
160.290956
 51
249.79702
  0
ARC
  5
1226
  8
0
 10
3348.895513
 20
2302.239886
 30
0.0
 40
0.1
 50
106.957622
 51
197.439105
  0
LINE
  5
1227
  8
0
 10
3349.153313
 20
2302.42304
 30
0.0
 11
3348.866347
 21
2302.335538
 31
0.0
  0
ARC
  5
1228
  8
0
 10
3348.502468
 20
2303.898409
 30
0.0
 40
0.1
 50
189.22549
 51
279.706973
  0
LINE
  5
1229
  8
0
 10
3348.815044
 20
2303.850425
 30
0.0
 11
3348.519329
 21
2303.79984
 31
0.0
  0
ARC
  5
122A
  8
0
 10
3348.831905
 20
2303.751857
 30
0.0
 40
0.1
 50
10.200908
 51
99.706973
  0
ARC
  5
122B
  8
0
 10
3360.248542
 20
2305.806221
 30
0.0
 40
11.5
 50
190.200908
 51
196.463687
  0
ARC
  5
122C
  8
0
 10
3349.124147
 20
2302.518693
 30
0.0
 40
0.1
 50
286.957622
 51
16.463687
  0
ARC
  5
122D
  8
0
 10
3374.844215
 20
2309.265459
 30
0.0
 40
26.982868
 50
181.80685
 51
184.85803
  0
ARC
  5
122E
  8
0
 10
3374.844215
 20
2309.265459
 30
0.0
 40
26.982868
 50
175.140183
 51
178.191363
  0
ARC
  5
122F
  8
0
 10
3374.844215
 20
2309.265459
 30
0.0
 40
26.982868
 50
168.473516
 51
171.524696
  0
ARC
  5
1230
  8
0
 10
3348.25535
 20
2305.299851
 30
0.0
 40
0.1
 50
100.290956
 51
190.772438
  0
LINE
  5
1231
  8
0
 10
3348.53267
 20
2305.451838
 30
0.0
 11
3348.237485
 21
2305.398242
 31
0.0
  0
ARC
  5
1232
  8
0
 10
3348.057505
 20
2306.992789
 30
0.0
 40
0.1
 50
182.558824
 51
273.040306
  0
LINE
  5
1233
  8
0
 10
3348.362397
 20
2306.908842
 30
0.0
 11
3348.062809
 21
2306.89293
 31
0.0
  0
ARC
  5
1234
  8
0
 10
3348.367701
 20
2306.808983
 30
0.0
 40
0.1
 50
3.534242
 51
93.040306
  0
ARC
  5
1235
  8
0
 10
3359.945639
 20
2307.524065
 30
0.0
 40
11.5
 50
183.534242
 51
189.79702
  0
ARC
  5
1236
  8
0
 10
3348.514805
 20
2305.550229
 30
0.0
 40
0.1
 50
280.290956
 51
9.79702
  0
ARC
  5
1237
  8
0
 10
3347.974755
 20
2308.413444
 30
0.0
 40
0.1
 50
93.624289
 51
184.105772
  0
LINE
  5
1238
  8
0
 10
3348.267845
 20
2308.532208
 30
0.0
 11
3347.968434
 21
2308.513244
 31
0.0
  0
ARC
  5
1239
  8
0
 10
3347.974786
 20
2310.117903
 30
0.0
 40
0.1
 50
175.892157
 51
266.37364
  0
LINE
  5
123A
  8
0
 10
3348.267871
 20
2309.999128
 30
0.0
 11
3347.968461
 21
2310.018103
 31
0.0
  0
ARC
  5
123B
  8
0
 10
3348.261546
 20
2309.899328
 30
0.0
 40
0.1
 50
356.867575
 51
86.37364
  0
ARC
  5
123C
  8
0
 10
3359.844215
 20
2309.265459
 30
0.0
 40
11.5
 50
176.867575
 51
183.130354
  0
ARC
  5
123D
  8
0
 10
3348.261523
 20
2308.632008
 30
0.0
 40
0.1
 50
273.624289
 51
3.130354
  0
ARC
  5
123E
  8
0
 10
3348.057524
 20
2311.538558
 30
0.0
 40
0.1
 50
86.957622
 51
177.439105
  0
LINE
  5
123F
  8
0
 10
3348.362419
 20
2311.622495
 30
0.0
 11
3348.062831
 21
2311.638418
 31
0.0
  0
ARC
  5
1240
  8
0
 10
3348.25543
 20
2313.23149
 30
0.0
 40
0.1
 50
169.22549
 51
259.706973
  0
LINE
  5
1241
  8
0
 10
3348.532745
 20
2313.079492
 30
0.0
 11
3348.237562
 21
2313.133099
 31
0.0
  0
ARC
  5
1242
  8
0
 10
3348.514876
 20
2312.981102
 30
0.0
 40
0.1
 50
350.200908
 51
79.706973
  0
ARC
  5
1243
  8
0
 10
3359.945639
 20
2311.006853
 30
0.0
 40
11.5
 50
170.200908
 51
176.463687
  0
ARC
  5
1244
  8
0
 10
3348.367727
 20
2311.722354
 30
0.0
 40
0.1
 50
266.957622
 51
356.463687
  0
ARC
  5
1245
  8
0
 10
3348.502537
 20
2314.632934
 30
0.0
 40
0.1
 50
80.290956
 51
170.772438
  0
LINE
  5
1246
  8
0
 10
3348.815115
 20
2314.680906
 30
0.0
 11
3348.519401
 21
2314.731501
 31
0.0
  0
ARC
  5
1247
  8
0
 10
3348.895642
 20
2316.291442
 30
0.0
 40
0.1
 50
162.558824
 51
253.040306
  0
LINE
  5
1248
  8
0
 10
3349.153436
 20
2316.108278
 30
0.0
 11
3348.866472
 21
2316.195791
 31
0.0
  0
ARC
  5
1249
  8
0
 10
3349.124266
 20
2316.012627
 30
0.0
 40
0.1
 50
343.534242
 51
73.040306
  0
ARC
  5
124A
  8
0
 10
3360.248542
 20
2312.724697
 30
0.0
 40
11.5
 50
163.534242
 51
169.79702
  0
ARC
  5
124B
  8
0
 10
3348.83198
 20
2314.779474
 30
0.0
 40
0.1
 50
260.290956
 51
349.79702
  0
ARC
  5
124C
  8
0
 10
3374.844215
 20
2309.265459
 30
0.0
 40
26.982868
 50
188.473516
 51
191.524696
  0
ARC
  5
124D
  8
0
 10
3374.844215
 20
2309.265459
 30
0.0
 40
26.982868
 50
135.140183
 51
138.191363
  0
ARC
  5
124E
  8
0
 10
3374.844215
 20
2309.265459
 30
0.0
 40
26.982868
 50
128.473516
 51
131.524696
  0
ARC
  5
124F
  8
0
 10
3374.844215
 20
2309.265459
 30
0.0
 40
26.982868
 50
121.80685
 51
124.85803
  0
ARC
  5
1250
  8
0
 10
3374.844215
 20
2309.265459
 30
0.0
 40
26.982868
 50
115.140183
 51
118.191363
  0
ARC
  5
1251
  8
0
 10
3374.844215
 20
2309.265459
 30
0.0
 40
26.982868
 50
108.473516
 51
111.524696
  0
ARC
  5
1252
  8
0
 10
3374.844215
 20
2309.265459
 30
0.0
 40
26.982868
 50
101.80685
 51
104.85803
  0
ARC
  5
1253
  8
0
 10
3355.785539
 20
2328.224907
 30
0.0
 40
0.1
 50
46.957622
 51
137.439105
  0
LINE
  5
1254
  8
0
 10
3356.073056
 20
2328.093223
 30
0.0
 11
3355.853793
 21
2328.297992
 31
0.0
  0
ARC
  5
1255
  8
0
 10
3357.02534
 20
2329.394556
 30
0.0
 40
0.1
 50
129.22549
 51
219.706973
  0
LINE
  5
1256
  8
0
 10
3357.140073
 20
2329.099865
 30
0.0
 11
3356.948407
 21
2329.33067
 31
0.0
  0
ARC
  5
1257
  8
0
 10
3357.063141
 20
2329.035979
 30
0.0
 40
0.1
 50
310.200908
 51
39.706973
  0
ARC
  5
1258
  8
0
 10
3364.55059
 20
2320.176063
 30
0.0
 40
11.5
 50
130.200908
 51
136.463687
  0
ARC
  5
1259
  8
0
 10
3356.14131
 20
2328.166308
 30
0.0
 40
0.1
 50
226.957622
 51
316.463687
  0
ARC
  5
125A
  8
0
 10
3358.115465
 20
2330.309287
 30
0.0
 40
0.1
 50
40.290956
 51
130.772438
  0
LINE
  5
125B
  8
0
 10
3358.38575
 20
2330.145115
 30
0.0
 11
3358.191742
 21
2330.373954
 31
0.0
  0
ARC
  5
125C
  8
0
 10
3359.48267
 20
2331.327095
 30
0.0
 40
0.1
 50
122.558824
 51
213.040306
  0
LINE
  5
125D
  8
0
 10
3359.562416
 20
2331.021077
 30
0.0
 11
3359.398841
 21
2331.272572
 31
0.0
  0
ARC
  5
125E
  8
0
 10
3359.478587
 20
2330.966554
 30
0.0
 40
0.1
 50
303.534242
 51
33.040306
  0
ARC
  5
125F
  8
0
 10
3365.886836
 20
2321.297307
 30
0.0
 40
11.5
 50
123.534242
 51
129.79702
  0
ARC
  5
1260
  8
0
 10
3358.462027
 20
2330.209782
 30
0.0
 40
0.1
 50
220.290956
 51
309.79702
  0
ARC
  5
1261
  8
0
 10
3360.671618
 20
2332.109086
 30
0.0
 40
0.1
 50
33.624289
 51
124.105772
  0
LINE
  5
1262
  8
0
 10
3360.921016
 20
2331.914645
 30
0.0
 11
3360.754887
 21
2332.16446
 31
0.0
  0
ARC
  5
1263
  8
0
 10
3362.147739
 20
2332.961289
 30
0.0
 40
0.1
 50
115.892157
 51
206.37364
  0
LINE
  5
1264
  8
0
 10
3362.191419
 20
2332.648082
 30
0.0
 11
3362.058147
 21
2332.916867
 31
0.0
  0
ARC
  5
1265
  8
0
 10
3362.101827
 20
2332.60366
 30
0.0
 40
0.1
 50
296.867575
 51
26.37364
  0
ARC
  5
1266
  8
0
 10
3367.344215
 20
2322.25584
 30
0.0
 40
11.5
 50
116.867575
 51
123.130354
  0
ARC
  5
1267
  8
0
 10
3361.004285
 20
2331.97002
 30
0.0
 40
0.1
 50
213.624289
 51
303.130354
  0
ARC
  5
1268
  8
0
 10
3363.419431
 20
2333.599963
 30
0.0
 40
0.1
 50
26.957622
 51
117.439105
  0
LINE
  5
1269
  8
0
 10
3363.64457
 20
2333.377884
 30
0.0
 11
3363.508566
 21
2333.645296
 31
0.0
  0
ARC
  5
126A
  8
0
 10
3364.984506
 20
2334.275037
 30
0.0
 40
0.1
 50
109.22549
 51
199.706973
  0
LINE
  5
126B
  8
0
 10
3364.99153
 20
2333.958877
 30
0.0
 11
3364.890363
 21
2334.241316
 31
0.0
  0
ARC
  5
126C
  8
0
 10
3364.897387
 20
2333.925156
 30
0.0
 40
0.1
 50
290.200908
 51
19.706973
  0
ARC
  5
126D
  8
0
 10
3368.903018
 20
2323.0387
 30
0.0
 40
11.5
 50
110.200908
 51
116.463687
  0
ARC
  5
126E
  8
0
 10
3363.733704
 20
2333.423217
 30
0.0
 40
0.1
 50
206.957622
 51
296.463687
  0
ARC
  5
126F
  8
0
 10
3366.321745
 20
2334.761759
 30
0.0
 40
0.1
 50
20.290956
 51
110.772438
  0
LINE
  5
1270
  8
0
 10
3366.51958
 20
2334.515044
 30
0.0
 11
3366.41554
 21
2334.796437
 31
0.0
  0
ARC
  5
1271
  8
0
 10
3367.954609
 20
2335.250574
 30
0.0
 40
0.1
 50
102.558824
 51
193.040306
  0
LINE
  5
1272
  8
0
 10
3367.924881
 20
2334.935736
 30
0.0
 11
3367.857187
 21
2335.22801
 31
0.0
  0
ARC
  5
1273
  8
0
 10
3367.82746
 20
2334.913172
 30
0.0
 40
0.1
 50
283.534242
 51
13.040306
  0
ARC
  5
1274
  8
0
 10
3370.542166
 20
2323.635302
 30
0.0
 40
11.5
 50
103.534242
 51
109.79702
  0
ARC
  5
1275
  8
0
 10
3366.613374
 20
2334.549723
 30
0.0
 40
0.1
 50
200.290956
 51
289.79702
  0
ARC
  5
1276
  8
0
 10
3369.339311
 20
2335.57876
 30
0.0
 40
0.1
 50
13.624289
 51
104.105772
  0
LINE
  5
1277
  8
0
 10
3369.507166
 20
2335.310746
 30
0.0
 11
3369.436497
 21
2335.602315
 31
0.0
  0
ARC
  5
1278
  8
0
 10
3371.017881
 20
2335.874706
 30
0.0
 40
0.1
 50
95.892157
 51
186.37364
  0
LINE
  5
1279
  8
0
 10
3370.951804
 20
2335.565448
 30
0.0
 11
3370.918499
 21
2335.863605
 31
0.0
  0
ARC
  5
127A
  8
0
 10
3370.852422
 20
2335.554347
 30
0.0
 40
0.1
 50
276.867575
 51
6.37364
  0
ARC
  5
127B
  8
0
 10
3372.239492
 20
2324.037575
 30
0.0
 40
11.5
 50
96.867575
 51
103.130354
  0
ARC
  5
127C
  8
0
 10
3369.604352
 20
2335.334302
 30
0.0
 40
0.1
 50
193.624289
 51
283.130354
  0
ARC
  5
127D
  8
0
 10
3374.844215
 20
2309.265459
 30
0.0
 40
26.982868
 50
141.80685
 51
144.85803
  0
ARC
  5
127E
  8
0
 10
3374.844215
 20
2309.265459
 30
0.0
 40
26.982868
 50
148.473516
 51
151.524696
  0
ARC
  5
127F
  8
0
 10
3374.844215
 20
2309.265459
 30
0.0
 40
26.982868
 50
155.140183
 51
158.191363
  0
ARC
  5
1280
  8
0
 10
3349.303776
 20
2317.654723
 30
0.0
 40
0.1
 50
73.624289
 51
164.105772
  0
LINE
  5
1281
  8
0
 10
3349.619809
 20
2317.666083
 30
0.0
 11
3349.331969
 21
2317.750666
 31
0.0
  0
ARC
  5
1282
  8
0
 10
3349.886764
 20
2319.25638
 30
0.0
 40
0.1
 50
155.892157
 51
246.37364
  0
LINE
  5
1283
  8
0
 10
3350.12155
 20
2319.044527
 30
0.0
 11
3349.846687
 21
2319.164763
 31
0.0
  0
ARC
  5
1284
  8
0
 10
3350.081473
 20
2318.952909
 30
0.0
 40
0.1
 50
336.867575
 51
66.37364
  0
ARC
  5
1285
  8
0
 10
3360.748825
 20
2314.395761
 30
0.0
 40
11.5
 50
156.867575
 51
163.130354
  0
ARC
  5
1286
  8
0
 10
3349.648003
 20
2317.762026
 30
0.0
 40
0.1
 50
253.624289
 51
343.130354
  0
ARC
  5
1287
  8
0
 10
3350.450405
 20
2320.563062
 30
0.0
 40
0.1
 50
66.957622
 51
157.439105
  0
LINE
  5
1288
  8
0
 10
3350.765621
 20
2320.537655
 30
0.0
 11
3350.489546
 21
2320.655083
 31
0.0
  0
ARC
  5
1289
  8
0
 10
3351.215393
 20
2322.086209
 30
0.0
 40
0.1
 50
149.22549
 51
239.706973
  0
LINE
  5
128A
  8
0
 10
3351.423997
 20
2321.848531
 30
0.0
 11
3351.16495
 21
2321.999863
 31
0.0
  0
ARC
  5
128B
  8
0
 10
3351.373555
 20
2321.762185
 30
0.0
 40
0.1
 50
330.200908
 51
59.706973
  0
ARC
  5
128C
  8
0
 10
3361.439725
 20
2315.997447
 30
0.0
 40
11.5
 50
150.200908
 51
156.463687
  0
ARC
  5
128D
  8
0
 10
3350.804762
 20
2320.629677
 30
0.0
 40
0.1
 50
246.957622
 51
336.463687
  0
ARC
  5
128E
  8
0
 10
3351.926919
 20
2323.31862
 30
0.0
 40
0.1
 50
60.290956
 51
150.772438
  0
LINE
  5
128F
  8
0
 10
3352.237054
 20
2323.256791
 30
0.0
 11
3351.976478
 21
2323.405475
 31
0.0
  0
ARC
  5
1290
  8
0
 10
3352.86356
 20
2324.742658
 30
0.0
 40
0.1
 50
142.558824
 51
233.040306
  0
LINE
  5
1291
  8
0
 10
3353.043161
 20
2324.48237
 30
0.0
 11
3352.803435
 21
2324.662752
 31
0.0
  0
ARC
  5
1292
  8
0
 10
3352.983036
 20
2324.402464
 30
0.0
 40
0.1
 50
323.534242
 51
53.040306
  0
ARC
  5
1293
  8
0
 10
3362.311898
 20
2317.508093
 30
0.0
 40
11.5
 50
143.534242
 51
149.79702
  0
ARC
  5
1294
  8
0
 10
3352.286613
 20
2323.343646
 30
0.0
 40
0.1
 50
240.290956
 51
329.79702
  0
ARC
  5
1295
  8
0
 10
3353.71335
 20
2325.884133
 30
0.0
 40
0.1
 50
53.624289
 51
144.105772
  0
LINE
  5
1296
  8
0
 10
3354.01421
 20
2325.786718
 30
0.0
 11
3353.772658
 21
2325.964647
 31
0.0
  0
ARC
  5
1297
  8
0
 10
3354.808979
 20
2327.189805
 30
0.0
 40
0.1
 50
135.892157
 51
226.37364
  0
LINE
  5
1298
  8
0
 10
3354.957148
 20
2326.910426
 30
0.0
 11
3354.739984
 21
2327.11742
 31
0.0
  0
ARC
  5
1299
  8
0
 10
3354.888153
 20
2326.838041
 30
0.0
 40
0.1
 50
316.867575
 51
46.37364
  0
ARC
  5
129A
  8
0
 10
3363.353548
 20
2318.907273
 30
0.0
 40
11.5
 50
136.867575
 51
143.130354
  0
ARC
  5
129B
  8
0
 10
3354.073518
 20
2325.867232
 30
0.0
 40
0.1
 50
233.624289
 51
323.130354
  0
ARC
  5
129C
  8
0
 10
3374.844215
 20
2309.265459
 30
0.0
 40
26.982868
 50
161.80685
 51
164.85803
  0
CIRCLE
  5
129D
  8
0
 10
3374.844215
 20
2309.090459
 30
0.0
 40
3.8
  0
ARC
  5
129E
  8
0
 10
3374.844215
 20
2309.265459
 30
0.0
 40
26.982868
 50
95.140183
 51
98.191363
  0
ARC
  5
129F
  8
0
 10
3346.844215
 20
2283.515459
 30
0.0
 40
2.0
 50
180.0
 51
270.0
  0
ARC
  5
12A0
  8
0
 10
3380.785411
 20
2295.492217
 30
0.0
 40
11.5
 50
290.200908
 51
296.463687
  0
ARC
  5
12A1
  8
0
 10
3374.844215
 20
2309.265459
 30
0.0
 40
26.982868
 50
288.473516
 51
291.524696
  0
ARC
  5
12A2
  8
0
 10
3374.844215
 20
2309.265459
 30
0.0
 40
26.982868
 50
281.80685
 51
284.85803
  0
ARC
  5
12A3
  8
0
 10
3374.844215
 20
2309.265459
 30
0.0
 40
26.982868
 50
275.140183
 51
278.191363
  0
ARC
  5
12A4
  8
0
 10
3374.844215
 20
2309.265459
 30
0.0
 40
26.982868
 50
268.473516
 51
271.524696
  0
ARC
  5
12A5
  8
0
 10
3384.703924
 20
2284.255881
 30
0.0
 40
0.1
 50
289.22549
 51
19.706973
  0
LINE
  5
12A6
  8
0
 10
3384.6969
 20
2284.572041
 30
0.0
 11
3384.798067
 21
2284.289602
 31
0.0
  0
ARC
  5
12A7
  8
0
 10
3384.791043
 20
2284.605762
 30
0.0
 40
0.1
 50
110.200908
 51
199.706973
  0
ARC
  5
12A8
  8
0
 10
3383.366684
 20
2283.769159
 30
0.0
 40
0.1
 50
200.290956
 51
290.772438
  0
LINE
  5
12A9
  8
0
 10
3383.16885
 20
2284.015874
 30
0.0
 11
3383.27289
 21
2283.73448
 31
0.0
  0
ARC
  5
12AA
  8
0
 10
3381.733821
 20
2283.280344
 30
0.0
 40
0.1
 50
282.558824
 51
13.040306
  0
LINE
  5
12AB
  8
0
 10
3381.763549
 20
2283.595182
 30
0.0
 11
3381.831242
 21
2283.302908
 31
0.0
  0
ARC
  5
12AC
  8
0
 10
3381.86097
 20
2283.617745
 30
0.0
 40
0.1
 50
103.534242
 51
193.040306
  0
ARC
  5
12AD
  8
0
 10
3379.146263
 20
2294.895616
 30
0.0
 40
11.5
 50
283.534242
 51
289.79702
  0
ARC
  5
12AE
  8
0
 10
3383.075056
 20
2283.981195
 30
0.0
 40
0.1
 50
20.290956
 51
109.79702
  0
ARC
  5
12AF
  8
0
 10
3380.349119
 20
2282.952158
 30
0.0
 40
0.1
 50
193.624289
 51
284.105772
  0
LINE
  5
12B0
  8
0
 10
3380.181264
 20
2283.220171
 30
0.0
 11
3380.251933
 21
2282.928602
 31
0.0
  0
ARC
  5
12B1
  8
0
 10
3378.670548
 20
2282.656212
 30
0.0
 40
0.1
 50
275.892157
 51
6.37364
  0
LINE
  5
12B2
  8
0
 10
3378.736625
 20
2282.965469
 30
0.0
 11
3378.76993
 21
2282.667313
 31
0.0
  0
ARC
  5
12B3
  8
0
 10
3378.836007
 20
2282.976571
 30
0.0
 40
0.1
 50
96.867575
 51
186.37364
  0
ARC
  5
12B4
  8
0
 10
3377.448937
 20
2294.493343
 30
0.0
 40
11.5
 50
276.867575
 51
283.130354
  0
ARC
  5
12B5
  8
0
 10
3380.084078
 20
2283.196616
 30
0.0
 40
0.1
 50
13.624289
 51
103.130354
  0
ARC
  5
12B6
  8
0
 10
3377.257109
 20
2282.490998
 30
0.0
 40
0.1
 50
186.957622
 51
277.439105
  0
LINE
  5
12B7
  8
0
 10
3377.121503
 20
2282.776687
 30
0.0
 11
3377.157845
 21
2282.478885
 31
0.0
  0
ARC
  5
12B8
  8
0
 10
3375.555531
 20
2282.391924
 30
0.0
 40
0.1
 50
269.22549
 51
359.706973
  0
LINE
  5
12B9
  8
0
 10
3375.657064
 20
2282.691419
 30
0.0
 11
3375.65553
 21
2282.391412
 31
0.0
  0
ARC
  5
12BA
  8
0
 10
3375.757063
 20
2282.690908
 30
0.0
 40
0.1
 50
90.200908
 51
179.706973
  0
ARC
  5
12BB
  8
0
 10
3375.716387
 20
2294.290836
 30
0.0
 40
11.5
 50
270.200908
 51
276.463687
  0
ARC
  5
12BC
  8
0
 10
3377.02224
 20
2282.764573
 30
0.0
 40
0.1
 50
6.957622
 51
96.463687
  0
ARC
  5
12BD
  8
0
 10
3374.132468
 20
2282.391918
 30
0.0
 40
0.1
 50
180.290956
 51
270.772438
  0
LINE
  5
12BE
  8
0
 10
3374.030946
 20
2282.691417
 30
0.0
 11
3374.03247
 21
2282.39141
 31
0.0
  0
ARC
  5
12BF
  8
0
 10
3372.430894
 20
2282.491054
 30
0.0
 40
0.1
 50
262.558824
 51
353.040306
  0
LINE
  5
12C0
  8
0
 10
3372.56651
 20
2282.776737
 30
0.0
 11
3372.530157
 21
2282.478937
 31
0.0
  0
ARC
  5
12C1
  8
0
 10
3372.665773
 20
2282.76462
 30
0.0
 40
0.1
 50
83.534242
 51
173.040306
  0
ARC
  5
12C2
  8
0
 10
3373.972042
 20
2294.290836
 30
0.0
 40
11.5
 50
263.534242
 51
269.79702
  0
ARC
  5
12C3
  8
0
 10
3373.930948
 20
2282.690909
 30
0.0
 40
0.1
 50
0.290956
 51
89.79702
  0
ARC
  5
12C7
  8
0
 10
3374.844215
 20
2309.265459
 30
0.0
 40
26.982868
 50
235.140183
 51
238.191363
  0
ARC
  5
12C8
  8
0
 10
3374.844215
 20
2309.265459
 30
0.0
 40
26.982868
 50
201.80685
 51
204.85803
  0
ARC
  5
12C9
  8
0
 10
3349.886588
 20
2299.27493
 30
0.0
 40
0.1
 50
113.624289
 51
204.105772
  0
LINE
  5
12CA
  8
0
 10
3350.121382
 20
2299.486775
 30
0.0
 11
3349.846515
 21
2299.366549
 31
0.0
  0
ARC
  5
12CB
  8
0
 10
3349.303658
 20
2300.876609
 30
0.0
 40
0.1
 50
195.892157
 51
286.37364
  0
LINE
  5
12CC
  8
0
 10
3349.619691
 20
2300.865237
 30
0.0
 11
3349.331848
 21
2300.780664
 31
0.0
  0
ARC
  5
12CD
  8
0
 10
3349.647881
 20
2300.769293
 30
0.0
 40
0.1
 50
16.867575
 51
106.37364
  0
ARC
  5
12CE
  8
0
 10
3360.748825
 20
2304.135157
 30
0.0
 40
11.5
 50
196.867575
 51
203.130354
  0
ARC
  5
12CF
  8
0
 10
3350.081309
 20
2299.578394
 30
0.0
 40
0.1
 50
293.624289
 51
23.130354
  0
ARC
  5
12D0
  8
0
 10
3374.844215
 20
2309.265459
 30
0.0
 40
26.982868
 50
228.473516
 51
231.524696
  0
ARC
  5
12D1
  8
0
 10
3374.844215
 20
2309.265459
 30
0.0
 40
26.982868
 50
221.80685
 51
224.85803
  0
ARC
  5
12D2
  8
0
 10
3374.844215
 20
2309.265459
 30
0.0
 40
26.982868
 50
215.140183
 51
218.191363
  0
ARC
  5
12D3
  8
0
 10
3374.844215
 20
2309.265459
 30
0.0
 40
26.982868
 50
208.473516
 51
211.524696
  0
ARC
  5
12D4
  8
0
 10
3359.482307
 20
2287.204054
 30
0.0
 40
0.1
 50
146.957622
 51
237.439105
  0
LINE
  5
12D5
  8
0
 10
3359.562064
 20
2287.510069
 30
0.0
 11
3359.398481
 21
2287.25858
 31
0.0
  0
ARC
  5
12D6
  8
0
 10
3358.115139
 20
2288.221911
 30
0.0
 40
0.1
 50
229.22549
 51
319.706973
  0
LINE
  5
12D7
  8
0
 10
3358.38543
 20
2288.386074
 30
0.0
 11
3358.191414
 21
2288.157242
 31
0.0
  0
ARC
  5
12D8
  8
0
 10
3358.461705
 20
2288.321404
 30
0.0
 40
0.1
 50
50.200908
 51
139.706973
  0
ARC
  5
12D9
  8
0
 10
3365.886836
 20
2297.233611
 30
0.0
 40
11.5
 50
230.200908
 51
236.463687
  0
ARC
  5
12DA
  8
0
 10
3359.478238
 20
2287.564595
 30
0.0
 40
0.1
 50
326.957622
 51
56.463687
  0
ARC
  5
12DB
  8
0
 10
3357.025006
 20
2289.136634
 30
0.0
 40
0.1
 50
140.290956
 51
230.772438
  0
LINE
  5
12DC
  8
0
 10
3357.13975
 20
2289.431321
 30
0.0
 11
3356.948076
 21
2289.200523
 31
0.0
  0
ARC
  5
12DD
  8
0
 10
3355.785248
 20
2290.306327
 30
0.0
 40
0.1
 50
222.558824
 51
313.040306
  0
LINE
  5
12DE
  8
0
 10
3356.07277
 20
2290.438001
 30
0.0
 11
3355.8535
 21
2290.23324
 31
0.0
  0
ARC
  5
12DF
  8
0
 10
3356.141021
 20
2290.364914
 30
0.0
 40
0.1
 50
43.534242
 51
133.040306
  0
ARC
  5
12E0
  8
0
 10
3364.55059
 20
2298.354854
 30
0.0
 40
11.5
 50
223.534242
 51
229.79702
  0
ARC
  5
12E1
  8
0
 10
3357.06282
 20
2289.49521
 30
0.0
 40
0.1
 50
320.290956
 51
49.79702
  0
ARC
  5
12E2
  8
0
 10
3354.808679
 20
2291.341422
 30
0.0
 40
0.1
 50
133.624289
 51
224.105772
  0
LINE
  5
12E3
  8
0
 10
3354.956858
 20
2291.620795
 30
0.0
 11
3354.739687
 21
2291.41381
 31
0.0
  0
ARC
  5
12E4
  8
0
 10
3353.713098
 20
2292.647133
 30
0.0
 40
0.1
 50
215.892157
 51
306.37364
  0
LINE
  5
12E5
  8
0
 10
3354.013961
 20
2292.744538
 30
0.0
 11
3353.772402
 21
2292.566617
 31
0.0
  0
ARC
  5
12E6
  8
0
 10
3354.073266
 20
2292.664021
 30
0.0
 40
0.1
 50
36.867575
 51
126.37364
  0
ARC
  5
12E7
  8
0
 10
3363.353548
 20
2299.623645
 30
0.0
 40
11.5
 50
216.867575
 51
223.130354
  0
ARC
  5
12E8
  8
0
 10
3354.887866
 20
2291.693183
 30
0.0
 40
0.1
 50
313.624289
 51
43.130354
  0
ARC
  5
12E9
  8
0
 10
3352.863299
 20
2293.788601
 30
0.0
 40
0.1
 50
126.957622
 51
217.439105
  0
LINE
  5
12EA
  8
0
 10
3353.042909
 20
2294.048883
 30
0.0
 11
3352.803176
 21
2293.868509
 31
0.0
  0
ARC
  5
12EB
  8
0
 10
3351.926709
 20
2295.212673
 30
0.0
 40
0.1
 50
209.22549
 51
299.706973
  0
LINE
  5
12EC
  8
0
 10
3352.236846
 20
2295.274491
 30
0.0
 11
3351.976265
 21
2295.125816
 31
0.0
  0
ARC
  5
12ED
  8
0
 10
3352.286402
 20
2295.187634
 30
0.0
 40
0.1
 50
30.200908
 51
119.706973
  0
ARC
  5
12EE
  8
0
 10
3362.311898
 20
2301.022824
 30
0.0
 40
11.5
 50
210.200908
 51
216.463687
  0
ARC
  5
12EF
  8
0
 10
3352.982787
 20
2294.128791
 30
0.0
 40
0.1
 50
306.957622
 51
36.463687
  0
ARC
  5
12F0
  8
0
 10
3351.215172
 20
2296.445079
 30
0.0
 40
0.1
 50
120.290956
 51
210.772438
  0
LINE
  5
12F1
  8
0
 10
3351.423785
 20
2296.682749
 30
0.0
 11
3351.164733
 21
2296.531426
 31
0.0
  0
ARC
  5
12F2
  8
0
 10
3350.45024
 20
2297.968253
 30
0.0
 40
0.1
 50
202.558824
 51
293.040306
  0
LINE
  5
12F3
  8
0
 10
3350.765457
 20
2297.993648
 30
0.0
 11
3350.489378
 21
2297.87623
 31
0.0
  0
ARC
  5
12F4
  8
0
 10
3350.804595
 20
2297.901625
 30
0.0
 40
0.1
 50
23.534242
 51
113.040306
  0
ARC
  5
12F5
  8
0
 10
3361.439725
 20
2302.533471
 30
0.0
 40
11.5
 50
203.534242
 51
209.79702
  0
ARC
  5
12F6
  8
0
 10
3351.373346
 20
2296.769097
 30
0.0
 40
0.1
 50
300.290956
 51
29.79702
  0
ARC
  5
12F7
  8
0
 10
3374.844215
 20
2309.265459
 30
0.0
 40
26.982868
 50
255.140183
 51
258.191363
  0
ARC
  5
12F8
  8
0
 10
3374.844215
 20
2309.265459
 30
0.0
 40
26.982868
 50
248.473516
 51
251.524696
  0
ARC
  5
12F9
  8
0
 10
3374.844215
 20
2309.265459
 30
0.0
 40
26.982868
 50
241.80685
 51
244.85803
  0
ARC
  5
12FA
  8
0
 10
3371.017453
 20
2282.656256
 30
0.0
 40
0.1
 50
173.624289
 51
264.105772
  0
LINE
  5
12FB
  8
0
 10
3370.951387
 20
2282.965516
 30
0.0
 11
3370.918072
 21
2282.667361
 31
0.0
  0
ARC
  5
12FC
  8
0
 10
3369.338894
 20
2282.952262
 30
0.0
 40
0.1
 50
255.892157
 51
346.37364
  0
LINE
  5
12FD
  8
0
 10
3369.506758
 20
2283.22027
 30
0.0
 11
3369.436079
 21
2282.928704
 31
0.0
  0
ARC
  5
12FE
  8
0
 10
3369.603943
 20
2283.196711
 30
0.0
 40
0.1
 50
76.867575
 51
166.37364
  0
ARC
  5
12FF
  8
0
 10
3372.239492
 20
2294.493343
 30
0.0
 40
11.5
 50
256.867575
 51
263.130354
  0
ARC
  5
1300
  8
0
 10
3370.852006
 20
2282.976621
 30
0.0
 40
0.1
 50
353.624289
 51
83.130354
  0
ARC
  5
1301
  8
0
 10
3367.954189
 20
2283.280438
 30
0.0
 40
0.1
 50
166.957622
 51
257.439105
  0
LINE
  5
1302
  8
0
 10
3367.924472
 20
2283.595276
 30
0.0
 11
3367.856768
 21
2283.303005
 31
0.0
  0
ARC
  5
1303
  8
0
 10
3366.321343
 20
2283.769312
 30
0.0
 40
0.1
 50
249.22549
 51
339.706973
  0
LINE
  5
1304
  8
0
 10
3366.519186
 20
2284.016019
 30
0.0
 11
3366.415136
 21
2283.73463
 31
0.0
  0
ARC
  5
1305
  8
0
 10
3366.612979
 20
2283.981337
 30
0.0
 40
0.1
 50
70.200908
 51
159.706973
  0
ARC
  5
1306
  8
0
 10
3370.542166
 20
2294.895616
 30
0.0
 40
11.5
 50
250.200908
 51
256.463687
  0
ARC
  5
1307
  8
0
 10
3367.827052
 20
2283.617844
 30
0.0
 40
0.1
 50
346.957622
 51
76.463687
  0
ARC
  5
1308
  8
0
 10
3364.9841
 20
2284.256022
 30
0.0
 40
0.1
 50
160.290956
 51
250.772438
  0
LINE
  5
1309
  8
0
 10
3364.991135
 20
2284.572182
 30
0.0
 11
3364.889958
 21
2284.289747
 31
0.0
  0
ARC
  5
130A
  8
0
 10
3363.41905
 20
2284.931153
 30
0.0
 40
0.1
 50
242.558824
 51
333.040306
  0
LINE
  5
130B
  8
0
 10
3363.644196
 20
2285.153224
 30
0.0
 11
3363.508182
 21
2284.885816
 31
0.0
  0
ARC
  5
130C
  8
0
 10
3363.733329
 20
2285.107887
 30
0.0
 40
0.1
 50
63.534242
 51
153.040306
  0
ARC
  5
130D
  8
0
 10
3368.903018
 20
2295.492217
 30
0.0
 40
11.5
 50
243.534242
 51
249.79702
  0
ARC
  5
130E
  8
0
 10
3364.896993
 20
2284.605906
 30
0.0
 40
0.1
 50
340.290956
 51
69.79702
  0
ARC
  5
130F
  8
0
 10
3362.147352
 20
2285.569817
 30
0.0
 40
0.1
 50
153.624289
 51
244.105772
  0
LINE
  5
1310
  8
0
 10
3362.191043
 20
2285.883022
 30
0.0
 11
3362.057762
 21
2285.614242
 31
0.0
  0
ARC
  5
1311
  8
0
 10
3360.671262
 20
2286.422073
 30
0.0
 40
0.1
 50
235.892157
 51
326.37364
  0
LINE
  5
1312
  8
0
 10
3360.920667
 20
2286.616505
 30
0.0
 11
3360.754529
 21
2286.366696
 31
0.0
  0
ARC
  5
1313
  8
0
 10
3361.003934
 20
2286.561127
 30
0.0
 40
0.1
 50
56.867575
 51
146.37364
  0
ARC
  5
1314
  8
0
 10
3367.344215
 20
2296.275078
 30
0.0
 40
11.5
 50
236.867575
 51
243.130354
  0
ARC
  5
1315
  8
0
 10
3362.101453
 20
2285.927448
 30
0.0
 40
0.1
 50
333.624289
 51
63.130354
  0
LINE
  5
1316
  8
0
 10
3382.044215
 20
2281.515459
 30
0.0
 11
3353.044215
 21
2281.515459
 31
0.0
  0
ARC
  5
1317
  8
0
 10
3374.844215
 20
2309.265459
 30
0.0
 40
26.982868
 50
261.80685
 51
264.85803
  0
ARC
  5
1318
  8
0
 10
3418.457544
 20
2437.837457
 30
0.0
 40
15.658179
 50
309.954172
 51
36.751115
  0
ARC
  5
1319
  8
0
 10
3418.457544
 20
2437.837457
 30
0.0
 40
12.658179
 50
299.562574
 51
49.562574
  0
ARC
  5
131A
  8
0
 10
3406.178526
 20
2474.310789
 30
0.0
 40
12.765394
 50
9.19169
 51
76.714342
  0
ARC
  5
131B
  8
0
 10
3397.432682
 20
2490.18675
 30
0.0
 40
12.178933
 50
343.533309
 51
55.001622
  0
ARC
  5
131C
  8
0
 10
3397.432682
 20
2490.18675
 30
0.0
 40
9.178933
 50
316.304028
 51
66.304028
  0
LINE
  5
131D
  8
0
 10
3391.170766
 20
2511.883504
 30
0.0
 11
3391.296034
 21
2510.388744
 31
0.0
  0
ARC
  5
131E
  8
0
 10
3392.078639
 20
2501.050332
 30
0.0
 40
12.371148
 50
355.888482
 51
70.055325
  0
ARC
  5
131F
  8
0
 10
3392.078639
 20
2501.050332
 30
0.0
 40
9.371148
 50
344.790476
 51
94.790476
  0
ARC
  5
1320
  8
0
 10
3421.652267
 20
2455.680399
 30
0.0
 40
12.619641
 50
317.817454
 51
44.373513
  0
ARC
  5
1321
  8
0
 10
3418.313315
 20
2463.988474
 30
0.0
 40
12.370241
 50
2.396498
 51
87.837894
  0
ARC
  5
1322
  8
0
 10
3406.178526
 20
2474.310789
 30
0.0
 40
9.765394
 50
352.47424
 51
102.47424
  0
ARC
  5
1323
  8
0
 10
3418.313315
 20
2463.988474
 30
0.0
 40
9.370241
 50
355.179325
 51
105.179325
  0
ARC
  5
1324
  8
0
 10
3421.652267
 20
2455.680399
 30
0.0
 40
9.619641
 50
301.425568
 51
51.425568
  0
LINE
  5
1325
  8
0
 10
3404.844215
 20
2361.26724
 30
0.0
 11
3404.844215
 21
2283.515459
 31
0.0
  0
LINE
  5
1326
  8
0
 10
3392.767064
 20
2359.26724
 30
0.0
 11
3401.283072
 21
2314.656374
 31
0.0
  0
ARC
  5
1327
  8
0
 10
3404.998893
 20
2402.593381
 30
0.0
 40
10.216333
 50
269.13249
 51
14.778791
  0
ARC
  5
1328
  8
0
 10
3404.998893
 20
2402.593381
 30
0.0
 40
13.216333
 50
269.328503
 51
1.809965
  0
LINE
  5
1329
  8
0
 10
3404.844215
 20
2417.265459
 30
0.0
 11
3404.844215
 21
2361.26724
 31
0.0
  0
ARC
  5
132A
  8
0
 10
3412.218061
 20
2419.453246
 30
0.0
 40
17.499729
 50
290.01851
 51
21.38614
  0
ARC
  5
132B
  8
0
 10
3412.218061
 20
2419.453246
 30
0.0
 40
14.499729
 50
280.567612
 51
30.567612
  0
ARC
  5
132C
  8
0
 10
3402.844215
 20
2417.265459
 30
0.0
 40
2.0
 50
360.0
 51
90.0
  0
CIRCLE
  5
132D
  8
0
 10
3399.094215
 20
2412.765459
 30
0.0
 40
3.0
  0
ARC
  5
132E
  8
0
 10
3402.844215
 20
2361.26724
 30
0.0
 40
2.0
 50
270.0
 51
360.0
  0
CIRCLE
  5
132F
  8
0
 10
3399.110579
 20
2365.76724
 30
0.0
 40
3.0
  0
ARC
  5
1330
  8
0
  6
DASHED
 10
3374.844215
 20
2389.265459
 30
0.0
 40
12.0
 50
349.105772
 51
355.892157
  0
ARC
  5
1331
  8
0
  6
DASHED
 10
3374.844215
 20
2389.265459
 30
0.0
 40
12.0
 50
4.105772
 51
10.892157
  0
ARC
  5
1332
  8
0
  6
DASHED
 10
3386.196185
 20
2386.879504
 30
0.0
 40
0.1
 50
78.624289
 51
168.130354
  0
ARC
  5
1333
  8
0
  6
DASHED
 10
3386.088574
 20
2385.370027
 30
0.0
 40
0.1
 50
340.892157
 51
71.37364
  0
LINE
  5
1334
  8
0
  6
DASHED
 10
3386.215909
 20
2386.977539
 30
0.0
 11
3386.510026
 21
2386.918365
 31
0.0
  0
ARC
  5
1335
  8
0
  6
DASHED
 10
3386.52975
 20
2387.0164
 30
0.0
 40
0.1
 50
258.624289
 51
349.105772
  0
ARC
  5
1336
  8
0
  6
DASHED
 10
3386.196271
 20
2391.651003
 30
0.0
 40
0.1
 50
191.867575
 51
281.37364
  0
LINE
  5
1337
  8
0
  6
DASHED
 10
3386.215991
 20
2391.552967
 30
0.0
 11
3386.510111
 21
2391.612131
 31
0.0
  0
ARC
  5
1338
  8
0
  6
DASHED
 10
3386.529831
 20
2391.514095
 30
0.0
 40
0.1
 50
10.892157
 51
101.37364
  0
ARC
  5
1339
  8
0
  6
DASHED
 10
3386.088715
 20
2393.160485
 30
0.0
 40
0.1
 50
288.624289
 51
19.105772
  0
ARC
  5
133A
  8
0
  6
DASHED
 10
3386.713674
 20
2390.117474
 30
0.0
 40
0.1
 50
273.624289
 51
4.105772
  0
LINE
  5
133B
  8
0
  6
DASHED
 10
3386.420585
 20
2389.998709
 30
0.0
 11
3386.719996
 21
2390.017674
 31
0.0
  0
ARC
  5
133C
  8
0
  6
DASHED
 10
3386.713644
 20
2388.413014
 30
0.0
 40
0.1
 50
355.892157
 51
86.37364
  0
LINE
  5
133D
  8
0
  6
DASHED
 10
3386.420558
 20
2388.53179
 30
0.0
 11
3386.719968
 21
2388.512814
 31
0.0
  0
ARC
  5
133E
  8
0
  6
DASHED
 10
3386.426883
 20
2388.63159
 30
0.0
 40
0.1
 50
176.867575
 51
266.37364
  0
ARC
  5
133F
  8
0
  6
DASHED
 10
3374.844215
 20
2389.265459
 30
0.0
 40
11.5
 50
356.867575
 51
3.130354
  0
ARC
  5
1340
  8
0
  6
DASHED
 10
3386.426906
 20
2389.898909
 30
0.0
 40
0.1
 50
93.624289
 51
183.130354
  0
ARC
  5
1341
  8
0
 10
3374.844215
 20
2309.265459
 30
0.0
 40
26.982868
 50
341.80685
 51
344.85803
  0
LINE
  5
1342
  8
0
 10
3400.534994
 20
2302.422639
 30
0.0
 11
3400.821957
 21
2302.335127
 31
0.0
  0
ARC
  5
1343
  8
0
 10
3389.439888
 20
2305.806221
 30
0.0
 40
11.5
 50
343.534242
 51
349.79702
  0
LINE
  5
1344
  8
0
 10
3400.535116
 20
2316.107877
 30
0.0
 11
3400.822083
 21
2316.19538
 31
0.0
  0
ARC
  5
1345
  8
0
 10
3389.439888
 20
2312.724697
 30
0.0
 40
11.5
 50
10.200908
 51
16.463687
  0
ARC
  5
1346
  8
0
 10
3400.564164
 20
2302.51829
 30
0.0
 40
0.1
 50
163.534242
 51
253.040306
  0
ARC
  5
1347
  8
0
 10
3400.564283
 20
2316.012225
 30
0.0
 40
0.1
 50
106.957622
 51
196.463687
  0
ARC
  5
1348
  8
0
 10
3401.185893
 20
2303.897984
 30
0.0
 40
0.1
 50
260.290956
 51
350.772438
  0
LINE
  5
1349
  8
0
 10
3400.873315
 20
2303.850012
 30
0.0
 11
3401.169028
 21
2303.799416
 31
0.0
  0
ARC
  5
134A
  8
0
 10
3400.792787
 20
2302.239475
 30
0.0
 40
0.1
 50
342.558824
 51
73.040306
  0
ARC
  5
134B
  8
0
 10
3400.85645
 20
2303.751444
 30
0.0
 40
0.1
 50
80.290956
 51
169.79702
  0
ARC
  5
134C
  8
0
 10
3374.844215
 20
2309.265459
 30
0.0
 40
26.982868
 50
8.473516
 51
11.524696
  0
ARC
  5
134D
  8
0
 10
3374.844215
 20
2309.265459
 30
0.0
 40
26.982868
 50
1.80685
 51
4.85803
  0
ARC
  5
134E
  8
0
 10
3374.844215
 20
2309.265459
 30
0.0
 40
26.982868
 50
355.140183
 51
358.191363
  0
ARC
  5
134F
  8
0
 10
3401.630906
 20
2306.992359
 30
0.0
 40
0.1
 50
266.957622
 51
357.439105
  0
LINE
  5
1350
  8
0
 10
3401.32601
 20
2306.908423
 30
0.0
 11
3401.625598
 21
2306.8925
 31
0.0
  0
ARC
  5
1351
  8
0
 10
3401.432999
 20
2305.299428
 30
0.0
 40
0.1
 50
349.22549
 51
79.706973
  0
LINE
  5
1352
  8
0
 10
3401.155685
 20
2305.451425
 30
0.0
 11
3401.450868
 21
2305.397819
 31
0.0
  0
ARC
  5
1353
  8
0
 10
3401.173553
 20
2305.549816
 30
0.0
 40
0.1
 50
170.200908
 51
259.706973
  0
ARC
  5
1354
  8
0
 10
3389.74279
 20
2307.524065
 30
0.0
 40
11.5
 50
350.200908
 51
356.463687
  0
ARC
  5
1355
  8
0
 10
3401.320703
 20
2306.808564
 30
0.0
 40
0.1
 50
86.957622
 51
176.463687
  0
ARC
  5
1356
  8
0
 10
3400.792916
 20
2316.291032
 30
0.0
 40
0.1
 50
286.957622
 51
17.439105
  0
ARC
  5
1357
  8
0
 10
3401.185962
 20
2314.632509
 30
0.0
 40
0.1
 50
9.22549
 51
99.706973
  0
LINE
  5
1358
  8
0
 10
3400.873385
 20
2314.680493
 30
0.0
 11
3401.169101
 21
2314.731077
 31
0.0
  0
ARC
  5
1359
  8
0
 10
3400.856524
 20
2314.779061
 30
0.0
 40
0.1
 50
190.200908
 51
279.706973
  0
ARC
  5
135A
  8
0
 10
3401.43308
 20
2313.231067
 30
0.0
 40
0.1
 50
280.290956
 51
10.772438
  0
LINE
  5
135B
  8
0
 10
3401.15576
 20
2313.07908
 30
0.0
 11
3401.450944
 21
2313.132676
 31
0.0
  0
ARC
  5
135C
  8
0
 10
3401.630925
 20
2311.538129
 30
0.0
 40
0.1
 50
2.558824
 51
93.040306
  0
LINE
  5
135D
  8
0
 10
3401.326032
 20
2311.622076
 30
0.0
 11
3401.625621
 21
2311.637988
 31
0.0
  0
ARC
  5
135E
  8
0
 10
3401.320729
 20
2311.721935
 30
0.0
 40
0.1
 50
183.534242
 51
273.040306
  0
ARC
  5
135F
  8
0
 10
3389.74279
 20
2311.006853
 30
0.0
 40
11.5
 50
3.534242
 51
9.79702
  0
ARC
  5
1360
  8
0
 10
3401.173624
 20
2312.980688
 30
0.0
 40
0.1
 50
100.290956
 51
189.79702
  0
ARC
  5
1361
  8
0
 10
3401.426906
 20
2309.898909
 30
0.0
 40
0.1
 50
93.624289
 51
183.130354
  0
ARC
  5
1362
  8
0
 10
3389.844215
 20
2309.265459
 30
0.0
 40
11.5
 50
356.867575
 51
3.130354
  0
ARC
  5
1363
  8
0
 10
3401.426883
 20
2308.63159
 30
0.0
 40
0.1
 50
176.867575
 51
266.37364
  0
LINE
  5
1364
  8
0
 10
3401.420558
 20
2308.53179
 30
0.0
 11
3401.719968
 21
2308.512814
 31
0.0
  0
ARC
  5
1365
  8
0
 10
3401.713644
 20
2308.413014
 30
0.0
 40
0.1
 50
355.892157
 51
86.37364
  0
LINE
  5
1366
  8
0
 10
3401.420585
 20
2309.998709
 30
0.0
 11
3401.719996
 21
2310.017674
 31
0.0
  0
ARC
  5
1367
  8
0
 10
3401.713674
 20
2310.117474
 30
0.0
 40
0.1
 50
273.624289
 51
4.105772
  0
ARC
  5
1368
  8
0
 10
3374.844215
 20
2309.265459
 30
0.0
 40
26.982868
 50
348.473516
 51
351.524696
  0
ARC
  5
1369
  8
0
 10
3374.844215
 20
2309.265459
 30
0.0
 40
26.982868
 50
41.80685
 51
44.85803
  0
ARC
  5
136A
  8
0
 10
3374.844215
 20
2309.265459
 30
0.0
 40
26.982868
 50
61.80685
 51
64.85803
  0
ARC
  5
136B
  8
0
 10
3374.844215
 20
2309.265459
 30
0.0
 40
26.982868
 50
55.140183
 51
58.191363
  0
ARC
  5
136C
  8
0
 10
3374.844215
 20
2309.265459
 30
0.0
 40
26.982868
 50
48.473516
 51
51.524696
  0
ARC
  5
136D
  8
0
 10
3386.26938
 20
2333.599765
 30
0.0
 40
0.1
 50
62.558824
 51
153.040306
  0
ARC
  5
136E
  8
0
 10
3387.541078
 20
2332.961101
 30
0.0
 40
0.1
 50
333.624289
 51
64.105772
  0
LINE
  5
136F
  8
0
 10
3387.497386
 20
2332.647896
 30
0.0
 11
3387.630668
 21
2332.916675
 31
0.0
  0
ARC
  5
1370
  8
0
 10
3389.017168
 20
2332.108845
 30
0.0
 40
0.1
 50
55.892157
 51
146.37364
  0
LINE
  5
1371
  8
0
 10
3388.767763
 20
2331.914413
 30
0.0
 11
3388.933901
 21
2332.164222
 31
0.0
  0
ARC
  5
1372
  8
0
 10
3388.684496
 20
2331.96979
 30
0.0
 40
0.1
 50
236.867575
 51
326.37364
  0
ARC
  5
1373
  8
0
 10
3382.344215
 20
2322.25584
 30
0.0
 40
11.5
 50
56.867575
 51
63.130354
  0
ARC
  5
1374
  8
0
 10
3387.586976
 20
2332.60347
 30
0.0
 40
0.1
 50
153.624289
 51
243.130354
  0
ARC
  5
1375
  8
0
 10
3390.206122
 20
2331.326864
 30
0.0
 40
0.1
 50
326.957622
 51
57.439105
  0
LINE
  5
1376
  8
0
 10
3390.126365
 20
2331.020848
 30
0.0
 11
3390.289949
 21
2331.272338
 31
0.0
  0
ARC
  5
1377
  8
0
 10
3391.57329
 20
2330.309006
 30
0.0
 40
0.1
 50
49.22549
 51
139.706973
  0
LINE
  5
1378
  8
0
 10
3391.303
 20
2330.144844
 30
0.0
 11
3391.497016
 21
2330.373676
 31
0.0
  0
ARC
  5
1379
  8
0
 10
3391.226725
 20
2330.209513
 30
0.0
 40
0.1
 50
230.200908
 51
319.706973
  0
ARC
  5
137A
  8
0
 10
3383.801594
 20
2321.297307
 30
0.0
 40
11.5
 50
50.200908
 51
56.463687
  0
ARC
  5
137B
  8
0
 10
3390.210192
 20
2330.966323
 30
0.0
 40
0.1
 50
146.957622
 51
236.463687
  0
ARC
  5
137C
  8
0
 10
3392.663423
 20
2329.394284
 30
0.0
 40
0.1
 50
320.290956
 51
50.772438
  0
LINE
  5
137D
  8
0
 10
3392.548679
 20
2329.099597
 30
0.0
 11
3392.740353
 21
2329.330395
 31
0.0
  0
ARC
  5
137E
  8
0
 10
3393.903181
 20
2328.22459
 30
0.0
 40
0.1
 50
42.558824
 51
133.040306
  0
LINE
  5
137F
  8
0
 10
3393.61566
 20
2328.092916
 30
0.0
 11
3393.83493
 21
2328.297678
 31
0.0
  0
ARC
  5
1380
  8
0
 10
3393.547409
 20
2328.166004
 30
0.0
 40
0.1
 50
223.534242
 51
313.040306
  0
ARC
  5
1381
  8
0
 10
3385.137839
 20
2320.176063
 30
0.0
 40
11.5
 50
43.534242
 51
49.79702
  0
ARC
  5
1382
  8
0
 10
3392.625609
 20
2329.035708
 30
0.0
 40
0.1
 50
140.290956
 51
229.79702
  0
ARC
  5
1383
  8
0
 10
3374.844215
 20
2309.265459
 30
0.0
 40
26.982868
 50
35.140183
 51
38.191363
  0
ARC
  5
1384
  8
0
 10
3374.844215
 20
2309.265459
 30
0.0
 40
26.982868
 50
28.473516
 51
31.524696
  0
ARC
  5
1385
  8
0
 10
3374.844215
 20
2309.265459
 30
0.0
 40
26.982868
 50
21.80685
 51
24.85803
  0
ARC
  5
1386
  8
0
 10
3394.87975
 20
2327.189496
 30
0.0
 40
0.1
 50
313.624289
 51
44.105772
  0
LINE
  5
1387
  8
0
 10
3394.731571
 20
2326.910123
 30
0.0
 11
3394.948743
 21
2327.117108
 31
0.0
  0
ARC
  5
1388
  8
0
 10
3395.975332
 20
2325.883784
 30
0.0
 40
0.1
 50
35.892157
 51
126.37364
  0
LINE
  5
1389
  8
0
 10
3395.674468
 20
2325.78638
 30
0.0
 11
3395.916027
 21
2325.964301
 31
0.0
  0
ARC
  5
138A
  8
0
 10
3395.615164
 20
2325.866897
 30
0.0
 40
0.1
 50
216.867575
 51
306.37364
  0
ARC
  5
138B
  8
0
 10
3386.334881
 20
2318.907273
 30
0.0
 40
11.5
 50
36.867575
 51
43.130354
  0
ARC
  5
138C
  8
0
 10
3394.800564
 20
2326.837735
 30
0.0
 40
0.1
 50
133.624289
 51
223.130354
  0
ARC
  5
138D
  8
0
 10
3396.825131
 20
2324.742316
 30
0.0
 40
0.1
 50
306.957622
 51
37.439105
  0
LINE
  5
138E
  8
0
 10
3396.64552
 20
2324.482035
 30
0.0
 11
3396.885253
 21
2324.662408
 31
0.0
  0
ARC
  5
138F
  8
0
 10
3397.761721
 20
2323.318244
 30
0.0
 40
0.1
 50
29.22549
 51
119.706973
  0
LINE
  5
1390
  8
0
 10
3397.451584
 20
2323.256427
 30
0.0
 11
3397.712164
 21
2323.405101
 31
0.0
  0
ARC
  5
1391
  8
0
 10
3397.402027
 20
2323.343284
 30
0.0
 40
0.1
 50
210.200908
 51
299.706973
  0
ARC
  5
1392
  8
0
 10
3387.376532
 20
2317.508093
 30
0.0
 40
11.5
 50
30.200908
 51
36.463687
  0
ARC
  5
1393
  8
0
 10
3396.705643
 20
2324.402127
 30
0.0
 40
0.1
 50
126.957622
 51
216.463687
  0
ARC
  5
1394
  8
0
 10
3398.473257
 20
2322.085839
 30
0.0
 40
0.1
 50
300.290956
 51
30.772438
  0
LINE
  5
1395
  8
0
 10
3398.264644
 20
2321.848168
 30
0.0
 11
3398.523696
 21
2321.999491
 31
0.0
  0
ARC
  5
1396
  8
0
 10
3399.23819
 20
2320.562664
 30
0.0
 40
0.1
 50
22.558824
 51
113.040306
  0
LINE
  5
1397
  8
0
 10
3398.922973
 20
2320.537269
 30
0.0
 11
3399.199052
 21
2320.654687
 31
0.0
  0
ARC
  5
1398
  8
0
 10
3398.883835
 20
2320.629292
 30
0.0
 40
0.1
 50
203.534242
 51
293.040306
  0
ARC
  5
1399
  8
0
 10
3388.248704
 20
2315.997447
 30
0.0
 40
11.5
 50
23.534242
 51
29.79702
  0
ARC
  5
139A
  8
0
 10
3398.315083
 20
2321.761821
 30
0.0
 40
0.1
 50
120.290956
 51
209.79702
  0
ARC
  5
139B
  8
0
 10
3399.801841
 20
2319.255988
 30
0.0
 40
0.1
 50
293.624289
 51
24.105772
  0
LINE
  5
139C
  8
0
 10
3399.567047
 20
2319.044143
 30
0.0
 11
3399.841915
 21
2319.164368
 31
0.0
  0
ARC
  5
139D
  8
0
 10
3400.384772
 20
2317.654309
 30
0.0
 40
0.1
 50
15.892157
 51
106.37364
  0
LINE
  5
139E
  8
0
 10
3400.068738
 20
2317.66568
 30
0.0
 11
3400.356582
 21
2317.750253
 31
0.0
  0
ARC
  5
139F
  8
0
 10
3400.040548
 20
2317.761625
 30
0.0
 40
0.1
 50
196.867575
 51
286.37364
  0
ARC
  5
13A0
  8
0
 10
3388.939604
 20
2314.395761
 30
0.0
 40
11.5
 50
16.867575
 51
23.130354
  0
ARC
  5
13A1
  8
0
 10
3399.607121
 20
2318.952524
 30
0.0
 40
0.1
 50
113.624289
 51
203.130354
  0
ARC
  5
13A2
  8
0
 10
3374.844215
 20
2309.265459
 30
0.0
 40
26.982868
 50
15.140183
 51
18.191363
  0
ARC
  5
13A3
  8
0
 10
3402.844215
 20
2283.515459
 30
0.0
 40
2.0
 50
270.0
 51
0.0
  0
ARC
  5
13A4
  8
0
 10
3374.844215
 20
2309.265459
 30
0.0
 40
26.982868
 50
301.80685
 51
304.85803
  0
ARC
  5
13A5
  8
0
 10
3374.844215
 20
2309.265459
 30
0.0
 40
26.982868
 50
335.140183
 51
338.191363
  0
ARC
  5
13A6
  8
0
 10
3400.384654
 20
2300.876195
 30
0.0
 40
0.1
 50
253.624289
 51
344.105772
  0
LINE
  5
13A7
  8
0
 10
3400.06862
 20
2300.864835
 30
0.0
 11
3400.356461
 21
2300.780252
 31
0.0
  0
ARC
  5
13A8
  8
0
 10
3399.801666
 20
2299.274537
 30
0.0
 40
0.1
 50
335.892157
 51
66.37364
  0
LINE
  5
13A9
  8
0
 10
3399.566879
 20
2299.486391
 30
0.0
 11
3399.841743
 21
2299.366155
 31
0.0
  0
ARC
  5
13AA
  8
0
 10
3399.606956
 20
2299.578008
 30
0.0
 40
0.1
 50
156.867575
 51
246.37364
  0
ARC
  5
13AB
  8
0
 10
3388.939604
 20
2304.135157
 30
0.0
 40
11.5
 50
336.867575
 51
343.130354
  0
ARC
  5
13AC
  8
0
 10
3400.040427
 20
2300.768892
 30
0.0
 40
0.1
 50
73.624289
 51
163.130354
  0
ARC
  5
13AD
  8
0
 10
3374.844215
 20
2309.265459
 30
0.0
 40
26.982868
 50
328.473516
 51
331.524696
  0
ARC
  5
13AE
  8
0
 10
3374.844215
 20
2309.265459
 30
0.0
 40
26.982868
 50
321.80685
 51
324.85803
  0
ARC
  5
13AF
  8
0
 10
3374.844215
 20
2309.265459
 30
0.0
 40
26.982868
 50
315.140183
 51
318.191363
  0
ARC
  5
13B0
  8
0
 10
3374.844215
 20
2309.265459
 30
0.0
 40
26.982868
 50
308.473516
 51
311.524696
  0
ARC
  5
13B1
  8
0
 10
3399.238025
 20
2297.967856
 30
0.0
 40
0.1
 50
246.957622
 51
337.439105
  0
LINE
  5
13B2
  8
0
 10
3398.922809
 20
2297.993262
 30
0.0
 11
3399.198883
 21
2297.875834
 31
0.0
  0
ARC
  5
13B3
  8
0
 10
3398.473037
 20
2296.444709
 30
0.0
 40
0.1
 50
329.22549
 51
59.706973
  0
LINE
  5
13B4
  8
0
 10
3398.264433
 20
2296.682387
 30
0.0
 11
3398.523479
 21
2296.531055
 31
0.0
  0
ARC
  5
13B5
  8
0
 10
3398.314875
 20
2296.768733
 30
0.0
 40
0.1
 50
150.200908
 51
239.706973
  0
ARC
  5
13B6
  8
0
 10
3388.248704
 20
2302.533471
 30
0.0
 40
11.5
 50
330.200908
 51
336.463687
  0
ARC
  5
13B7
  8
0
 10
3398.883668
 20
2297.901241
 30
0.0
 40
0.1
 50
66.957622
 51
156.463687
  0
ARC
  5
13B8
  8
0
 10
3397.761511
 20
2295.212298
 30
0.0
 40
0.1
 50
240.290956
 51
330.772438
  0
LINE
  5
13B9
  8
0
 10
3397.451376
 20
2295.274127
 30
0.0
 11
3397.711951
 21
2295.125443
 31
0.0
  0
ARC
  5
13BA
  8
0
 10
3396.824869
 20
2293.78826
 30
0.0
 40
0.1
 50
322.558824
 51
53.040306
  0
LINE
  5
13BB
  8
0
 10
3396.645268
 20
2294.048548
 30
0.0
 11
3396.884994
 21
2293.868165
 31
0.0
  0
ARC
  5
13BC
  8
0
 10
3396.705393
 20
2294.128454
 30
0.0
 40
0.1
 50
143.534242
 51
233.040306
  0
ARC
  5
13BD
  8
0
 10
3387.376532
 20
2301.022824
 30
0.0
 40
11.5
 50
323.534242
 51
329.79702
  0
ARC
  5
13BE
  8
0
 10
3397.401816
 20
2295.187271
 30
0.0
 40
0.1
 50
60.290956
 51
149.79702
  0
ARC
  5
13BF
  8
0
 10
3395.97508
 20
2292.646785
 30
0.0
 40
0.1
 50
233.624289
 51
324.105772
  0
LINE
  5
13C0
  8
0
 10
3395.67422
 20
2292.7442
 30
0.0
 11
3395.915772
 21
2292.56627
 31
0.0
  0
ARC
  5
13C1
  8
0
 10
3394.879451
 20
2291.341113
 30
0.0
 40
0.1
 50
315.892157
 51
46.37364
  0
LINE
  5
13C2
  8
0
 10
3394.731282
 20
2291.620491
 30
0.0
 11
3394.948446
 21
2291.413498
 31
0.0
  0
ARC
  5
13C3
  8
0
 10
3394.800277
 20
2291.692877
 30
0.0
 40
0.1
 50
136.867575
 51
226.37364
  0
ARC
  5
13C4
  8
0
 10
3386.334881
 20
2299.623645
 30
0.0
 40
11.5
 50
316.867575
 51
323.130354
  0
ARC
  5
13C5
  8
0
 10
3395.614912
 20
2292.663685
 30
0.0
 40
0.1
 50
53.624289
 51
143.130354
  0
ARC
  5
13C6
  8
0
 10
3393.90289
 20
2290.306011
 30
0.0
 40
0.1
 50
226.957622
 51
317.439105
  0
LINE
  5
13C7
  8
0
 10
3393.615374
 20
2290.437695
 30
0.0
 11
3393.834636
 21
2290.232926
 31
0.0
  0
ARC
  5
13C8
  8
0
 10
3392.66309
 20
2289.136362
 30
0.0
 40
0.1
 50
309.22549
 51
39.706973
  0
LINE
  5
13C9
  8
0
 10
3392.548357
 20
2289.431053
 30
0.0
 11
3392.740022
 21
2289.200248
 31
0.0
  0
ARC
  5
13CA
  8
0
 10
3392.625289
 20
2289.494939
 30
0.0
 40
0.1
 50
130.200908
 51
219.706973
  0
ARC
  5
13CB
  8
0
 10
3385.137839
 20
2298.354854
 30
0.0
 40
11.5
 50
310.200908
 51
316.463687
  0
ARC
  5
13CC
  8
0
 10
3393.54712
 20
2290.36461
 30
0.0
 40
0.1
 50
46.957622
 51
136.463687
  0
ARC
  5
13CD
  8
0
 10
3391.572965
 20
2288.22163
 30
0.0
 40
0.1
 50
220.290956
 51
310.772438
  0
LINE
  5
13CE
  8
0
 10
3391.30268
 20
2288.385803
 30
0.0
 11
3391.496688
 21
2288.156963
 31
0.0
  0
ARC
  5
13CF
  8
0
 10
3390.20576
 20
2287.203822
 30
0.0
 40
0.1
 50
302.558824
 51
33.040306
  0
LINE
  5
13D0
  8
0
 10
3390.126014
 20
2287.509841
 30
0.0
 11
3390.289588
 21
2287.258345
 31
0.0
  0
ARC
  5
13D1
  8
0
 10
3390.209842
 20
2287.564363
 30
0.0
 40
0.1
 50
123.534242
 51
213.040306
  0
ARC
  5
13D2
  8
0
 10
3383.801594
 20
2297.233611
 30
0.0
 40
11.5
 50
303.534242
 51
309.79702
  0
ARC
  5
13D3
  8
0
 10
3391.226403
 20
2288.321136
 30
0.0
 40
0.1
 50
40.290956
 51
129.79702
  0
ARC
  5
13D4
  8
0
 10
3374.844215
 20
2309.265459
 30
0.0
 40
26.982868
 50
295.140183
 51
298.191363
  0
ARC
  5
13D5
  8
0
 10
3389.016811
 20
2286.421832
 30
0.0
 40
0.1
 50
213.624289
 51
304.105772
  0
LINE
  5
13D6
  8
0
 10
3388.767413
 20
2286.616272
 30
0.0
 11
3388.933543
 21
2286.366457
 31
0.0
  0
ARC
  5
13D7
  8
0
 10
3387.540691
 20
2285.569629
 30
0.0
 40
0.1
 50
295.892157
 51
26.37364
  0
LINE
  5
13D8
  8
0
 10
3387.497011
 20
2285.882836
 30
0.0
 11
3387.630282
 21
2285.614051
 31
0.0
  0
ARC
  5
13D9
  8
0
 10
3387.586602
 20
2285.927258
 30
0.0
 40
0.1
 50
116.867575
 51
206.37364
  0
ARC
  5
13DA
  8
0
 10
3382.344215
 20
2296.275078
 30
0.0
 40
11.5
 50
296.867575
 51
303.130354
  0
ARC
  5
13DB
  8
0
 10
3388.684145
 20
2286.560898
 30
0.0
 40
0.1
 50
33.624289
 51
123.130354
  0
ARC
  5
13DC
  8
0
 10
3386.268998
 20
2284.930954
 30
0.0
 40
0.1
 50
206.957622
 51
297.439105
  0
LINE
  5
13DD
  8
0
 10
3404.844215
 20
2298.790459
 30
0.0
 11
3434.844215
 21
2298.790459
 31
0.0
  0
LINE
  5
13DE
  8
0
 10
3404.844215
 20
2322.290459
 30
0.0
 11
3432.394215
 21
2322.290459
 31
0.0
  0
LINE
  5
13DF
  8
0
 10
3404.844215
 20
2323.790459
 30
0.0
 11
3434.844215
 21
2323.790459
 31
0.0
  0
LINE
  5
13E0
  8
0
  6
DASHED
 10
3404.844215
 20
2296.390459
 30
0.0
 11
3415.694215
 21
2296.390459
 31
0.0
  0
LINE
  5
13E1
  8
0
  6
DASHED
 10
3404.844215
 20
2290.390459
 30
0.0
 11
3415.694215
 21
2290.390459
 31
0.0
  0
LINE
  5
13E2
  8
0
  6
DASHED
 10
3392.767064
 20
2359.26724
 30
0.0
 11
3386.17849
 21
2393.116436
 31
0.0
  0
LINE
  5
13E3
  8
0
  6
DASHED
 10
3356.981807
 20
2359.26724
 30
0.0
 11
3363.510078
 21
2393.116846
 31
0.0
  0
LINE
  5
13E9
  8
0
 10
2681.155824
 20
2376.205797
 30
0.0
 11
2693.635824
 21
2376.205797
 31
0.0
  0
LINE
  5
13EA
  8
0
 10
2684.295824
 20
2384.505797
 30
0.0
 11
2690.495824
 21
2384.505797
 31
0.0
  0
LINE
  5
13EB
  8
0
  6
DASHED
 10
2713.714384
 20
2422.005797
 30
0.0
 11
2713.714384
 21
2408.805797
 31
0.0
  0
LINE
  5
13EC
  8
0
  6
DASHED
 10
2707.714384
 20
2422.005797
 30
0.0
 11
2707.714384
 21
2408.805797
 31
0.0
  0
LINE
  5
13ED
  8
0
  6
DASHED
 10
2666.716165
 20
2422.005797
 30
0.0
 11
2666.716165
 21
2375.005797
 31
0.0
  0
LINE
  5
13EE
  8
0
  6
DASHED
 10
2660.716165
 20
2422.005797
 30
0.0
 11
2660.716165
 21
2375.005797
 31
0.0
  0
LINE
  5
13EF
  8
0
 10
2693.450766
 20
2410.005797
 30
0.0
 11
2693.450766
 21
2415.005797
 31
0.0
  0
LINE
  5
13F0
  8
0
 10
2681.450766
 20
2410.005797
 30
0.0
 11
2681.450766
 21
2415.005797
 31
0.0
  0
LINE
  5
13F1
  8
0
  6
DASHED
 10
2684.450766
 20
2395.805797
 30
0.0
 11
2684.450766
 21
2475.005797
 31
0.0
  0
LINE
  5
13F2
  8
0
  6
DASHED
 10
2690.450766
 20
2395.805797
 30
0.0
 11
2690.450766
 21
2475.005797
 31
0.0
  0
LINE
  5
13F3
  8
0
 10
2675.246705
 20
2408.805797
 30
0.0
 11
2699.185368
 21
2408.805797
 31
0.0
  0
LINE
  5
13F4
  8
0
 10
2675.246705
 20
2409.005797
 30
0.0
 11
2699.185368
 21
2409.005797
 31
0.0
  0
LINE
  5
13F5
  8
0
 10
2675.716165
 20
2410.005797
 30
0.0
 11
2699.185368
 21
2410.005797
 31
0.0
  0
LINE
  5
13F6
  8
0
 10
2683.595824
 20
2410.205797
 30
0.0
 11
2691.195824
 21
2410.205797
 31
0.0
  0
LINE
  5
13F7
  8
0
 10
2660.237957
 20
2408.805797
 30
0.0
 11
2714.194117
 21
2408.805797
 31
0.0
  0
LINE
  5
13F8
  8
0
 10
2660.237957
 20
2409.005797
 30
0.0
 11
2714.194117
 21
2409.005797
 31
0.0
  0
LINE
  5
13F9
  8
0
 10
2660.237957
 20
2410.005797
 30
0.0
 11
2714.194117
 21
2410.005797
 31
0.0
  0
LINE
  5
13FA
  8
0
 10
2660.237957
 20
2410.005797
 30
0.0
 11
2660.237957
 21
2396.005797
 31
0.0
  0
LINE
  5
13FB
  8
0
 10
2675.246705
 20
2409.005797
 30
0.0
 11
2675.246705
 21
2410.005797
 31
0.0
  0
LINE
  5
13FC
  8
0
 10
2675.716165
 20
2410.005797
 30
0.0
 11
2675.246705
 21
2410.005797
 31
0.0
  0
LINE
  5
13FD
  8
0
  6
DASHED
 10
2683.595824
 20
2410.205797
 30
0.0
 11
2683.595824
 21
2376.205797
 31
0.0
  0
LINE
  5
13FE
  8
0
  6
DASHED
 10
2713.714384
 20
2408.805797
 30
0.0
 11
2713.714384
 21
2375.005797
 31
0.0
  0
LINE
  5
13FF
  8
0
  6
DASHED
 10
2707.714384
 20
2408.805797
 30
0.0
 11
2707.714384
 21
2375.005797
 31
0.0
  0
LINE
  5
1400
  8
0
 10
2698.185368
 20
2408.805797
 30
0.0
 11
2698.185368
 21
2409.005797
 31
0.0
  0
LINE
  5
1401
  8
0
 10
2699.185368
 20
2409.005797
 30
0.0
 11
2699.185368
 21
2410.005797
 31
0.0
  0
LINE
  5
1402
  8
0
  6
DASHED
 10
2691.195824
 20
2410.205797
 30
0.0
 11
2691.195824
 21
2376.205797
 31
0.0
  0
LINE
  5
1403
  8
0
 10
2714.194117
 20
2408.805797
 30
0.0
 11
2714.194117
 21
2397.205797
 31
0.0
  0
LINE
  5
1404
  8
0
 10
2713.194117
 20
2409.005797
 30
0.0
 11
2713.194117
 21
2397.005797
 31
0.0
  0
LINE
  5
1405
  8
0
 10
2714.194117
 20
2410.005797
 30
0.0
 11
2714.194117
 21
2409.005797
 31
0.0
  0
LINE
  5
1406
  8
0
 10
2657.216165
 20
2422.005797
 30
0.0
 11
2657.216165
 21
2472.005797
 31
0.0
  0
LINE
  5
1407
  8
0
 10
2717.214384
 20
2422.005797
 30
0.0
 11
2717.214384
 21
2472.005797
 31
0.0
  0
LINE
  5
1408
  8
0
 10
2681.450766
 20
2415.005797
 30
0.0
 11
2693.450766
 21
2415.005797
 31
0.0
  0
LINE
  5
1409
  8
0
 10
2657.216165
 20
2416.005797
 30
0.0
 11
2717.214384
 21
2416.005797
 31
0.0
  0
LINE
  5
140A
  8
0
 10
2657.216165
 20
2422.005797
 30
0.0
 11
2717.214384
 21
2422.005797
 31
0.0
  0
LINE
  5
140B
  8
0
 10
2657.450766
 20
2416.005797
 30
0.0
 11
2657.216165
 21
2416.005797
 31
0.0
  0
LINE
  5
140C
  8
0
 10
2657.216165
 20
2416.005797
 30
0.0
 11
2657.216165
 21
2422.005797
 31
0.0
  0
LINE
  5
140D
  8
0
 10
2717.214384
 20
2422.005797
 30
0.0
 11
2717.214384
 21
2416.005797
 31
0.0
  0
LINE
  5
140E
  8
0
 10
2684.450766
 20
2475.005797
 30
0.0
 11
2690.450766
 21
2475.005797
 31
0.0
  0
LINE
  5
140F
  8
0
 10
2717.214384
 20
2472.005797
 30
0.0
 11
2657.216165
 21
2472.005797
 31
0.0
  0
LINE
  5
1410
  8
0
 10
2657.216165
 20
2395.005797
 30
0.0
 11
2717.214384
 21
2395.005797
 31
0.0
  0
LINE
  5
1411
  8
0
 10
2684.450766
 20
2395.805797
 30
0.0
 11
2690.450766
 21
2395.805797
 31
0.0
  0
LINE
  5
1412
  8
0
 10
2675.246705
 20
2397.205797
 30
0.0
 11
2699.185368
 21
2397.205797
 31
0.0
  0
LINE
  5
1413
  8
0
 10
2675.246705
 20
2397.005797
 30
0.0
 11
2699.185368
 21
2397.005797
 31
0.0
  0
LINE
  5
1414
  8
0
 10
2675.716165
 20
2396.005797
 30
0.0
 11
2699.185368
 21
2396.005797
 31
0.0
  0
LINE
  5
1415
  8
0
 10
2660.237957
 20
2397.205797
 30
0.0
 11
2714.194117
 21
2397.205797
 31
0.0
  0
LINE
  5
1416
  8
0
 10
2660.237957
 20
2397.005797
 30
0.0
 11
2714.194117
 21
2397.005797
 31
0.0
  0
LINE
  5
1417
  8
0
 10
2660.237957
 20
2396.005797
 30
0.0
 11
2714.194117
 21
2396.005797
 31
0.0
  0
LINE
  5
1418
  8
0
 10
2675.716165
 20
2396.005797
 30
0.0
 11
2675.246705
 21
2396.005797
 31
0.0
  0
LINE
  5
1419
  8
0
 10
2699.185368
 20
2397.005797
 30
0.0
 11
2699.185368
 21
2396.005797
 31
0.0
  0
LINE
  5
141A
  8
0
 10
2698.185368
 20
2397.005797
 30
0.0
 11
2698.185368
 21
2397.205797
 31
0.0
  0
LINE
  5
141B
  8
0
 10
2699.185368
 20
2396.005797
 30
0.0
 11
2699.185368
 21
2397.005797
 31
0.0
  0
LINE
  5
141C
  8
0
 10
2714.194117
 20
2397.005797
 30
0.0
 11
2714.194117
 21
2396.005797
 31
0.0
  0
LINE
  5
141D
  8
0
 10
2717.214384
 20
2395.005797
 30
0.0
 11
2717.214384
 21
2375.005797
 31
0.0
  0
LINE
  5
141E
  8
0
 10
2657.216165
 20
2395.005797
 30
0.0
 11
2657.216165
 21
2375.005797
 31
0.0
  0
LINE
  5
141F
  8
0
 10
2677.216037
 20
2385.005797
 30
0.0
 11
2677.216037
 21
2396.005797
 31
0.0
  0
LINE
  5
1420
  8
0
 10
2677.216037
 20
2385.005797
 30
0.0
 11
2697.216037
 21
2385.005797
 31
0.0
  0
LINE
  5
1421
  8
0
 10
2697.216037
 20
2396.005797
 30
0.0
 11
2697.216037
 21
2385.005797
 31
0.0
  0
LINE
  5
1507
  8
0
  6
DASHED
 10
2342.984573
 20
2374.108611
 30
0.0
 11
2354.984573
 21
2374.108611
 31
0.0
  0
LINE
  5
1508
  8
0
  6
DASHED
 10
2354.984573
 20
2374.108611
 30
0.0
 11
2354.984573
 21
2353.108611
 31
0.0
  0
LINE
  5
1509
  8
0
  6
DASHED
 10
2342.984573
 20
2374.108611
 30
0.0
 11
2342.984573
 21
2353.108611
 31
0.0
  0
LINE
  5
1511
  8
0
  6
DASHED
 10
2363.984573
 20
2381.108611
 30
0.0
 11
2363.984573
 21
2361.108611
 31
0.0
  0
LINE
  5
1512
  8
0
  6
DASHED
 10
2333.984573
 20
2381.108611
 30
0.0
 11
2333.984573
 21
2361.108611
 31
0.0
  0
LINE
  5
1514
  8
0
  6
DASHED
 10
2333.984573
 20
2370.108611
 30
0.0
 11
2363.984573
 21
2370.108611
 31
0.0
  0
CIRCLE
  5
1517
  8
0
  6
DASHED
 10
2338.514573
 20
2365.608611
 30
0.0
 40
1.5
  0
CIRCLE
  5
1518
  8
0
  6
DASHED
 10
2359.484573
 20
2365.608611
 30
0.0
 40
1.5
  0
LINE
  5
1522
  8
0
  6
DASHED
 10
2339.514573
 20
2370.108611
 30
0.0
 11
2339.514573
 21
2361.108611
 31
0.0
  0
LINE
  5
1523
  8
0
  6
DASHED
 10
2337.514573
 20
2370.108611
 30
0.0
 11
2337.514573
 21
2361.108611
 31
0.0
  0
LINE
  5
1524
  8
0
  6
DASHED
 10
2358.484573
 20
2370.108611
 30
0.0
 11
2358.484573
 21
2361.108611
 31
0.0
  0
LINE
  5
1525
  8
0
  6
DASHED
 10
2360.484573
 20
2370.108611
 30
0.0
 11
2360.484573
 21
2361.108611
 31
0.0
  0
LINE
  5
1527
  8
0
 10
2342.744573
 20
2361.108611
 30
0.0
 11
2355.224573
 21
2361.108611
 31
0.0
  0
LINE
  5
1528
  8
0
  6
DASHED
 10
2357.984573
 20
2354.908611
 30
0.0
 11
2339.984573
 21
2354.908611
 31
0.0
  0
LINE
  5
1529
  8
0
 10
2358.984573
 20
2349.308611
 30
0.0
 11
2338.984573
 21
2349.308611
 31
0.0
  0
LINE
  5
152A
  8
0
 10
2355.224573
 20
2347.708611
 30
0.0
 11
2342.744573
 21
2347.708611
 31
0.0
  0
LINE
  5
152B
  8
0
 10
2337.984573
 20
2350.308611
 30
0.0
 11
2337.984573
 21
2352.908611
 31
0.0
  0
ARC
  5
152C
  8
0
 10
2338.984573
 20
2350.308611
 30
0.0
 40
1.0
 50
180.0
 51
270.0
  0
ARC
  5
152D
  8
0
  6
DASHED
 10
2339.984573
 20
2352.908611
 30
0.0
 40
2.0
 50
90.0
 51
180.0
  0
LINE
  5
152E
  8
0
 10
2342.744573
 20
2347.708611
 30
0.0
 11
2342.744573
 21
2349.308611
 31
0.0
  0
LINE
  5
152F
  8
0
 10
2342.744573
 20
2361.108611
 30
0.0
 11
2342.744573
 21
2354.908611
 31
0.0
  0
LINE
  5
1530
  8
0
  6
DASHED
 10
2352.084573
 20
2347.708611
 30
0.0
 11
2352.084573
 21
2361.108611
 31
0.0
  0
ARC
  5
1531
  8
0
 10
2357.984573
 20
2352.908611
 30
0.0
 40
2.0
 50
360.0
 51
90.0
  0
LINE
  5
1532
  8
0
 10
2359.984573
 20
2350.308611
 30
0.0
 11
2359.984573
 21
2352.908611
 31
0.0
  0
ARC
  5
1533
  8
0
 10
2358.984573
 20
2350.308611
 30
0.0
 40
1.0
 50
270.0
 51
360.0
  0
LINE
  5
1534
  8
0
 10
2355.224573
 20
2347.708611
 30
0.0
 11
2355.224573
 21
2349.308611
 31
0.0
  0
LINE
  5
1535
  8
0
 10
2355.224573
 20
2361.108611
 30
0.0
 11
2355.224573
 21
2354.908611
 31
0.0
  0
LINE
  5
1536
  8
0
  6
DASHED
 10
2352.084573
 20
2347.708611
 30
0.0
 11
2352.084573
 21
2361.108611
 31
0.0
  0
LINE
  5
1537
  8
0
  6
DASHED
 10
2345.884573
 20
2347.708611
 30
0.0
 11
2345.884573
 21
2361.108611
 31
0.0
  0
LINE
  5
1538
  8
0
  6
DASHED
 10
2345.884573
 20
2347.708611
 30
0.0
 11
2345.884573
 21
2361.108611
 31
0.0
  0
LINE
  5
1539
  8
0
  6
DASHED
 10
2345.884573
 20
2361.108611
 30
0.0
 11
2345.884573
 21
2374.108611
 31
0.0
  0
LINE
  5
153A
  8
0
  6
DASHED
 10
2352.084573
 20
2361.108611
 30
0.0
 11
2352.084573
 21
2374.108611
 31
0.0
  0
LINE
  5
153B
  8
0
  6
DASHED
 10
2345.184573
 20
2374.108611
 30
0.0
 11
2345.184573
 21
2370.108611
 31
0.0
  0
LINE
  5
153C
  8
0
  6
DASHED
 10
2352.784573
 20
2374.108611
 30
0.0
 11
2352.784573
 21
2370.108611
 31
0.0
  0
LINE
  5
153D
  8
0
 10
2354.984573
 20
2281.058611
 30
0.0
 11
2354.984573
 21
2347.708611
 31
0.0
  0
LINE
  5
153E
  8
0
 10
2342.984573
 20
2281.058611
 30
0.0
 11
2342.984573
 21
2347.708611
 31
0.0
  0
LINE
  5
1540
  8
0
 62
     2
 10
2504.75519
 20
2317.555797
 30
0.0
 11
2510.75519
 21
2317.555797
 31
0.0
  0
LINE
  5
1541
  8
0
 62
     2
 10
2967.361875
 20
2317.555797
 30
0.0
 11
2973.361875
 21
2317.555797
 31
0.0
  0
LINE
  5
1542
  8
0
 62
     2
 10
2967.361875
 20
1908.555797
 30
0.0
 11
2973.361875
 21
1908.555797
 31
0.0
  0
LINE
  5
1543
  8
0
 62
     2
 10
2504.75519
 20
1908.555797
 30
0.0
 11
2510.75519
 21
1908.555797
 31
0.0
  0
LINE
  5
1549
  8
0
 10
2747.395824
 20
2310.555797
 30
0.0
 11
2967.361875
 21
2310.555797
 31
0.0
  0
DIMENSION
  5
1653
  8
MATEN
  2
*D4
 10
2747.395824
 20
2112.53513
 30
0.0
 11
2687.395824
 21
2116.08513
 31
0.0
 70
     0
 13
2627.395824
 23
2125.005797
 33
0.0
 14
2747.395824
 24
2125.005797
 34
0.0
1001
ACAD
1000
DSTYLE
1002
{
1070
    78
1070
     8
1070
   140
1040
4.6
1070
    74
1070
     0
1070
   172
1070
     1
1070
    73
1070
     0
1070
    77
1070
     1
1070
   147
1040
1.25
1070
    42
1040
0.625
1070
    44
1040
1.25
1070
    43
1040
3.75
1070
   271
1070
     2
1070
   141
1040
2.5
1070
   275
1070
     1
1070
    41
1040
3.0
1070
   273
1070
     8
1070
   274
1070
     4
1070
   143
1040
0.0394
1070
   171
1070
     4
1002
}
  0
LINE
  5
1655
  8
0
  6
DASHED
 62
     5
 10
2313.159573
 20
2545.195533
 30
0.0
 11
2313.159573
 21
1730.597285
 31
0.0
  0
LINE
  5
1672
  8
0
  6
DASHED
 10
2354.984573
 20
2281.058611
 30
0.0
 11
2354.984573
 21
2206.058611
 31
0.0
  0
LINE
  5
1673
  8
0
  6
DASHED
 10
2342.984573
 20
2281.058611
 30
0.0
 11
2342.984573
 21
2206.058611
 31
0.0
  0
LINE
  5
1674
  8
0
 10
3391.045498
 20
2513.378264
 30
0.0
 11
3370.605311
 21
2508.701505
 31
0.0
  0
LINE
  5
1676
  8
0
 10
3391.170766
 20
2511.883504
 30
0.0
 11
3372.268021
 21
2503.566517
 31
0.0
  0
LINE
  5
1677
  8
0
 10
3391.2334
 20
2511.136124
 30
0.0
 11
3377.092059
 21
2502.329759
 31
0.0
  0
LINE
  5
1678
  8
0
  6
DASHED
 10
3391.170766
 20
2511.883504
 30
0.0
 11
3391.045498
 21
2513.378264
 31
0.0
  0
LINE
  5
1679
  8
0
 10
3391.108132
 20
2512.630884
 30
0.0
 11
3373.854431
 21
2507.029758
 31
0.0
  0
LINE
  5
167C
  8
0
  6
DASHED
 10
3390.982863
 20
2514.125644
 30
0.0
 11
3396.298594
 21
2512.679488
 31
0.0
  0
LINE
  5
167D
  8
0
  6
DASHED
 10
3390.982863
 20
2514.125644
 30
0.0
 11
3391.045498
 21
2513.378264
 31
0.0
  0
DIMENSION
  5
1690
  8
MATEN
  2
*D5
 10
2430.858196
 20
2172.555797
 30
0.0
 11
2427.308196
 21
2191.555797
 31
0.0
 70
     0
 13
2406.784573
 23
2210.555797
 33
0.0
 14
2406.784573
 24
2172.555797
 34
0.0
 50
90.0
1001
ACAD
1000
DSTYLE
1002
{
1070
    78
1070
     8
1070
   140
1040
4.6
1070
    74
1070
     0
1070
   172
1070
     1
1070
    73
1070
     0
1070
    77
1070
     1
1070
   147
1040
1.25
1070
    42
1040
0.625
1070
    44
1040
1.25
1070
    43
1040
3.75
1070
   271
1070
     2
1070
   141
1040
2.5
1070
   275
1070
     1
1070
    41
1040
3.0
1070
   273
1070
     8
1070
   274
1070
     4
1070
   143
1040
0.0394
1070
   171
1070
     4
1002
}
  0
LINE
  5
169C
  8
0
 10
2370.784573
 20
2322.551426
 30
0.0
 11
2406.784573
 21
2322.551426
 31
0.0
  0
LINE
  5
169D
  8
0
 10
2406.784573
 20
2322.551426
 30
0.0
 11
2406.784573
 21
2284.555797
 31
0.0
  0
LINE
  5
169E
  8
0
 10
2370.784573
 20
2322.551426
 30
0.0
 11
2370.784573
 21
2172.555797
 31
0.0
  0
LINE
  5
169F
  8
0
 62
     2
 10
2406.784573
 20
2317.555797
 30
0.0
 11
2418.159573
 21
2317.555797
 31
0.0
  0
DIMENSION
  5
16AB
  8
MATEN
  2
*D6
 10
2386.443635
 20
2194.431966
 30
0.0
 11
2401.99411
 21
2186.518338
 31
0.0
 70
     3
 15
2391.125511
 25
2190.679628
 35
0.0
 40
0.0
1001
ACAD
1000
DSTYLE
1002
{
1070
    78
1070
     8
1070
   140
1040
4.6
1070
    74
1070
     0
1070
   172
1070
     1
1070
    73
1070
     0
1070
    77
1070
     1
1070
   147
1040
1.25
1070
    42
1040
0.625
1070
    44
1040
1.25
1070
    43
1040
3.75
1070
   271
1070
     2
1070
   141
1040
2.5
1070
   275
1070
     1
1070
    41
1040
3.0
1070
   273
1070
     8
1070
   274
1070
     4
1070
   143
1040
0.0394
1070
   171
1070
     4
1002
}
  0
ARC
  5
16AC
  8
0
 10
2388.784573
 20
2192.555797
 30
0.0
 40
2.6
 50
270.0
 51
180.0
  0
ARC
  5
16AD
  8
0
 10
2388.784573
 20
2302.555797
 30
0.0
 40
2.6
 50
270.0
 51
180.0
  0
LINE
  5
16B3
  8
0
 62
     2
 10
2208.159573
 20
1980.555797
 30
0.0
 11
2208.159573
 21
1908.555797
 31
0.0
  0
LINE
  5
16B4
  8
0
 62
     2
 10
2418.159573
 20
1908.555797
 30
0.0
 11
2418.159573
 21
2317.555797
 31
0.0
  0
CIRCLE
  5
16BD
  8
0
 10
2388.784573
 20
2302.555797
 30
0.0
 40
12.0
  0
CIRCLE
  5
16BE
  8
0
 10
2388.784573
 20
2192.555797
 30
0.0
 40
12.0
  0
DIMENSION
  5
16CA
  8
MATEN
  2
*D7
 10
2379.388953
 20
2295.091059
 30
0.0
 11
2431.08358
 21
2336.161989
 31
0.0
 70
   131
 15
2398.180193
 25
2310.020536
 35
0.0
 40
0.0
1001
ACAD
1000
DSTYLE
1002
{
1070
    78
1070
     8
1070
   288
1070
     1
1070
   140
1040
4.6
1070
    74
1070
     0
1070
   172
1070
     1
1070
    73
1070
     0
1070
    77
1070
     1
1070
   147
1040
1.25
1070
    42
1040
0.625
1070
    44
1040
1.25
1070
    43
1040
3.75
1070
   271
1070
     2
1070
   141
1040
2.5
1070
   275
1070
     1
1070
    41
1040
3.0
1070
   273
1070
     8
1070
   274
1070
     4
1070
   143
1040
0.0394
1070
   171
1070
     4
1002
}
  0
LINE
  5
16CB
  8
0
 10
2627.395824
 20
2322.551426
 30
0.0
 11
2747.395824
 21
2322.551426
 31
0.0
  0
LINE
  5
16CC
  8
0
 10
2627.395824
 20
2172.555797
 30
0.0
 11
2627.395824
 21
2322.551426
 31
0.0
  0
LINE
  5
16CD
  8
0
 10
2747.395824
 20
2172.555797
 30
0.0
 11
2747.395824
 21
2322.551426
 31
0.0
  0
LINE
  5
16CE
  8
0
  6
DASHED
 10
2627.395824
 20
2310.555797
 30
0.0
 11
2657.395824
 21
2310.555797
 31
0.0
  0
LINE
  5
16CF
  8
0
  6
DASHED
 10
2627.395824
 20
2294.555797
 30
0.0
 11
2657.395824
 21
2294.555797
 31
0.0
  0
LINE
  5
16D0
  8
0
  6
DASHED
 10
2627.395824
 20
2200.555797
 30
0.0
 11
2657.395824
 21
2200.555797
 31
0.0
  0
LINE
  5
16D1
  8
0
  6
DASHED
 10
2627.395824
 20
2184.555797
 30
0.0
 11
2657.395824
 21
2184.555797
 31
0.0
  0
LINE
  5
16D2
  8
0
  6
DASHED
 10
2627.395824
 20
2290.555797
 30
0.0
 11
2747.395824
 21
2290.555797
 31
0.0
  0
LINE
  5
16D4
  8
0
  6
DASHED
 10
2627.395824
 20
2314.555797
 30
0.0
 11
2747.395824
 21
2314.555797
 31
0.0
  0
LINE
  5
16D5
  8
0
  6
DASHED
 10
2627.395824
 20
2204.555797
 30
0.0
 11
2747.395824
 21
2204.555797
 31
0.0
  0
LINE
  5
16D6
  8
0
  6
DASHED
 10
2627.395824
 20
2180.555797
 30
0.0
 11
2747.395824
 21
2180.555797
 31
0.0
  0
LINE
  5
16D7
  8
0
  6
DASHED
 10
2657.395824
 20
2180.555797
 30
0.0
 11
2657.395824
 21
2204.555797
 31
0.0
  0
LINE
  5
16D8
  8
0
  6
DASHED
 10
2717.395824
 20
2180.555797
 30
0.0
 11
2717.395824
 21
2204.555797
 31
0.0
  0
LINE
  5
16D9
  8
0
  6
DASHED
 10
2657.395824
 20
2290.555797
 30
0.0
 11
2657.395824
 21
2314.555797
 31
0.0
  0
LINE
  5
16DA
  8
0
  6
DASHED
 10
2717.395824
 20
2290.555797
 30
0.0
 11
2717.395824
 21
2314.555797
 31
0.0
  0
LINE
  5
16DB
  8
0
  6
DASHED
 10
2717.395824
 20
2310.555797
 30
0.0
 11
2747.395824
 21
2310.555797
 31
0.0
  0
LINE
  5
16DC
  8
0
  6
DASHED
 10
2717.395824
 20
2294.555797
 30
0.0
 11
2747.395824
 21
2294.555797
 31
0.0
  0
LINE
  5
16DD
  8
0
  6
DASHED
 10
2717.395824
 20
2200.555797
 30
0.0
 11
2747.395824
 21
2200.555797
 31
0.0
  0
LINE
  5
16DE
  8
0
  6
DASHED
 10
2717.395824
 20
2184.555797
 30
0.0
 11
2747.395824
 21
2184.555797
 31
0.0
  0
LINE
  5
16DF
  8
0
  6
DASHED
 10
2657.395824
 20
2294.555797
 30
0.0
 11
2717.395824
 21
2294.555797
 31
0.0
  0
LINE
  5
16E0
  8
0
  6
DASHED
 10
2657.395824
 20
2310.555797
 30
0.0
 11
2717.395824
 21
2310.555797
 31
0.0
  0
LINE
  5
16E1
  8
0
  6
DASHED
 10
2657.395824
 20
2200.555797
 30
0.0
 11
2717.395824
 21
2200.555797
 31
0.0
  0
LINE
  5
16E2
  8
0
  6
DASHED
 10
2657.395824
 20
2184.555797
 30
0.0
 11
2717.395824
 21
2184.555797
 31
0.0
  0
DIMENSION
  5
16EF
  8
MATEN
  2
*D8
 10
2770.058444
 20
2172.555797
 30
0.0
 11
2766.508444
 21
2247.553611
 31
0.0
 70
     0
 13
2747.395824
 23
2322.551426
 33
0.0
 14
2747.395824
 24
2172.555797
 34
0.0
 50
90.0
1001
ACAD
1000
DSTYLE
1002
{
1070
    78
1070
     8
1070
   140
1040
4.6
1070
    74
1070
     0
1070
   172
1070
     1
1070
    73
1070
     0
1070
    77
1070
     1
1070
   147
1040
1.25
1070
    42
1040
0.625
1070
    44
1040
1.25
1070
    43
1040
3.75
1070
   271
1070
     2
1070
   141
1040
2.5
1070
   275
1070
     1
1070
    41
1040
3.0
1070
   273
1070
     8
1070
   274
1070
     4
1070
   143
1040
0.0394
1070
   171
1070
     4
1002
}
  0
LINE
  5
1707
  8
0
 10
2723.895824
 20
2376.005797
 30
0.0
 11
2723.895824
 21
2375.005797
 31
0.0
  0
LINE
  5
1708
  8
0
 10
2638.895824
 20
2376.005797
 30
0.0
 11
2650.895824
 21
2376.005797
 31
0.0
  0
LINE
  5
1709
  8
0
 10
2650.895824
 20
2376.005797
 30
0.0
 11
2650.895824
 21
2375.005797
 31
0.0
  0
LINE
  5
170A
  8
0
 10
2638.895824
 20
2376.005797
 30
0.0
 11
2638.895824
 21
2375.005797
 31
0.0
  0
LINE
  5
170B
  8
0
 10
2681.155824
 20
2375.005797
 30
0.0
 11
2693.635824
 21
2375.005797
 31
0.0
  0
LINE
  5
170C
  8
0
  6
DASHED
 10
2672.395824
 20
2384.005797
 30
0.0
 11
2702.395824
 21
2384.005797
 31
0.0
  0
LINE
  5
170D
  8
0
  6
DASHED
 10
2675.925824
 20
2384.005797
 30
0.0
 11
2675.925824
 21
2375.005797
 31
0.0
  0
LINE
  5
170E
  8
0
  6
DASHED
 10
2677.925824
 20
2384.005797
 30
0.0
 11
2677.925824
 21
2375.005797
 31
0.0
  0
CIRCLE
  5
170F
  8
0
  6
DASHED
 10
2676.925824
 20
2379.505797
 30
0.0
 40
1.5
  0
LINE
  5
1710
  8
0
  6
DASHED
 10
2698.895824
 20
2384.005797
 30
0.0
 11
2698.895824
 21
2375.005797
 31
0.0
  0
LINE
  5
1711
  8
0
  6
DASHED
 10
2696.895824
 20
2384.005797
 30
0.0
 11
2696.895824
 21
2375.005797
 31
0.0
  0
CIRCLE
  5
1712
  8
0
  6
DASHED
 10
2697.895824
 20
2379.505797
 30
0.0
 40
1.5
  0
LINE
  5
1713
  8
0
  6
DASHED
 10
2672.395824
 20
2384.005797
 30
0.0
 11
2672.395824
 21
2375.005797
 31
0.0
  0
LINE
  5
1714
  8
0
  6
DASHED
 10
2702.395824
 20
2384.005797
 30
0.0
 11
2702.395824
 21
2375.005797
 31
0.0
  0
DIMENSION
  5
1726
  8
MATEN
  2
*D9
 10
2454.723841
 20
2180.555797
 30
0.0
 11
2451.173841
 21
2247.555797
 31
0.0
 70
     0
 13
2388.784573
 23
2314.555797
 33
0.0
 14
2388.784573
 24
2180.555797
 34
0.0
 50
90.0
1001
ACAD
1000
DSTYLE
1002
{
1070
    78
1070
     8
1070
   140
1040
4.6
1070
    74
1070
     0
1070
   172
1070
     1
1070
    73
1070
     0
1070
    77
1070
     1
1070
   147
1040
1.25
1070
    42
1040
0.625
1070
    44
1040
1.25
1070
    43
1040
3.75
1070
   271
1070
     2
1070
   141
1040
2.5
1070
   275
1070
     1
1070
    41
1040
3.0
1070
   273
1070
     8
1070
   274
1070
     4
1070
   143
1040
0.0394
1070
   171
1070
     4
1002
}
  0
ENDSEC
  0
EOF
