  0
SECTION
  2
HEADER
  9
$ACADVER
  1
AC1009
  9
$INSBASE
 10
0.0
 20
0.0
 30
0.0
  9
$EXTMIN
 10
36.753374
 20
50.0
 30
0.0
  9
$EXTMAX
 10
176.26127
 20
216.928367
 30
0.0
  9
$LIMMIN
 10
0.0
 20
0.0
  9
$LIMMAX
 10
297.0
 20
210.0
  9
$ORTHOMODE
 70
     0
  9
$REGENMODE
 70
     1
  9
$FILLMODE
 70
     1
  9
$QTEXTMODE
 70
     0
  9
$MIRRTEXT
 70
     1
  9
$DRAGMODE
 70
     2
  9
$LTSCALE
 40
0.3
  9
$OSMODE
 70
   167
  9
$ATTMODE
 70
     1
  9
$TEXTSIZE
 40
2.5
  9
$TRACEWID
 40
1.0
  9
$TEXTSTYLE
  7
STANDARD
  9
$CLAYER
  8
MATEN
  9
$CELTYPE
  6
BYLAYER
  9
$CECOLOR
 62
   256
  9
$DIMSCALE
 40
0.0
  9
$DIMASZ
 40
3.0
  9
$DIMEXO
 40
0.625
  9
$DIMDLI
 40
3.75
  9
$DIMRND
 40
0.0
  9
$DIMDLE
 40
0.0
  9
$DIMEXE
 40
1.25
  9
$DIMTP
 40
0.0
  9
$DIMTM
 40
0.0
  9
$DIMTXT
 40
4.0
  9
$DIMCEN
 40
2.5
  9
$DIMTSZ
 40
0.0
  9
$DIMTOL
 70
     0
  9
$DIMLIM
 70
     0
  9
$DIMTIH
 70
     0
  9
$DIMTOH
 70
     0
  9
$DIMSE1
 70
     0
  9
$DIMSE2
 70
     0
  9
$DIMTAD
 70
     1
  9
$DIMZIN
 70
     8
  9
$DIMBLK
  1

  9
$DIMASO
 70
     1
  9
$DIMSHO
 70
     1
  9
$DIMPOST
  1

  9
$DIMAPOST
  1

  9
$DIMALT
 70
     0
  9
$DIMALTD
 70
     4
  9
$DIMALTF
 40
0.0394
  9
$DIMLFAC
 40
1.0
  9
$DIMTOFL
 70
     1
  9
$DIMTVP
 40
0.0
  9
$DIMTIX
 70
     0
  9
$DIMSOXD
 70
     0
  9
$DIMSAH
 70
     0
  9
$DIMBLK1
  1

  9
$DIMBLK2
  1

  9
$DIMSTYLE
  2
STANDARD
  9
$DIMCLRD
 70
     0
  9
$DIMCLRE
 70
     0
  9
$DIMCLRT
 70
     0
  9
$DIMTFAC
 40
1.0
  9
$DIMGAP
 40
0.625
  9
$LUNITS
 70
     2
  9
$LUPREC
 70
     4
  9
$SKETCHINC
 40
1.0
  9
$FILLETRAD
 40
2.0
  9
$AUNITS
 70
     0
  9
$AUPREC
 70
     0
  9
$MENU
  1
acad
  9
$ELEVATION
 40
0.0
  9
$PELEVATION
 40
0.0
  9
$THICKNESS
 40
0.0
  9
$LIMCHECK
 70
     0
  9
$BLIPMODE
 70
     0
  9
$CHAMFERA
 40
0.0
  9
$CHAMFERB
 40
0.0
  9
$SKPOLY
 70
     0
  9
$TDCREATE
 40
2451801.38001
  9
$TDUPDATE
 40
2451883.604665
  9
$TDINDWG
 40
1.497727
  9
$TDUSRTIMER
 40
1.497727
  9
$USRTIMER
 70
     1
  9
$ANGBASE
 50
0.0
  9
$ANGDIR
 70
     0
  9
$PDMODE
 70
     0
  9
$PDSIZE
 40
0.0
  9
$PLINEWID
 40
0.0
  9
$COORDS
 70
     1
  9
$SPLFRAME
 70
     0
  9
$SPLINETYPE
 70
     6
  9
$SPLINESEGS
 70
     8
  9
$ATTDIA
 70
     0
  9
$ATTREQ
 70
     1
  9
$HANDLING
 70
     1
  9
$HANDSEED
  5
125
  9
$SURFTAB1
 70
     6
  9
$SURFTAB2
 70
     6
  9
$SURFTYPE
 70
     6
  9
$SURFU
 70
     6
  9
$SURFV
 70
     6
  9
$UCSNAME
  2

  9
$UCSORG
 10
0.0
 20
0.0
 30
0.0
  9
$UCSXDIR
 10
1.0
 20
0.0
 30
0.0
  9
$UCSYDIR
 10
0.0
 20
1.0
 30
0.0
  9
$PUCSNAME
  2

  9
$PUCSORG
 10
0.0
 20
0.0
 30
0.0
  9
$PUCSXDIR
 10
1.0
 20
0.0
 30
0.0
  9
$PUCSYDIR
 10
0.0
 20
1.0
 30
0.0
  9
$USERI1
 70
     0
  9
$USERI2
 70
     0
  9
$USERI3
 70
     0
  9
$USERI4
 70
     0
  9
$USERI5
 70
     0
  9
$USERR1
 40
0.0
  9
$USERR2
 40
0.0
  9
$USERR3
 40
0.0
  9
$USERR4
 40
0.0
  9
$USERR5
 40
0.0
  9
$WORLDVIEW
 70
     1
  9
$SHADEDGE
 70
     3
  9
$SHADEDIF
 70
    70
  9
$TILEMODE
 70
     1
  9
$MAXACTVP
 70
    48
  9
$PLIMCHECK
 70
     0
  9
$PEXTMIN
 10
1.000000E+020
 20
1.000000E+020
 30
1.000000E+020
  9
$PEXTMAX
 10
-1.000000E+020
 20
-1.000000E+020
 30
-1.000000E+020
  9
$PLIMMIN
 10
0.0
 20
0.0
  9
$PLIMMAX
 10
420.0
 20
297.0
  9
$UNITMODE
 70
     0
  9
$VISRETAIN
 70
     1
  9
$PLINEGEN
 70
     0
  9
$PSLTSCALE
 70
     1
  0
ENDSEC
  0
SECTION
  2
TABLES
  0
TABLE
  2
VPORT
 70
     2
  0
VPORT
  2
*ACTIVE
 70
     0
 10
0.0
 20
0.0
 11
1.0
 21
1.0
 12
123.992527
 22
130.133361
 13
0.0
 23
0.0
 14
10.0
 24
10.0
 15
25.0
 25
25.0
 16
0.0
 26
0.0
 36
1.0
 17
0.0
 27
0.0
 37
0.0
 40
194.144475
 41
1.700368
 42
50.0
 43
0.0
 44
0.0
 50
0.0
 51
0.0
 71
     0
 72
   100
 73
     1
 74
     1
 75
     0
 76
     0
 77
     0
 78
     0
  0
ENDTAB
  0
TABLE
  2
LTYPE
 70
     2
  0
LTYPE
  2
CONTINUOUS
 70
     0
  3
Solid line
 72
    65
 73
     0
 40
0.0
  0
LTYPE
  2
DASHED
 70
     0
  3
Dashed __ __ __ __ __ __ __ __ __ __ __ __ __ _
 72
    65
 73
     2
 40
19.05
 49
12.7
 49
-6.35
  0
ENDTAB
  0
TABLE
  2
LAYER
 70
     4
  0
LAYER
  2
0
 70
     0
 62
     7
  6
CONTINUOUS
  0
LAYER
  2
VERBORGEN
 70
     0
 62
     7
  6
DASHED
  0
LAYER
  2
MATEN
 70
     0
 62
     1
  6
CONTINUOUS
  0
LAYER
  2
DEFPOINTS
 70
     0
 62
     7
  6
CONTINUOUS
  0
ENDTAB
  0
TABLE
  2
STYLE
 70
     1
  0
STYLE
  2
STANDARD
 70
     0
 40
0.0
 41
1.0
 50
0.0
 71
     0
 42
2.5
  3
txt
  4

  0
ENDTAB
  0
TABLE
  2
VIEW
 70
     0
  0
ENDTAB
  0
TABLE
  2
UCS
 70
     0
  0
ENDTAB
  0
TABLE
  2
APPID
 70
     1
  0
APPID
  2
ACAD
 70
     0
  0
ENDTAB
  0
TABLE
  2
DIMSTYLE
 70
     1
  0
DIMSTYLE
  2
STANDARD
 70
     0
  3

  4

  5

  6

  7

 40
1.0
 41
0.18
 42
0.0625
 43
0.38
 44
0.18
 45
0.0
 46
0.0
 47
0.0
 48
0.0
140
0.18
141
0.09
142
0.0
143
25.4
144
1.0
145
0.0
146
1.0
147
0.09
 71
     0
 72
     0
 73
     1
 74
     1
 75
     0
 76
     0
 77
     0
 78
     0
170
     0
171
     2
172
     0
173
     0
174
     0
175
     0
176
     0
177
     0
178
     0
  0
ENDTAB
  0
ENDSEC
  0
SECTION
  2
BLOCKS
  0
BLOCK
  8
0
  2
$MODEL_SPACE
 70
     0
 10
0.0
 20
0.0
 30
0.0
  3
$MODEL_SPACE
  1

  0
ENDBLK
  5
6
  8
0
  0
BLOCK
 67
     1
  8
0
  2
$PAPER_SPACE
 70
     0
 10
0.0
 20
0.0
 30
0.0
  3
$PAPER_SPACE
  1

  0
ENDBLK
  5
9
 67
     1
  8
0
  0
BLOCK
  8
0
  2
*D0
 70
     1
 10
0.0
 20
0.0
 30
0.0
  3
*D0
  1

  0
LINE
  5
B8
  8
0
  6
BYBLOCK
 62
     0
 10
71.460509
 20
213.164819
 30
0.0
 11
61.200889
 21
169.093255
 31
0.0
  0
LINE
  5
B9
  8
0
  6
BYBLOCK
 62
     0
 10
55.305858
 20
143.770368
 30
0.0
 11
54.625663
 21
140.848497
 31
0.0
  0
TEXT
  8
0
  40
4
  5
11D
  62
0
  72
0
  71
0
 10
59.6285
 20
201.201
 30
0.000000
  1
%%c20
  0
LINE
  5
BB
  8
0
  6
BYBLOCK
 62
     0
 10
55.986054
 20
146.69224
 30
0.0
 11
60.520693
 21
166.171384
 31
0.0
  0
SOLID
  5
BC
  8
0
  6
BYBLOCK
 62
     0
 10
54.81888
 20
143.883734
 30
0.0
 11
55.792837
 21
143.657002
 31
0.0
 12
55.986054
 22
146.69224
 32
0.0
 13
55.986054
 23
146.69224
 33
0.0
  0
SOLID
  5
BD
  8
0
  6
BYBLOCK
 62
     0
 10
60.71391
 20
169.206621
 30
0.0
 11
61.687868
 21
168.979889
 31
0.0
 12
60.520693
 22
166.171384
 32
0.0
 13
60.520693
 23
166.171384
 33
0.0
  0
POINT
  5
BE
  8
DEFPOINTS
  6
BYBLOCK
 62
     0
 10
60.520693
 20
166.171384
 30
0.0
  0
POINT
  5
BF
  8
DEFPOINTS
  6
BYBLOCK
 62
     0
 10
55.986054
 20
146.69224
 30
0.0
  0
ENDBLK
  5
C0
  8
0
  0
BLOCK
  8
0
  2
*D1
 70
     1
 10
0.0
 20
0.0
 30
0.0
  3
*D1
  1

  0
LINE
  5
9F
  8
0
  6
BYBLOCK
 62
     0
 10
97.0
 20
173.056812
 30
0.0
 11
97.0
 21
213.553367
 31
0.0
  0
LINE
  5
A0
  8
0
  6
BYBLOCK
 62
     0
 10
142.0
 20
173.056812
 30
0.0
 11
142.0
 21
213.553367
 31
0.0
  0
LINE
  5
A1
  8
0
  6
BYBLOCK
 62
     0
 10
100.0
 20
212.303367
 30
0.0
 11
139.0
 21
212.303367
 31
0.0
  0
SOLID
  5
A2
  8
0
  6
BYBLOCK
 62
     0
 10
100.0
 20
212.803367
 30
0.0
 11
100.0
 21
211.803367
 31
0.0
 12
97.0
 22
212.303367
 32
0.0
 13
97.0
 23
212.303367
 33
0.0
  0
SOLID
  5
A3
  8
0
  6
BYBLOCK
 62
     0
 10
139.0
 20
212.803367
 30
0.0
 11
139.0
 21
211.803367
 31
0.0
 12
142.0
 22
212.303367
 32
0.0
 13
142.0
 23
212.303367
 33
0.0
  0
TEXT
  8
0
  40
4
  5
11E
  62
0
  72
0
  71
0
 10
111.500
 20
207.848
 30
0.000000
  1
45
  0
POINT
  5
A5
  8
DEFPOINTS
  6
BYBLOCK
 62
     0
 10
97.0
 20
172.431812
 30
0.0
  0
POINT
  5
A6
  8
DEFPOINTS
  6
BYBLOCK
 62
     0
 10
142.0
 20
172.431812
 30
0.0
  0
POINT
  5
A7
  8
DEFPOINTS
  6
BYBLOCK
 62
     0
 10
142.0
 20
212.303367
 30
0.0
  0
ENDBLK
  5
A8
  8
0
  0
BLOCK
  8
0
  2
*D2
 70
     1
 10
0.0
 20
0.0
 30
0.0
  3
*D2
  1

  0
LINE
  5
AC
  8
0
  6
BYBLOCK
 62
     0
 10
142.625
 20
172.431812
 30
0.0
 11
163.460167
 21
172.431812
 31
0.0
  0
LINE
  5
AD
  8
0
  6
BYBLOCK
 62
     0
 10
142.625
 20
140.431812
 30
0.0
 11
163.460167
 21
140.431812
 31
0.0
  0
LINE
  5
AE
  8
0
  6
BYBLOCK
 62
     0
 10
162.210167
 20
169.431812
 30
0.0
 11
162.210167
 21
143.431812
 31
0.0
  0
SOLID
  5
AF
  8
0
  6
BYBLOCK
 62
     0
 10
161.710167
 20
169.431812
 30
0.0
 11
162.710167
 21
169.431812
 31
0.0
 12
162.210167
 22
172.431812
 32
0.0
 13
162.210167
 23
172.431812
 33
0.0
  0
SOLID
  5
B0
  8
0
  6
BYBLOCK
 62
     0
 10
161.710167
 20
143.431812
 30
0.0
 11
162.710167
 21
143.431812
 31
0.0
 12
162.210167
 22
140.431812
 32
0.0
 13
162.210167
 23
140.431812
 33
0.0
  0
TEXT
  8
0
  40
4
  5
11F
  62
0
  72
0
  71
0
 10
151.585
 20
149.352
 30
0.000000
  1
32
  0
POINT
  5
B2
  8
DEFPOINTS
  6
BYBLOCK
 62
     0
 10
142.0
 20
172.431812
 30
0.0
  0
POINT
  5
B3
  8
DEFPOINTS
  6
BYBLOCK
 62
     0
 10
142.0
 20
140.431812
 30
0.0
  0
POINT
  5
B4
  8
DEFPOINTS
  6
BYBLOCK
 62
     0
 10
162.210167
 20
140.431812
 30
0.0
  0
ENDBLK
  5
B5
  8
0
  0
BLOCK
  8
0
  2
*D3
 70
     1
 10
0.0
 20
0.0
 30
0.0
  3
*D3
  1

  0
LINE
  5
CF
  8
0
  6
BYBLOCK
 62
     0
 10
83.878374
 20
191.581812
 30
0.0
 11
94.003646
 21
191.581812
 31
0.0
  0
LINE
  5
D0
  8
0
  6
BYBLOCK
 62
     0
 10
83.878374
 20
121.281812
 30
0.0
 11
94.003646
 21
121.281812
 31
0.0
  0
LINE
  5
D1
  8
0
  6
BYBLOCK
 62
     0
 10
92.753646
 20
188.581812
 30
0.0
 11
92.753646
 21
124.281812
 31
0.0
  0
SOLID
  5
D2
  8
0
  6
BYBLOCK
 62
     0
 10
92.253646
 20
188.581812
 30
0.0
 11
93.253646
 21
188.581812
 31
0.0
 12
92.753646
 22
191.581812
 32
0.0
 13
92.753646
 23
191.581812
 33
0.0
  0
SOLID
  5
D3
  8
0
  6
BYBLOCK
 62
     0
 10
92.253646
 20
124.281812
 30
0.0
 11
93.253646
 21
124.281812
 31
0.0
 12
92.753646
 22
121.281812
 32
0.0
 13
92.753646
 23
121.281812
 33
0.0
  0
TEXT
  8
0
  40
4
  5
120
  62
0
  72
0
  71
0
 10
82.1286
 20
149.352
 30
0.000000
  1
70.3
  0
POINT
  5
D5
  8
DEFPOINTS
  6
BYBLOCK
 62
     0
 10
83.253374
 20
191.581812
 30
0.0
  0
POINT
  5
D6
  8
DEFPOINTS
  6
BYBLOCK
 62
     0
 10
83.253374
 20
121.281812
 30
0.0
  0
POINT
  5
D7
  8
DEFPOINTS
  6
BYBLOCK
 62
     0
 10
92.753646
 20
121.281812
 30
0.0
  0
ENDBLK
  5
D8
  8
0
  0
BLOCK
  8
0
  2
*D4
 70
     1
 10
0.0
 20
0.0
 30
0.0
  3
*D4
  1

  0
LINE
  5
DC
  8
0
  6
BYBLOCK
 62
     0
 10
120.125
 20
185.251812
 30
0.0
 11
176.26127
 21
185.251812
 31
0.0
  0
LINE
  5
DD
  8
0
  6
BYBLOCK
 62
     0
 10
120.125
 20
127.611812
 30
0.0
 11
176.26127
 21
127.611812
 31
0.0
  0
LINE
  5
DE
  8
0
  6
BYBLOCK
 62
     0
 10
175.01127
 20
182.251812
 30
0.0
 11
175.01127
 21
130.611812
 31
0.0
  0
SOLID
  5
DF
  8
0
  6
BYBLOCK
 62
     0
 10
174.51127
 20
182.251812
 30
0.0
 11
175.51127
 21
182.251812
 31
0.0
 12
175.01127
 22
185.251812
 32
0.0
 13
175.01127
 23
185.251812
 33
0.0
  0
SOLID
  5
E0
  8
0
  6
BYBLOCK
 62
     0
 10
174.51127
 20
130.611812
 30
0.0
 11
175.51127
 21
130.611812
 31
0.0
 12
175.01127
 22
127.611812
 32
0.0
 13
175.01127
 23
127.611812
 33
0.0
  0
TEXT
  8
0
  40
4
  5
121
  62
0
  72
0
  71
0
 10
164.386
 20
149.352
 30
0.000000
  1
57.64
  0
POINT
  5
E2
  8
DEFPOINTS
  6
BYBLOCK
 62
     0
 10
119.5
 20
185.251812
 30
0.0
  0
POINT
  5
E3
  8
DEFPOINTS
  6
BYBLOCK
 62
     0
 10
119.5
 20
127.611812
 30
0.0
  0
POINT
  5
E4
  8
DEFPOINTS
  6
BYBLOCK
 62
     0
 10
175.01127
 20
127.611812
 30
0.0
  0
ENDBLK
  5
E5
  8
0
  0
BLOCK
  8
0
  2
*D5
 70
     1
 10
0.0
 20
0.0
 30
0.0
  3
*D5
  1

  0
LINE
  5
F3
  8
0
  6
BYBLOCK
 62
     0
 10
105.944481
 20
209.270644
 30
0.0
 11
115.897319
 21
191.635352
 31
0.0
  0
LINE
  5
F4
  8
0
  6
BYBLOCK
 62
     0
 10
123.102681
 20
178.868272
 30
0.0
 11
124.577176
 21
176.255636
 31
0.0
  0
TEXT
  8
0
  40
4
  5
122
  62
0
  72
0
  71
0
 10
104.470
 20
195.969
 30
0.000000
  1
%%c8.66
  0
LINE
  5
F6
  8
0
  6
BYBLOCK
 62
     0
 10
121.628187
 20
181.480907
 30
0.0
 11
117.371813
 21
189.022716
 31
0.0
  0
SOLID
  5
F7
  8
0
  6
BYBLOCK
 62
     0
 10
123.538121
 20
179.114021
 30
0.0
 11
122.667242
 21
178.622522
 31
0.0
 12
121.628187
 22
181.480907
 32
0.0
 13
121.628187
 23
181.480907
 33
0.0
  0
SOLID
  5
F8
  8
0
  6
BYBLOCK
 62
     0
 10
116.332758
 20
191.881101
 30
0.0
 11
115.461879
 21
191.389603
 31
0.0
 12
117.371813
 22
189.022716
 32
0.0
 13
117.371813
 23
189.022716
 33
0.0
  0
POINT
  5
F9
  8
DEFPOINTS
  6
BYBLOCK
 62
     0
 10
117.371813
 20
189.022716
 30
0.0
  0
POINT
  5
FA
  8
DEFPOINTS
  6
BYBLOCK
 62
     0
 10
121.628187
 20
181.480907
 30
0.0
  0
ENDBLK
  5
FB
  8
0
  0
BLOCK
  8
0
  2
*D6
 70
     1
 10
0.0
 20
0.0
 30
0.0
  3
*D6
  1

  0
LINE
  5
FF
  8
0
  6
BYBLOCK
 62
     0
 10
109.0
 20
122.656812
 30
0.0
 11
109.0
 21
111.518014
 31
0.0
  0
LINE
  5
100
  8
0
  6
BYBLOCK
 62
     0
 10
130.0
 20
122.656812
 30
0.0
 11
130.0
 21
111.518014
 31
0.0
  0
LINE
  5
101
  8
0
  6
BYBLOCK
 62
     0
 10
112.0
 20
112.768014
 30
0.0
 11
127.0
 21
112.768014
 31
0.0
  0
SOLID
  5
102
  8
0
  6
BYBLOCK
 62
     0
 10
112.0
 20
113.268014
 30
0.0
 11
112.0
 21
112.268014
 31
0.0
 12
109.0
 22
112.768014
 32
0.0
 13
109.0
 23
112.768014
 33
0.0
  0
SOLID
  5
103
  8
0
  6
BYBLOCK
 62
     0
 10
127.0
 20
113.268014
 30
0.0
 11
127.0
 21
112.268014
 31
0.0
 12
130.0
 22
112.768014
 32
0.0
 13
130.0
 23
112.768014
 33
0.0
  0
TEXT
  8
0
  40
4
  5
123
  62
0
  72
0
  71
0
 10
111.500
 20
108.313
 30
0.000000
  1
21
  0
POINT
  5
105
  8
DEFPOINTS
  6
BYBLOCK
 62
     0
 10
109.0
 20
123.281812
 30
0.0
  0
POINT
  5
106
  8
DEFPOINTS
  6
BYBLOCK
 62
     0
 10
130.0
 20
123.281812
 30
0.0
  0
POINT
  5
107
  8
DEFPOINTS
  6
BYBLOCK
 62
     0
 10
130.0
 20
112.768014
 30
0.0
  0
ENDBLK
  5
108
  8
0
  0
BLOCK
  8
0
  2
*D7
 70
     1
 10
0.0
 20
0.0
 30
0.0
  3
*D7
  1

  0
LINE
  5
10C
  8
0
  6
BYBLOCK
 62
     0
 10
83.253374
 20
122.656812
 30
0.0
 11
83.253374
 21
105.765918
 31
0.0
  0
LINE
  5
10D
  8
0
  6
BYBLOCK
 62
     0
 10
36.753374
 20
155.806812
 30
0.0
 11
36.753374
 21
105.765918
 31
0.0
  0
LINE
  5
10E
  8
0
  6
BYBLOCK
 62
     0
 10
80.253374
 20
107.015918
 30
0.0
 11
39.753374
 21
107.015918
 31
0.0
  0
SOLID
  5
10F
  8
0
  6
BYBLOCK
 62
     0
 10
80.253374
 20
107.515918
 30
0.0
 11
80.253374
 21
106.515918
 31
0.0
 12
83.253374
 22
107.015918
 32
0.0
 13
83.253374
 23
107.015918
 33
0.0
  0
SOLID
  5
110
  8
0
  6
BYBLOCK
 62
     0
 10
39.753374
 20
107.515918
 30
0.0
 11
39.753374
 21
106.515918
 31
0.0
 12
36.753374
 22
107.015918
 32
0.0
 13
36.753374
 23
107.015918
 33
0.0
  0
TEXT
  8
0
  40
4
  5
124
  62
0
  72
0
  71
0
 10
52.0034
 20
102.561
 30
0.000000
  1
46.5
  0
POINT
  5
112
  8
DEFPOINTS
  6
BYBLOCK
 62
     0
 10
83.253374
 20
123.281812
 30
0.0
  0
POINT
  5
113
  8
DEFPOINTS
  6
BYBLOCK
 62
     0
 10
36.753374
 20
156.431812
 30
0.0
  0
POINT
  5
114
  8
DEFPOINTS
  6
BYBLOCK
 62
     0
 10
36.753374
 20
107.015918
 30
0.0
  0
ENDBLK
  5
115
  8
0
  0
ENDSEC
  0
SECTION
  2
ENTITIES
  0
CIRCLE
  5
1E
  8
0
 10
58.253374
 20
156.431812
 30
0.0
 40
21.5
  0
CIRCLE
  5
1F
  8
0
 10
58.253374
 20
156.431812
 30
0.0
 40
10.0
  0
CIRCLE
  5
20
  8
0
 10
58.253374
 20
156.431812
 30
0.0
 40
16.0
  0
LINE
  5
21
  8
0
 10
73.253374
 20
178.931812
 30
0.0
 11
43.253374
 21
178.931812
 31
0.0
  0
LINE
  5
22
  8
0
 10
73.253374
 20
133.931812
 30
0.0
 11
43.253374
 21
133.931812
 31
0.0
  0
ARC
  5
23
  8
0
 10
39.253374
 20
142.602495
 30
0.0
 40
2.0
 50
0.0
 51
36.049329
  0
ARC
  5
24
  8
0
 10
43.253374
 20
135.931812
 30
0.0
 40
2.0
 50
180.0
 51
270.0
  0
LINE
  5
25
  8
0
 10
41.253374
 20
142.602495
 30
0.0
 11
41.253374
 21
135.931812
 31
0.0
  0
ARC
  5
26
  8
0
 10
39.253374
 20
170.261128
 30
0.0
 40
2.0
 50
323.950671
 51
0.0
  0
ARC
  5
27
  8
0
 10
43.253374
 20
176.931812
 30
0.0
 40
2.0
 50
90.0
 51
180.0
  0
LINE
  5
28
  8
0
 10
41.253374
 20
176.931812
 30
0.0
 11
41.253374
 21
170.261128
 31
0.0
  0
LINE
  5
29
  8
0
 10
142.0
 20
140.431812
 30
0.0
 11
142.0
 21
172.431812
 31
0.0
  0
LINE
  5
2A
  8
0
 10
97.0
 20
140.431812
 30
0.0
 11
97.0
 21
172.431812
 31
0.0
  0
LINE
  5
2B
  8
0
 10
133.5
 20
174.931812
 30
0.0
 11
133.5
 21
137.931812
 31
0.0
  0
LINE
  5
2C
  8
0
 10
105.5
 20
174.931812
 30
0.0
 11
105.5
 21
137.931812
 31
0.0
  0
LINE
  5
2D
  8
0
 10
83.253374
 20
191.581812
 30
0.0
 11
83.253374
 21
121.281812
 31
0.0
  0
LINE
  5
2E
  8
0
 10
130.0
 20
189.581812
 30
0.0
 11
130.0
 21
123.281812
 31
0.0
  0
LINE
  5
2F
  8
0
 10
109.0
 20
123.281812
 30
0.0
 11
109.0
 21
189.581812
 31
0.0
  0
LINE
  5
30
  8
VERBORGEN
 10
142.0
 20
65.0
 30
0.0
 11
97.0
 21
65.0
 31
0.0
  0
LINE
  5
33
  8
VERBORGEN
 10
142.0
 20
85.0
 30
0.0
 11
97.0
 21
85.0
 31
0.0
  0
LINE
  5
34
  8
VERBORGEN
 10
142.0
 20
146.431812
 30
0.0
 11
97.0
 21
146.431812
 31
0.0
  0
LINE
  5
35
  8
0
 10
132.736068
 20
91.0
 30
0.0
 11
142.0
 21
91.0
 31
0.0
  0
LINE
  5
37
  8
0
 10
132.736068
 20
59.0
 30
0.0
 11
142.0
 21
59.0
 31
0.0
  0
LINE
  5
38
  8
0
 10
142.0
 20
140.431812
 30
0.0
 11
133.5
 21
140.431812
 31
0.0
  0
LINE
  5
39
  8
0
 10
109.0
 20
93.5
 30
0.0
 11
109.0
 21
55.0
 31
0.0
  0
LINE
  5
3A
  8
0
 10
130.0
 20
55.0
 30
0.0
 11
130.0
 21
93.5
 31
0.0
  0
ARC
  5
3B
  8
0
 10
108.5
 20
89.0
 30
0.0
 40
3.0
 50
90.0
 51
180.0
  0
ARC
  5
3C
  8
0
 10
130.5
 20
89.0
 30
0.0
 40
3.0
 50
0.0
 51
90.0
  0
LINE
  5
3D
  8
0
 10
97.0
 20
91.0
 30
0.0
 11
97.0
 21
59.0
 31
0.0
  0
ARC
  5
3E
  8
0
 10
127.0
 20
55.0
 30
0.0
 40
3.0
 50
0.0
 51
90.0
  0
ARC
  5
3F
  8
0
 10
112.0
 20
55.0
 30
0.0
 40
3.0
 50
90.0
 51
180.0
  0
ARC
  5
40
  8
0
 10
130.5
 20
61.0
 30
0.0
 40
3.0
 50
270.0
 51
0.0
  0
ARC
  5
41
  8
0
 10
108.5
 20
61.0
 30
0.0
 40
3.0
 50
180.0
 51
270.0
  0
LINE
  5
42
  8
0
 10
115.17
 20
58.0
 30
0.0
 11
115.17
 21
50.0
 31
0.0
  0
LINE
  5
43
  8
0
 10
123.83
 20
58.0
 30
0.0
 11
123.83
 21
50.0
 31
0.0
  0
LINE
  5
44
  8
0
 10
112.0
 20
58.0
 30
0.0
 11
127.0
 21
58.0
 31
0.0
  0
LINE
  5
45
  8
0
 10
133.5
 20
89.0
 30
0.0
 11
133.5
 21
61.0
 31
0.0
  0
LINE
  5
46
  8
0
 10
105.5
 20
89.0
 30
0.0
 11
105.5
 21
61.0
 31
0.0
  0
LINE
  5
47
  8
0
 10
97.0
 20
59.0
 30
0.0
 11
106.263932
 21
59.0
 31
0.0
  0
LINE
  5
48
  8
0
 10
109.0
 20
50.0
 30
0.0
 11
130.0
 21
50.0
 31
0.0
  0
LINE
  5
49
  8
0
 10
130.0
 20
55.0
 30
0.0
 11
130.0
 21
50.0
 31
0.0
  0
LINE
  5
4A
  8
0
 10
109.0
 20
55.0
 30
0.0
 11
109.0
 21
50.0
 31
0.0
  0
LINE
  5
4B
  8
0
 10
83.253374
 20
123.281812
 30
0.0
 11
75.253374
 21
123.281812
 31
0.0
  0
LINE
  5
4C
  8
0
 10
83.253374
 20
131.941812
 30
0.0
 11
75.253373
 21
131.933812
 31
0.0
  0
ARC
  5
4D
  8
0
 10
73.253374
 20
131.931812
 30
0.0
 40
2.0
 50
0.0
 51
90.0
  0
ARC
  5
4E
  8
0
 10
77.253374
 20
123.281812
 30
0.0
 40
2.0
 50
180.0
 51
270.0
  0
LINE
  5
4F
  8
0
 10
75.253374
 20
131.931812
 30
0.0
 11
75.253374
 21
123.281812
 31
0.0
  0
LINE
  5
50
  8
0
 10
83.253374
 20
121.281812
 30
0.0
 11
77.253374
 21
121.281812
 31
0.0
  0
ARC
  5
51
  8
0
 10
127.0
 20
93.5
 30
0.0
 40
3.0
 50
0.0
 51
90.0
  0
ARC
  5
52
  8
0
 10
112.0
 20
93.5
 30
0.0
 40
3.0
 50
90.0
 51
180.0
  0
LINE
  5
53
  8
0
 10
108.5
 20
92.0
 30
0.0
 11
130.5
 21
92.0
 31
0.0
  0
LINE
  5
54
  8
0
 10
97.0
 20
91.0
 30
0.0
 11
106.263932
 21
91.0
 31
0.0
  0
LINE
  5
55
  8
0
 10
112.0
 20
96.5
 30
0.0
 11
127.0
 21
96.5
 31
0.0
  0
LINE
  5
56
  8
0
 10
105.5
 20
140.431812
 30
0.0
 11
97.0
 21
140.431812
 31
0.0
  0
LINE
  5
57
  8
0
 10
130.0
 20
134.931812
 30
0.0
 11
130.5
 21
134.931812
 31
0.0
  0
ARC
  5
58
  8
0
 10
108.5
 20
137.931812
 30
0.0
 40
3.0
 50
180.0
 51
270.0
  0
ARC
  5
59
  8
0
 10
130.5
 20
137.931812
 30
0.0
 40
3.0
 50
270.0
 51
0.0
  0
LINE
  5
5A
  8
0
 10
108.5
 20
134.931812
 30
0.0
 11
109.0
 21
134.931812
 31
0.0
  0
ARC
  5
5B
  8
0
 10
128.0
 20
123.281812
 30
0.0
 40
2.0
 50
270.0
 51
0.0
  0
ARC
  5
5C
  8
0
 10
111.0
 20
123.281812
 30
0.0
 40
2.0
 50
180.0
 51
270.0
  0
CIRCLE
  5
5D
  8
0
 10
119.5
 20
127.611812
 30
0.0
 40
4.33
  0
LINE
  5
5E
  8
0
 10
109.0
 20
133.931812
 30
0.0
 11
130.0
 21
133.931812
 31
0.0
  0
LINE
  5
5F
  8
0
 10
111.0
 20
121.281812
 30
0.0
 11
128.0
 21
121.281812
 31
0.0
  0
LINE
  5
60
  8
0
 10
142.0
 20
91.0
 30
0.0
 11
142.0
 21
59.0
 31
0.0
  0
LINE
  5
61
  8
VERBORGEN
 10
142.0
 20
166.431812
 30
0.0
 11
97.0
 21
166.431812
 31
0.0
  0
LINE
  5
62
  8
0
 10
142.0
 20
172.431812
 30
0.0
 11
133.5
 21
172.431812
 31
0.0
  0
LINE
  5
63
  8
0
 10
83.253374
 20
180.921812
 30
0.0
 11
75.253374
 21
180.921812
 31
0.0
  0
LINE
  5
64
  8
0
 10
83.253374
 20
189.581812
 30
0.0
 11
75.253374
 21
189.581812
 31
0.0
  0
ARC
  5
65
  8
0
 10
73.253374
 20
180.931812
 30
0.0
 40
2.0
 50
270.0
 51
0.0
  0
ARC
  5
66
  8
0
 10
77.253374
 20
189.581812
 30
0.0
 40
2.0
 50
90.0
 51
180.0
  0
LINE
  5
67
  8
0
 10
75.253374
 20
189.581812
 30
0.0
 11
75.253374
 21
180.931812
 31
0.0
  0
LINE
  5
68
  8
0
 10
83.253374
 20
191.581812
 30
0.0
 11
77.253374
 21
191.581812
 31
0.0
  0
LINE
  5
69
  8
0
 10
105.5
 20
172.431812
 30
0.0
 11
97.0
 21
172.431812
 31
0.0
  0
LINE
  5
6A
  8
0
 10
130.0
 20
177.931812
 30
0.0
 11
130.5
 21
177.931812
 31
0.0
  0
ARC
  5
6B
  8
0
 10
130.5
 20
174.931812
 30
0.0
 40
3.0
 50
0.0
 51
90.0
  0
ARC
  5
6C
  8
0
 10
108.5
 20
174.931812
 30
0.0
 40
3.0
 50
90.0
 51
180.0
  0
LINE
  5
6D
  8
0
 10
108.5
 20
177.931812
 30
0.0
 11
109.0
 21
177.931812
 31
0.0
  0
ARC
  5
6E
  8
0
 10
111.0
 20
189.581812
 30
0.0
 40
2.0
 50
90.0
 51
180.0
  0
ARC
  5
6F
  8
0
 10
128.0
 20
189.581812
 30
0.0
 40
2.0
 50
0.0
 51
90.0
  0
CIRCLE
  5
70
  8
0
 10
119.5
 20
185.251812
 30
0.0
 40
4.33
  0
LINE
  5
71
  8
0
 10
109.0
 20
178.931812
 30
0.0
 11
130.0
 21
178.931812
 31
0.0
  0
LINE
  5
72
  8
0
 10
111.0
 20
191.581812
 30
0.0
 11
128.0
 21
191.581812
 31
0.0
  0
DIMENSION
  5
88
  8
MATEN
  2
*D0
 10
55.986054
 20
146.69224
 30
0.0
 11
70.185142
 21
207.686309
 31
0.0
 70
   131
 15
60.520693
 25
166.171384
 35
0.0
 40
0.0
1001
ACAD
1000
DSTYLE
1002
{
1070
    78
1070
     8
1070
   140
1040
4.0
1070
    74
1070
     0
1070
   172
1070
     1
1070
    73
1070
     0
1070
    77
1070
     1
1070
   147
1040
0.625
1070
    42
1040
0.625
1070
    44
1040
1.25
1070
    43
1040
3.75
1070
   271
1070
     2
1070
   141
1040
2.5
1070
   275
1070
     1
1070
    41
1040
3.0
1070
   273
1070
     8
1070
   274
1070
     4
1070
   143
1040
0.0394
1070
   171
1070
     4
1002
}
  0
DIMENSION
  5
A9
  8
MATEN
  2
*D1
 10
142.0
 20
212.303367
 30
0.0
 11
119.5
 21
214.928367
 31
0.0
 70
     0
 13
97.0
 23
172.431812
 33
0.0
 14
142.0
 24
172.431812
 34
0.0
1001
ACAD
1000
DSTYLE
1002
{
1070
    78
1070
     8
1070
   140
1040
4.0
1070
    74
1070
     0
1070
   172
1070
     1
1070
    73
1070
     0
1070
    77
1070
     1
1070
   147
1040
0.625
1070
    42
1040
0.625
1070
    44
1040
1.25
1070
    43
1040
3.75
1070
   271
1070
     2
1070
   141
1040
2.5
1070
   275
1070
     1
1070
    41
1040
3.0
1070
   273
1070
     8
1070
   274
1070
     4
1070
   143
1040
0.0394
1070
   171
1070
     4
1002
}
  0
DIMENSION
  5
B6
  8
MATEN
  2
*D2
 10
162.210167
 20
140.431812
 30
0.0
 11
159.585167
 21
156.431812
 31
0.0
 70
     0
 13
142.0
 23
172.431812
 33
0.0
 14
142.0
 24
140.431812
 34
0.0
 50
90.0
1001
ACAD
1000
DSTYLE
1002
{
1070
    78
1070
     8
1070
   140
1040
4.0
1070
    74
1070
     0
1070
   172
1070
     1
1070
    73
1070
     0
1070
    77
1070
     1
1070
   147
1040
0.625
1070
    42
1040
0.625
1070
    44
1040
1.25
1070
    43
1040
3.75
1070
   271
1070
     2
1070
   141
1040
2.5
1070
   275
1070
     1
1070
    41
1040
3.0
1070
   273
1070
     8
1070
   274
1070
     4
1070
   143
1040
0.0394
1070
   171
1070
     4
1002
}
  0
DIMENSION
  5
D9
  8
MATEN
  2
*D3
 10
92.753646
 20
121.281812
 30
0.0
 11
90.128646
 21
156.431812
 31
0.0
 70
     0
 13
83.253374
 23
191.581812
 33
0.0
 14
83.253374
 24
121.281812
 34
0.0
 50
90.0
1001
ACAD
1000
DSTYLE
1002
{
1070
    78
1070
     8
1070
   140
1040
4.0
1070
    74
1070
     0
1070
   172
1070
     1
1070
    73
1070
     0
1070
    77
1070
     1
1070
   147
1040
0.625
1070
    42
1040
0.625
1070
    44
1040
1.25
1070
    43
1040
3.75
1070
   271
1070
     2
1070
   141
1040
2.5
1070
   275
1070
     1
1070
    41
1040
3.0
1070
   273
1070
     8
1070
   274
1070
     4
1070
   143
1040
0.0394
1070
   171
1070
     4
1002
}
  0
DIMENSION
  5
E6
  8
MATEN
  2
*D4
 10
175.01127
 20
127.611812
 30
0.0
 11
172.38627
 21
156.431812
 31
0.0
 70
     0
 13
119.5
 23
185.251812
 33
0.0
 14
119.5
 24
127.611812
 34
0.0
 50
90.0
1001
ACAD
1000
DSTYLE
1002
{
1070
    78
1070
     8
1070
   140
1040
4.0
1070
    74
1070
     0
1070
   172
1070
     1
1070
    73
1070
     0
1070
    77
1070
     1
1070
   147
1040
0.625
1070
    42
1040
0.625
1070
    44
1040
1.25
1070
    43
1040
3.75
1070
   271
1070
     2
1070
   141
1040
2.5
1070
   275
1070
     1
1070
    41
1040
3.0
1070
   273
1070
     8
1070
   274
1070
     4
1070
   143
1040
0.0394
1070
   171
1070
     4
1002
}
  0
DIMENSION
  5
FC
  8
MATEN
  2
*D5
 10
121.628187
 20
181.480907
 30
0.0
 11
110.183653
 21
201.759316
 31
0.0
 70
   131
 15
117.371813
 25
189.022716
 35
0.0
 40
0.0
1001
ACAD
1000
DSTYLE
1002
{
1070
    78
1070
     8
1070
   288
1070
     1
1070
   140
1040
4.0
1070
    74
1070
     0
1070
   172
1070
     1
1070
    73
1070
     0
1070
    77
1070
     1
1070
   147
1040
0.625
1070
    42
1040
0.625
1070
    44
1040
1.25
1070
    43
1040
3.75
1070
   271
1070
     2
1070
   141
1040
2.5
1070
   275
1070
     1
1070
    41
1040
3.0
1070
   273
1070
     8
1070
   274
1070
     4
1070
   143
1040
0.0394
1070
   171
1070
     4
1002
}
  0
DIMENSION
  5
109
  8
MATEN
  2
*D6
 10
130.0
 20
112.768014
 30
0.0
 11
119.5
 21
115.393014
 31
0.0
 70
     0
 13
109.0
 23
123.281812
 33
0.0
 14
130.0
 24
123.281812
 34
0.0
1001
ACAD
1000
DSTYLE
1002
{
1070
    78
1070
     8
1070
   140
1040
4.0
1070
    74
1070
     0
1070
   172
1070
     1
1070
    73
1070
     0
1070
    77
1070
     1
1070
   147
1040
0.625
1070
    42
1040
0.625
1070
    44
1040
1.25
1070
    43
1040
3.75
1070
   271
1070
     2
1070
   141
1040
2.5
1070
   275
1070
     1
1070
    41
1040
3.0
1070
   273
1070
     8
1070
   274
1070
     4
1070
   143
1040
0.0394
1070
   171
1070
     4
1002
}
  0
DIMENSION
  5
116
  8
MATEN
  2
*D7
 10
36.753374
 20
107.015918
 30
0.0
 11
60.003374
 21
109.640918
 31
0.0
 70
     0
 13
83.253374
 23
123.281812
 33
0.0
 14
36.753374
 24
156.431812
 34
0.0
1001
ACAD
1000
DSTYLE
1002
{
1070
    78
1070
     8
1070
   140
1040
4.0
1070
    74
1070
     0
1070
   172
1070
     1
1070
    73
1070
     0
1070
    77
1070
     1
1070
   147
1040
0.625
1070
    42
1040
0.625
1070
    44
1040
1.25
1070
    43
1040
3.75
1070
   271
1070
     2
1070
   141
1040
2.5
1070
   275
1070
     1
1070
    41
1040
3.0
1070
   273
1070
     8
1070
   274
1070
     4
1070
   143
1040
0.0394
1070
   171
1070
     4
1002
}
  0
ENDSEC
  0
EOF
