  0
SECTION
  2
HEADER
  9
$ACADVER
  1
AC1009
  9
$INSBASE
 10
0.0
 20
0.0
 30
0.0
  9
$EXTMIN
 10
2403.538232
 20
1066.040401
 30
0.0
  9
$EXTMAX
 10
2475.677019
 20
1131.686019
 30
0.0
  9
$LIMMIN
 10
0.0
 20
0.0
  9
$LIMMAX
 10
4200.0
 20
2970.0
  9
$ORTHOMODE
 70
     1
  9
$REGENMODE
 70
     1
  9
$FILLMODE
 70
     1
  9
$QTEXTMODE
 70
     0
  9
$MIRRTEXT
 70
     1
  9
$DRAGMODE
 70
     2
  9
$LTSCALE
 40
3.1
  9
$OSMODE
 70
   191
  9
$ATTMODE
 70
     1
  9
$TEXTSIZE
 40
2.5
  9
$TRACEWID
 40
1.0
  9
$TEXTSTYLE
  7
STANDARD
  9
$CLAYER
  8
MATEN
  9
$CELTYPE
  6
CENTER
  9
$CECOLOR
 62
   256
  9
$DIMSCALE
 40
1.0
  9
$DIMASZ
 40
5.0
  9
$DIMEXO
 40
0.625
  9
$DIMDLI
 40
3.75
  9
$DIMRND
 40
0.0
  9
$DIMDLE
 40
0.0
  9
$DIMEXE
 40
1.25
  9
$DIMTP
 40
0.0
  9
$DIMTM
 40
0.0
  9
$DIMTXT
 40
4.0
  9
$DIMCEN
 40
2.5
  9
$DIMTSZ
 40
0.0
  9
$DIMTOL
 70
     0
  9
$DIMLIM
 70
     0
  9
$DIMTIH
 70
     0
  9
$DIMTOH
 70
     0
  9
$DIMSE1
 70
     0
  9
$DIMSE2
 70
     0
  9
$DIMTAD
 70
     1
  9
$DIMZIN
 70
     8
  9
$DIMBLK
  1

  9
$DIMASO
 70
     1
  9
$DIMSHO
 70
     1
  9
$DIMPOST
  1

  9
$DIMAPOST
  1

  9
$DIMALT
 70
     0
  9
$DIMALTD
 70
     4
  9
$DIMALTF
 40
0.0394
  9
$DIMLFAC
 40
1.0
  9
$DIMTOFL
 70
     1
  9
$DIMTVP
 40
0.0
  9
$DIMTIX
 70
     0
  9
$DIMSOXD
 70
     0
  9
$DIMSAH
 70
     0
  9
$DIMBLK1
  1

  9
$DIMBLK2
  1

  9
$DIMSTYLE
  2
STANDARD
  9
$DIMCLRD
 70
     0
  9
$DIMCLRE
 70
     0
  9
$DIMCLRT
 70
     0
  9
$DIMTFAC
 40
1.0
  9
$DIMGAP
 40
2.625
  9
$LUNITS
 70
     2
  9
$LUPREC
 70
     4
  9
$SKETCHINC
 40
1.0
  9
$FILLETRAD
 40
0.1
  9
$AUNITS
 70
     0
  9
$AUPREC
 70
     0
  9
$MENU
  1
acad
  9
$ELEVATION
 40
0.0
  9
$PELEVATION
 40
0.0
  9
$THICKNESS
 40
0.0
  9
$LIMCHECK
 70
     0
  9
$BLIPMODE
 70
     0
  9
$CHAMFERA
 40
0.6
  9
$CHAMFERB
 40
0.6
  9
$SKPOLY
 70
     0
  9
$TDCREATE
 40
2451801.38001
  9
$TDUPDATE
 40
2451879.94991
  9
$TDINDWG
 40
3.282595
  9
$TDUSRTIMER
 40
3.282595
  9
$USRTIMER
 70
     1
  9
$ANGBASE
 50
0.0
  9
$ANGDIR
 70
     0
  9
$PDMODE
 70
     0
  9
$PDSIZE
 40
0.0
  9
$PLINEWID
 40
0.0
  9
$COORDS
 70
     1
  9
$SPLFRAME
 70
     0
  9
$SPLINETYPE
 70
     6
  9
$SPLINESEGS
 70
     8
  9
$ATTDIA
 70
     0
  9
$ATTREQ
 70
     1
  9
$HANDLING
 70
     1
  9
$HANDSEED
  5
1E4
  9
$SURFTAB1
 70
     6
  9
$SURFTAB2
 70
     6
  9
$SURFTYPE
 70
     6
  9
$SURFU
 70
     6
  9
$SURFV
 70
     6
  9
$UCSNAME
  2

  9
$UCSORG
 10
0.0
 20
0.0
 30
0.0
  9
$UCSXDIR
 10
1.0
 20
0.0
 30
0.0
  9
$UCSYDIR
 10
0.0
 20
1.0
 30
0.0
  9
$PUCSNAME
  2

  9
$PUCSORG
 10
0.0
 20
0.0
 30
0.0
  9
$PUCSXDIR
 10
1.0
 20
0.0
 30
0.0
  9
$PUCSYDIR
 10
0.0
 20
1.0
 30
0.0
  9
$USERI1
 70
     0
  9
$USERI2
 70
     0
  9
$USERI3
 70
     0
  9
$USERI4
 70
     0
  9
$USERI5
 70
     0
  9
$USERR1
 40
0.0
  9
$USERR2
 40
0.0
  9
$USERR3
 40
0.0
  9
$USERR4
 40
0.0
  9
$USERR5
 40
0.0
  9
$WORLDVIEW
 70
     1
  9
$SHADEDGE
 70
     3
  9
$SHADEDIF
 70
    70
  9
$TILEMODE
 70
     1
  9
$MAXACTVP
 70
    48
  9
$PLIMCHECK
 70
     0
  9
$PEXTMIN
 10
1.000000E+020
 20
1.000000E+020
 30
1.000000E+020
  9
$PEXTMAX
 10
-1.000000E+020
 20
-1.000000E+020
 30
-1.000000E+020
  9
$PLIMMIN
 10
0.0
 20
0.0
  9
$PLIMMAX
 10
420.0
 20
297.0
  9
$UNITMODE
 70
     0
  9
$VISRETAIN
 70
     1
  9
$PLINEGEN
 70
     0
  9
$PSLTSCALE
 70
     1
  0
ENDSEC
  0
SECTION
  2
TABLES
  0
TABLE
  2
VPORT
 70
     2
  0
VPORT
  2
*ACTIVE
 70
     0
 10
0.0
 20
0.0
 11
1.0
 21
1.0
 12
2442.696056
 22
1103.406311
 13
0.0
 23
0.0
 14
10.0
 24
10.0
 15
25.0
 25
25.0
 16
0.0
 26
0.0
 36
1.0
 17
0.0
 27
0.0
 37
0.0
 40
102.7202
 41
1.700368
 42
50.0
 43
0.0
 44
0.0
 50
0.0
 51
0.0
 71
     0
 72
   100
 73
     1
 74
     1
 75
     0
 76
     0
 77
     0
 78
     0
  0
ENDTAB
  0
TABLE
  2
LTYPE
 70
     2
  0
LTYPE
  2
CONTINUOUS
 70
     0
  3
Solid line
 72
    65
 73
     0
 40
0.0
  0
LTYPE
  2
CENTER
 70
     0
  3
Center ____ _ ____ _ ____ _ ____ _ ____ _ ____
 72
    65
 73
     4
 40
2.0
 49
1.25
 49
-0.25
 49
0.25
 49
-0.25
  0
ENDTAB
  0
TABLE
  2
LAYER
 70
     3
  0
LAYER
  2
0
 70
     0
 62
     7
  6
CONTINUOUS
  0
LAYER
  2
MATEN
 70
     0
 62
     1
  6
CONTINUOUS
  0
LAYER
  2
DEFPOINTS
 70
     0
 62
     7
  6
CONTINUOUS
  0
ENDTAB
  0
TABLE
  2
STYLE
 70
     1
  0
STYLE
  2
STANDARD
 70
     0
 40
0.0
 41
1.0
 50
0.0
 71
     0
 42
2.5
  3
txt
  4

  0
ENDTAB
  0
TABLE
  2
VIEW
 70
     0
  0
ENDTAB
  0
TABLE
  2
UCS
 70
     0
  0
ENDTAB
  0
TABLE
  2
APPID
 70
     1
  0
APPID
  2
ACAD
 70
     0
  0
ENDTAB
  0
TABLE
  2
DIMSTYLE
 70
     1
  0
DIMSTYLE
  2
STANDARD
 70
     0
  3

  4

  5

  6

  7

 40
1.0
 41
0.18
 42
0.0625
 43
0.38
 44
0.18
 45
0.0
 46
0.0
 47
0.0
 48
0.0
140
0.18
141
0.09
142
0.0
143
25.4
144
1.0
145
0.0
146
1.0
147
0.09
 71
     0
 72
     0
 73
     1
 74
     1
 75
     0
 76
     0
 77
     0
 78
     0
170
     0
171
     2
172
     0
173
     0
174
     0
175
     0
176
     0
177
     0
178
     0
  0
ENDTAB
  0
ENDSEC
  0
SECTION
  2
BLOCKS
  0
BLOCK
  8
0
  2
$MODEL_SPACE
 70
     0
 10
0.0
 20
0.0
 30
0.0
  3
$MODEL_SPACE
  1

  0
ENDBLK
  5
6
  8
0
  0
BLOCK
 67
     1
  8
0
  2
$PAPER_SPACE
 70
     0
 10
0.0
 20
0.0
 30
0.0
  3
$PAPER_SPACE
  1

  0
ENDBLK
  5
9
 67
     1
  8
0
  0
BLOCK
  8
0
  2
*D0
 70
     1
 10
0.0
 20
0.0
 30
0.0
  3
*D0
  1

  0
LINE
  5
CE
  8
0
  6
BYBLOCK
 62
     0
 10
2404.584774
 20
1113.947117
 30
0.0
 11
2404.584774
 21
1126.311019
 31
0.0
  0
LINE
  5
CF
  8
0
  6
BYBLOCK
 62
     0
 10
2464.584774
 20
1113.947117
 30
0.0
 11
2464.584774
 21
1126.311019
 31
0.0
  0
LINE
  5
D0
  8
0
  6
BYBLOCK
 62
     0
 10
2409.584774
 20
1125.061019
 30
0.0
 11
2459.584774
 21
1125.061019
 31
0.0
  0
SOLID
  5
D1
  8
0
  6
BYBLOCK
 62
     0
 10
2409.584774
 20
1125.894353
 30
0.0
 11
2409.584774
 21
1124.227686
 31
0.0
 12
2404.584774
 22
1125.061019
 32
0.0
 13
2404.584774
 23
1125.061019
 33
0.0
  0
SOLID
  5
D2
  8
0
  6
BYBLOCK
 62
     0
 10
2459.584774
 20
1125.894353
 30
0.0
 11
2459.584774
 21
1124.227686
 31
0.0
 12
2464.584774
 22
1125.061019
 32
0.0
 13
2464.584774
 23
1125.061019
 33
0.0
  0
TEXT
  8
0
  40
4
  5
1E1
  62
0
  72
0
  71
0
 10
2426.76
 20
1122.61
 30
0.000000
  1
60
  0
POINT
  5
D4
  8
DEFPOINTS
  6
BYBLOCK
 62
     0
 10
2404.584774
 20
1113.322117
 30
0.0
  0
POINT
  5
D5
  8
DEFPOINTS
  6
BYBLOCK
 62
     0
 10
2464.584774
 20
1113.322117
 30
0.0
  0
POINT
  5
D6
  8
DEFPOINTS
  6
BYBLOCK
 62
     0
 10
2464.584774
 20
1125.061019
 30
0.0
  0
ENDBLK
  5
D7
  8
0
  0
BLOCK
  8
0
  2
*D1
 70
     1
 10
0.0
 20
0.0
 30
0.0
  3
*D1
  1

  0
LINE
  5
D9
  8
0
  6
BYBLOCK
 62
     0
 10
2429.434774
 20
1116.647117
 30
0.0
 11
2429.434774
 21
1118.91336
 31
0.0
  0
LINE
  5
DA
  8
0
  6
BYBLOCK
 62
     0
 10
2439.734774
 20
1116.647117
 30
0.0
 11
2439.734774
 21
1118.91336
 31
0.0
  0
LINE
  5
DB
  8
0
  6
BYBLOCK
 62
     0
 10
2424.434774
 20
1117.66336
 30
0.0
 11
2419.434774
 21
1117.66336
 31
0.0
  0
LINE
  5
DC
  8
0
  6
BYBLOCK
 62
     0
 10
2444.734774
 20
1117.66336
 30
0.0
 11
2449.734774
 21
1117.66336
 31
0.0
  0
LINE
  5
DD
  8
0
  6
BYBLOCK
 62
     0
 10
2429.434774
 20
1117.66336
 30
0.0
 11
2439.734774
 21
1117.66336
 31
0.0
  0
SOLID
  5
DE
  8
0
  6
BYBLOCK
 62
     0
 10
2424.434774
 20
1118.496694
 30
0.0
 11
2424.434774
 21
1116.830027
 31
0.0
 12
2429.434774
 22
1117.66336
 32
0.0
 13
2429.434774
 23
1117.66336
 33
0.0
  0
SOLID
  5
DF
  8
0
  6
BYBLOCK
 62
     0
 10
2444.734774
 20
1118.496694
 30
0.0
 11
2444.734774
 21
1116.830027
 31
0.0
 12
2439.734774
 22
1117.66336
 32
0.0
 13
2439.734774
 23
1117.66336
 33
0.0
  0
TEXT
  8
0
  40
4
  5
1E2
  62
0
  72
0
  71
0
 10
2426.58
 20
1115.21
 30
0.000000
  1
10.3
  0
POINT
  5
E1
  8
DEFPOINTS
  6
BYBLOCK
 62
     0
 10
2429.434774
 20
1116.022117
 30
0.0
  0
POINT
  5
E2
  8
DEFPOINTS
  6
BYBLOCK
 62
     0
 10
2439.734774
 20
1116.022117
 30
0.0
  0
POINT
  5
E3
  8
DEFPOINTS
  6
BYBLOCK
 62
     0
 10
2439.734774
 20
1117.66336
 30
0.0
  0
ENDBLK
  5
E4
  8
0
  0
BLOCK
  8
0
  2
*D2
 70
     1
 10
0.0
 20
0.0
 30
0.0
  3
*D2
  1

  0
LINE
  5
FE
  8
0
  6
BYBLOCK
 62
     0
 10
2462.509774
 20
1116.022117
 30
0.0
 11
2475.677019
 21
1116.022117
 31
0.0
  0
LINE
  5
FF
  8
0
  6
BYBLOCK
 62
     0
 10
2462.509774
 20
1071.022117
 30
0.0
 11
2475.677019
 21
1071.022117
 31
0.0
  0
LINE
  5
100
  8
0
  6
BYBLOCK
 62
     0
 10
2474.427019
 20
1111.022117
 30
0.0
 11
2474.427019
 21
1076.022117
 31
0.0
  0
SOLID
  5
101
  8
0
  6
BYBLOCK
 62
     0
 10
2473.593685
 20
1111.022117
 30
0.0
 11
2475.260352
 21
1111.022117
 31
0.0
 12
2474.427019
 22
1116.022117
 32
0.0
 13
2474.427019
 23
1116.022117
 33
0.0
  0
SOLID
  5
102
  8
0
  6
BYBLOCK
 62
     0
 10
2473.593685
 20
1076.022117
 30
0.0
 11
2475.260352
 21
1076.022117
 31
0.0
 12
2474.427019
 22
1071.022117
 32
0.0
 13
2474.427019
 23
1071.022117
 33
0.0
  0
TEXT
  8
0
  40
4
  5
1E3
  62
0
  72
0
  71
0
 10
2461.80
 20
1087.02
 30
0.000000
  1
45
  0
POINT
  5
104
  8
DEFPOINTS
  6
BYBLOCK
 62
     0
 10
2461.884774
 20
1116.022117
 30
0.0
  0
POINT
  5
105
  8
DEFPOINTS
  6
BYBLOCK
 62
     0
 10
2461.884774
 20
1071.022117
 30
0.0
  0
POINT
  5
106
  8
DEFPOINTS
  6
BYBLOCK
 62
     0
 10
2474.427019
 20
1071.022117
 30
0.0
  0
ENDBLK
  5
107
  8
0
  0
BLOCK
  8
0
  2
*X3
 70
     1
 10
0.0
 20
0.0
 30
0.0
  3
*X3
  1

  0
LINE
  5
10D
  8
MATEN
  6
CENTER
 62
     0
 10
2463.493137
 20
1071.553438
 30
0.0
 11
2464.053452
 21
1072.113754
 31
0.0
  0
LINE
  5
10E
  8
MATEN
  6
CENTER
 62
     0
 10
2461.165764
 20
1071.022117
 30
0.0
 11
2464.584774
 21
1074.441126
 31
0.0
  0
LINE
  5
10F
  8
MATEN
  6
CENTER
 62
     0
 10
2462.584774
 20
1074.237177
 30
0.0
 11
2464.584774
 21
1076.237177
 31
0.0
  0
LINE
  5
110
  8
MATEN
  6
CENTER
 62
     0
 10
2459.369713
 20
1071.022117
 30
0.0
 11
2461.369713
 21
1073.022117
 31
0.0
  0
LINE
  5
111
  8
MATEN
  6
CENTER
 62
     0
 10
2462.584774
 20
1076.033228
 30
0.0
 11
2464.584774
 21
1078.033228
 31
0.0
  0
LINE
  5
112
  8
MATEN
  6
CENTER
 62
     0
 10
2457.573662
 20
1071.022117
 30
0.0
 11
2459.573662
 21
1073.022117
 31
0.0
  0
LINE
  5
113
  8
MATEN
  6
CENTER
 62
     0
 10
2462.584774
 20
1077.82928
 30
0.0
 11
2464.584774
 21
1079.82928
 31
0.0
  0
LINE
  5
114
  8
MATEN
  6
CENTER
 62
     0
 10
2455.777611
 20
1071.022117
 30
0.0
 11
2457.777611
 21
1073.022117
 31
0.0
  0
LINE
  5
115
  8
MATEN
  6
CENTER
 62
     0
 10
2462.584774
 20
1079.625331
 30
0.0
 11
2464.584774
 21
1081.625331
 31
0.0
  0
LINE
  5
116
  8
MATEN
  6
CENTER
 62
     0
 10
2453.981559
 20
1071.022117
 30
0.0
 11
2455.981559
 21
1073.022117
 31
0.0
  0
LINE
  5
117
  8
MATEN
  6
CENTER
 62
     0
 10
2462.584774
 20
1081.421382
 30
0.0
 11
2464.584774
 21
1083.421382
 31
0.0
  0
LINE
  5
118
  8
MATEN
  6
CENTER
 62
     0
 10
2452.185508
 20
1071.022117
 30
0.0
 11
2454.185508
 21
1073.022117
 31
0.0
  0
LINE
  5
119
  8
MATEN
  6
CENTER
 62
     0
 10
2460.589457
 20
1081.222117
 30
0.0
 11
2460.934774
 21
1081.567433
 31
0.0
  0
LINE
  5
11A
  8
MATEN
  6
CENTER
 62
     0
 10
2462.584774
 20
1083.217433
 30
0.0
 11
2464.584774
 21
1085.217433
 31
0.0
  0
LINE
  5
11B
  8
MATEN
  6
CENTER
 62
     0
 10
2450.389457
 20
1071.022117
 30
0.0
 11
2452.389457
 21
1073.022117
 31
0.0
  0
LINE
  5
11C
  8
MATEN
  6
CENTER
 62
     0
 10
2458.793406
 20
1081.222117
 30
0.0
 11
2460.934774
 21
1083.363485
 31
0.0
  0
LINE
  5
11D
  8
MATEN
  6
CENTER
 62
     0
 10
2462.584774
 20
1085.013485
 30
0.0
 11
2464.584774
 21
1087.013485
 31
0.0
  0
LINE
  5
11E
  8
MATEN
  6
CENTER
 62
     0
 10
2448.593406
 20
1071.022117
 30
0.0
 11
2450.593406
 21
1073.022117
 31
0.0
  0
LINE
  5
11F
  8
MATEN
  6
CENTER
 62
     0
 10
2456.997354
 20
1081.222117
 30
0.0
 11
2460.934774
 21
1085.159536
 31
0.0
  0
LINE
  5
120
  8
MATEN
  6
CENTER
 62
     0
 10
2462.147354
 20
1086.372117
 30
0.0
 11
2464.147354
 21
1088.372117
 31
0.0
  0
LINE
  5
121
  8
MATEN
  6
CENTER
 62
     0
 10
2446.797354
 20
1071.022117
 30
0.0
 11
2448.797354
 21
1073.022117
 31
0.0
  0
LINE
  5
122
  8
MATEN
  6
CENTER
 62
     0
 10
2455.201303
 20
1081.222117
 30
0.0
 11
2457.201303
 21
1083.222117
 31
0.0
  0
LINE
  5
123
  8
MATEN
  6
CENTER
 62
     0
 10
2458.934774
 20
1084.955587
 30
0.0
 11
2462.351303
 21
1088.372117
 31
0.0
  0
LINE
  5
124
  8
MATEN
  6
CENTER
 62
     0
 10
2445.001303
 20
1071.022117
 30
0.0
 11
2447.001303
 21
1073.022117
 31
0.0
  0
LINE
  5
125
  8
MATEN
  6
CENTER
 62
     0
 10
2453.405252
 20
1081.222117
 30
0.0
 11
2455.405252
 21
1083.222117
 31
0.0
  0
LINE
  5
126
  8
MATEN
  6
CENTER
 62
     0
 10
2446.855252
 20
1074.672117
 30
0.0
 11
2446.884774
 21
1074.701638
 31
0.0
  0
LINE
  5
127
  8
MATEN
  6
CENTER
 62
     0
 10
2458.934774
 20
1086.751638
 30
0.0
 11
2460.555252
 21
1088.372117
 31
0.0
  0
LINE
  5
128
  8
MATEN
  6
CENTER
 62
     0
 10
2443.205252
 20
1071.022117
 30
0.0
 11
2445.205252
 21
1073.022117
 31
0.0
  0
LINE
  5
129
  8
MATEN
  6
CENTER
 62
     0
 10
2445.059201
 20
1074.672117
 30
0.0
 11
2446.884774
 21
1076.497689
 31
0.0
  0
LINE
  5
12A
  8
MATEN
  6
CENTER
 62
     0
 10
2451.609201
 20
1081.222117
 30
0.0
 11
2453.609201
 21
1083.222117
 31
0.0
  0
LINE
  5
12B
  8
MATEN
  6
CENTER
 62
     0
 10
2441.409201
 20
1071.022117
 30
0.0
 11
2443.409201
 21
1073.022117
 31
0.0
  0
LINE
  5
12C
  8
MATEN
  6
CENTER
 62
     0
 10
2443.26315
 20
1074.672117
 30
0.0
 11
2446.884774
 21
1078.293741
 31
0.0
  0
LINE
  5
12D
  8
MATEN
  6
CENTER
 62
     0
 10
2449.81315
 20
1081.222117
 30
0.0
 11
2451.81315
 21
1083.222117
 31
0.0
  0
LINE
  5
12E
  8
MATEN
  6
CENTER
 62
     0
 10
2439.734774
 20
1071.143741
 30
0.0
 11
2441.734774
 21
1073.143741
 31
0.0
  0
LINE
  5
12F
  8
MATEN
  6
CENTER
 62
     0
 10
2444.884774
 20
1078.089792
 30
0.0
 11
2446.884774
 21
1080.089792
 31
0.0
  0
LINE
  5
130
  8
MATEN
  6
CENTER
 62
     0
 10
2448.017098
 20
1081.222117
 30
0.0
 11
2450.017098
 21
1083.222117
 31
0.0
  0
LINE
  5
131
  8
MATEN
  6
CENTER
 62
     0
 10
2439.734774
 20
1072.939792
 30
0.0
 11
2443.467098
 21
1076.672117
 31
0.0
  0
LINE
  5
132
  8
MATEN
  6
CENTER
 62
     0
 10
2444.884774
 20
1079.885843
 30
0.0
 11
2448.221047
 21
1083.222117
 31
0.0
  0
LINE
  5
133
  8
MATEN
  6
CENTER
 62
     0
 10
2463.671047
 20
1098.672117
 30
0.0
 11
2464.584774
 21
1099.585843
 31
0.0
  0
LINE
  5
134
  8
MATEN
  6
CENTER
 62
     0
 10
2439.734774
 20
1074.735843
 30
0.0
 11
2441.671047
 21
1076.672117
 31
0.0
  0
LINE
  5
135
  8
MATEN
  6
CENTER
 62
     0
 10
2444.595444
 20
1081.392565
 30
0.0
 11
2446.714325
 21
1083.511446
 31
0.0
  0
LINE
  5
136
  8
MATEN
  6
CENTER
 62
     0
 10
2461.874996
 20
1098.672117
 30
0.0
 11
2464.584774
 21
1101.381894
 31
0.0
  0
LINE
  5
137
  8
MATEN
  6
CENTER
 62
     0
 10
2439.734774
 20
1076.531894
 30
0.0
 11
2439.874996
 21
1076.672117
 31
0.0
  0
LINE
  5
138
  8
MATEN
  6
CENTER
 62
     0
 10
2460.078945
 20
1098.672117
 30
0.0
 11
2462.078945
 21
1100.672117
 31
0.0
  0
LINE
  5
139
  8
MATEN
  6
CENTER
 62
     0
 10
2462.584774
 20
1101.177946
 30
0.0
 11
2464.584774
 21
1103.177946
 31
0.0
  0
LINE
  5
13A
  8
MATEN
  6
CENTER
 62
     0
 10
2443.697418
 20
1082.29059
 30
0.0
 11
2445.8163
 21
1084.409472
 31
0.0
  0
LINE
  5
13B
  8
MATEN
  6
CENTER
 62
     0
 10
2458.934774
 20
1099.323997
 30
0.0
 11
2460.934774
 21
1101.323997
 31
0.0
  0
LINE
  5
13C
  8
MATEN
  6
CENTER
 62
     0
 10
2462.584774
 20
1102.973997
 30
0.0
 11
2464.584774
 21
1104.973997
 31
0.0
  0
LINE
  5
13D
  8
MATEN
  6
CENTER
 62
     0
 10
2442.799393
 20
1083.188616
 30
0.0
 11
2444.918274
 21
1085.307498
 31
0.0
  0
LINE
  5
13E
  8
MATEN
  6
CENTER
 62
     0
 10
2458.934774
 20
1101.120048
 30
0.0
 11
2460.934774
 21
1103.120048
 31
0.0
  0
LINE
  5
13F
  8
MATEN
  6
CENTER
 62
     0
 10
2441.839281
 20
1084.024556
 30
0.0
 11
2444.087212
 21
1086.272487
 31
0.0
  0
LINE
  5
140
  8
MATEN
  6
CENTER
 62
     0
 10
2462.584774
 20
1104.770048
 30
0.0
 11
2464.584774
 21
1106.770048
 31
0.0
  0
LINE
  5
141
  8
MATEN
  6
CENTER
 62
     0
 10
2428.836842
 20
1071.022117
 30
0.0
 11
2429.434774
 21
1071.620048
 31
0.0
  0
LINE
  5
142
  8
MATEN
  6
CENTER
 62
     0
 10
2458.934774
 20
1102.916099
 30
0.0
 11
2460.934774
 21
1104.916099
 31
0.0
  0
LINE
  5
143
  8
MATEN
  6
CENTER
 62
     0
 10
2440.04323
 20
1084.024556
 30
0.0
 11
2444.087212
 21
1088.068538
 31
0.0
  0
LINE
  5
144
  8
MATEN
  6
CENTER
 62
     0
 10
2462.584774
 20
1106.566099
 30
0.0
 11
2464.584774
 21
1108.566099
 31
0.0
  0
LINE
  5
145
  8
MATEN
  6
CENTER
 62
     0
 10
2427.040791
 20
1071.022117
 30
0.0
 11
2429.434774
 21
1073.416099
 31
0.0
  0
LINE
  5
146
  8
MATEN
  6
CENTER
 62
     0
 10
2438.247179
 20
1084.024556
 30
0.0
 11
2444.087212
 21
1089.864589
 31
0.0
  0
LINE
  5
147
  8
MATEN
  6
CENTER
 62
     0
 10
2458.04474
 20
1103.822117
 30
0.0
 11
2460.04474
 21
1105.822117
 31
0.0
  0
LINE
  5
148
  8
MATEN
  6
CENTER
 62
     0
 10
2427.434774
 20
1073.21215
 30
0.0
 11
2429.434774
 21
1075.21215
 31
0.0
  0
LINE
  5
149
  8
MATEN
  6
CENTER
 62
     0
 10
2462.584774
 20
1108.36215
 30
0.0
 11
2464.584774
 21
1110.36215
 31
0.0
  0
LINE
  5
14A
  8
MATEN
  6
CENTER
 62
     0
 10
2425.24474
 20
1071.022117
 30
0.0
 11
2427.24474
 21
1073.022117
 31
0.0
  0
LINE
  5
14B
  8
MATEN
  6
CENTER
 62
     0
 10
2436.451127
 20
1084.024556
 30
0.0
 11
2444.087212
 21
1091.66064
 31
0.0
  0
LINE
  5
14C
  8
MATEN
  6
CENTER
 62
     0
 10
2456.248689
 20
1103.822117
 30
0.0
 11
2458.248689
 21
1105.822117
 31
0.0
  0
LINE
  5
14D
  8
MATEN
  6
CENTER
 62
     0
 10
2427.098689
 20
1074.672117
 30
0.0
 11
2429.098689
 21
1076.672117
 31
0.0
  0
LINE
  5
14E
  8
MATEN
  6
CENTER
 62
     0
 10
2462.584774
 20
1110.158202
 30
0.0
 11
2464.584774
 21
1112.158202
 31
0.0
  0
LINE
  5
14F
  8
MATEN
  6
CENTER
 62
     0
 10
2423.448689
 20
1071.022117
 30
0.0
 11
2425.448689
 21
1073.022117
 31
0.0
  0
LINE
  5
150
  8
MATEN
  6
CENTER
 62
     0
 10
2438.661599
 20
1088.031078
 30
0.0
 11
2440.075812
 21
1089.445292
 31
0.0
  0
LINE
  5
151
  8
MATEN
  6
CENTER
 62
     0
 10
2441.719494
 20
1091.088974
 30
0.0
 11
2444.087212
 21
1093.456692
 31
0.0
  0
LINE
  5
152
  8
MATEN
  6
CENTER
 62
     0
 10
2434.655076
 20
1084.024556
 30
0.0
 11
2437.022328
 21
1086.391807
 31
0.0
  0
LINE
  5
153
  8
MATEN
  6
CENTER
 62
     0
 10
2454.452637
 20
1103.822117
 30
0.0
 11
2456.452637
 21
1105.822117
 31
0.0
  0
LINE
  5
154
  8
MATEN
  6
CENTER
 62
     0
 10
2425.302637
 20
1074.672117
 30
0.0
 11
2427.302637
 21
1076.672117
 31
0.0
  0
LINE
  5
155
  8
MATEN
  6
CENTER
 62
     0
 10
2462.584774
 20
1111.954253
 30
0.0
 11
2464.523693
 21
1113.893172
 31
0.0
  0
LINE
  5
156
  8
MATEN
  6
CENTER
 62
     0
 10
2421.652637
 20
1071.022117
 30
0.0
 11
2423.652637
 21
1073.022117
 31
0.0
  0
LINE
  5
157
  8
MATEN
  6
CENTER
 62
     0
 10
2437.763573
 20
1088.929104
 30
0.0
 11
2439.177787
 21
1090.343317
 31
0.0
  0
LINE
  5
158
  8
MATEN
  6
CENTER
 62
     0
 10
2441.356586
 20
1092.522117
 30
0.0
 11
2444.087212
 21
1095.252743
 31
0.0
  0
LINE
  5
159
  8
MATEN
  6
CENTER
 62
     0
 10
2432.859025
 20
1084.024556
 30
0.0
 11
2435.584774
 21
1086.750304
 31
0.0
  0
LINE
  5
15A
  8
MATEN
  6
CENTER
 62
     0
 10
2452.656586
 20
1103.822117
 30
0.0
 11
2454.656586
 21
1105.822117
 31
0.0
  0
LINE
  5
15B
  8
MATEN
  6
CENTER
 62
     0
 10
2423.506586
 20
1074.672117
 30
0.0
 11
2425.506586
 21
1076.672117
 31
0.0
  0
LINE
  5
15C
  8
MATEN
  6
CENTER
 62
     0
 10
2462.496631
 20
1113.662162
 30
0.0
 11
2463.925025
 21
1115.090555
 31
0.0
  0
LINE
  5
15D
  8
MATEN
  6
CENTER
 62
     0
 10
2419.856586
 20
1071.022117
 30
0.0
 11
2421.856586
 21
1073.022117
 31
0.0
  0
LINE
  5
15E
  8
MATEN
  6
CENTER
 62
     0
 10
2439.718601
 20
1092.680183
 30
0.0
 11
2441.579648
 21
1094.54123
 31
0.0
  0
LINE
  5
15F
  8
MATEN
  6
CENTER
 62
     0
 10
2433.563764
 20
1086.525345
 30
0.0
 11
2435.429147
 21
1088.390728
 31
0.0
  0
LINE
  5
160
  8
MATEN
  6
CENTER
 62
     0
 10
2441.923612
 20
1094.885194
 30
0.0
 11
2444.087212
 21
1097.048794
 31
0.0
  0
LINE
  5
161
  8
MATEN
  6
CENTER
 62
     0
 10
2431.062974
 20
1084.024556
 30
0.0
 11
2433.228191
 21
1086.189773
 31
0.0
  0
LINE
  5
162
  8
MATEN
  6
CENTER
 62
     0
 10
2450.860535
 20
1103.822117
 30
0.0
 11
2452.860535
 21
1105.822117
 31
0.0
  0
LINE
  5
163
  8
MATEN
  6
CENTER
 62
     0
 10
2422.284774
 20
1075.246355
 30
0.0
 11
2424.284774
 21
1077.246355
 31
0.0
  0
LINE
  5
164
  8
MATEN
  6
CENTER
 62
     0
 10
2461.060535
 20
1114.022117
 30
0.0
 11
2462.873132
 21
1115.834714
 31
0.0
  0
LINE
  5
165
  8
MATEN
  6
CENTER
 62
     0
 10
2418.060535
 20
1071.022117
 30
0.0
 11
2420.060535
 21
1073.022117
 31
0.0
  0
LINE
  5
166
  8
MATEN
  6
CENTER
 62
     0
 10
2439.702001
 20
1094.459634
 30
0.0
 11
2439.764484
 21
1094.522117
 31
0.0
  0
LINE
  5
167
  8
MATEN
  6
CENTER
 62
     0
 10
2433.584774
 20
1088.342407
 30
0.0
 11
2433.649695
 21
1088.407328
 31
0.0
  0
LINE
  5
168
  8
MATEN
  6
CENTER
 62
     0
 10
2441.612934
 20
1096.370567
 30
0.0
 11
2444.087212
 21
1098.844845
 31
0.0
  0
LINE
  5
169
  8
MATEN
  6
CENTER
 62
     0
 10
2429.266922
 20
1084.024556
 30
0.0
 11
2431.739547
 21
1086.49718
 31
0.0
  0
LINE
  5
16A
  8
MATEN
  6
CENTER
 62
     0
 10
2449.064484
 20
1103.822117
 30
0.0
 11
2451.064484
 21
1105.822117
 31
0.0
  0
LINE
  5
16B
  8
MATEN
  6
CENTER
 62
     0
 10
2422.284774
 20
1077.042407
 30
0.0
 11
2424.284774
 21
1079.042407
 31
0.0
  0
LINE
  5
16C
  8
MATEN
  6
CENTER
 62
     0
 10
2459.264484
 20
1114.022117
 30
0.0
 11
2461.264484
 21
1116.022117
 31
0.0
  0
LINE
  5
16D
  8
MATEN
  6
CENTER
 62
     0
 10
2416.264484
 20
1071.022117
 30
0.0
 11
2418.264484
 21
1073.022117
 31
0.0
  0
LINE
  5
16E
  8
MATEN
  6
CENTER
 62
     0
 10
2441.241328
 20
1097.795012
 30
0.0
 11
2444.087212
 21
1100.640897
 31
0.0
  0
LINE
  5
16F
  8
MATEN
  6
CENTER
 62
     0
 10
2427.470871
 20
1084.024556
 30
0.0
 11
2430.31462
 21
1086.868304
 31
0.0
  0
LINE
  5
170
  8
MATEN
  6
CENTER
 62
     0
 10
2447.268432
 20
1103.822117
 30
0.0
 11
2449.268432
 21
1105.822117
 31
0.0
  0
LINE
  5
171
  8
MATEN
  6
CENTER
 62
     0
 10
2422.284774
 20
1078.838458
 30
0.0
 11
2424.284774
 21
1080.838458
 31
0.0
  0
LINE
  5
172
  8
MATEN
  6
CENTER
 62
     0
 10
2457.468432
 20
1114.022117
 30
0.0
 11
2459.468432
 21
1116.022117
 31
0.0
  0
LINE
  5
173
  8
MATEN
  6
CENTER
 62
     0
 10
2414.468432
 20
1071.022117
 30
0.0
 11
2416.468432
 21
1073.022117
 31
0.0
  0
LINE
  5
174
  8
MATEN
  6
CENTER
 62
     0
 10
2438.545093
 20
1096.894828
 30
0.0
 11
2447.652232
 21
1106.001967
 31
0.0
  0
LINE
  5
175
  8
MATEN
  6
CENTER
 62
     0
 10
2422.104923
 20
1080.454659
 30
0.0
 11
2431.214501
 21
1089.564236
 31
0.0
  0
LINE
  5
176
  8
MATEN
  6
CENTER
 62
     0
 10
2455.672381
 20
1114.022117
 30
0.0
 11
2457.672381
 21
1116.022117
 31
0.0
  0
LINE
  5
177
  8
MATEN
  6
CENTER
 62
     0
 10
2412.672381
 20
1071.022117
 30
0.0
 11
2414.672381
 21
1073.022117
 31
0.0
  0
LINE
  5
178
  8
MATEN
  6
CENTER
 62
     0
 10
2437.608538
 20
1097.754325
 30
0.0
 11
2446.884774
 21
1107.03056
 31
0.0
  0
LINE
  5
179
  8
MATEN
  6
CENTER
 62
     0
 10
2421.07633
 20
1081.222117
 30
0.0
 11
2430.355004
 21
1090.500791
 31
0.0
  0
LINE
  5
17A
  8
MATEN
  6
CENTER
 62
     0
 10
2453.87633
 20
1114.022117
 30
0.0
 11
2455.87633
 21
1116.022117
 31
0.0
  0
LINE
  5
17B
  8
MATEN
  6
CENTER
 62
     0
 10
2410.87633
 20
1071.022117
 30
0.0
 11
2412.87633
 21
1073.022117
 31
0.0
  0
LINE
  5
17C
  8
MATEN
  6
CENTER
 62
     0
 10
2438.367052
 20
1100.30889
 30
0.0
 11
2441.07784
 21
1103.019678
 31
0.0
  0
LINE
  5
17D
  8
MATEN
  6
CENTER
 62
     0
 10
2425.087212
 20
1087.02905
 30
0.0
 11
2427.799676
 21
1089.741514
 31
0.0
  0
LINE
  5
17E
  8
MATEN
  6
CENTER
 62
     0
 10
2444.884774
 20
1106.826611
 30
0.0
 11
2446.884774
 21
1108.826611
 31
0.0
  0
LINE
  5
17F
  8
MATEN
  6
CENTER
 62
     0
 10
2419.280279
 20
1081.222117
 30
0.0
 11
2421.280279
 21
1083.222117
 31
0.0
  0
LINE
  5
180
  8
MATEN
  6
CENTER
 62
     0
 10
2452.080279
 20
1114.022117
 30
0.0
 11
2454.080279
 21
1116.022117
 31
0.0
  0
LINE
  5
181
  8
MATEN
  6
CENTER
 62
     0
 10
2409.080279
 20
1071.022117
 30
0.0
 11
2411.080279
 21
1073.022117
 31
0.0
  0
LINE
  5
182
  8
MATEN
  6
CENTER
 62
     0
 10
2434.970111
 20
1098.708
 30
0.0
 11
2435.584774
 21
1099.322663
 31
0.0
  0
LINE
  5
183
  8
MATEN
  6
CENTER
 62
     0
 10
2428.784228
 20
1092.522117
 30
0.0
 11
2429.401329
 21
1093.139218
 31
0.0
  0
LINE
  5
184
  8
MATEN
  6
CENTER
 62
     0
 10
2436.936471
 20
1100.67436
 30
0.0
 11
2439.281789
 21
1103.019678
 31
0.0
  0
LINE
  5
185
  8
MATEN
  6
CENTER
 62
     0
 10
2425.087212
 20
1088.825102
 30
0.0
 11
2427.433344
 21
1091.171234
 31
0.0
  0
LINE
  5
186
  8
MATEN
  6
CENTER
 62
     0
 10
2444.884774
 20
1108.622663
 30
0.0
 11
2446.884774
 21
1110.622663
 31
0.0
  0
LINE
  5
187
  8
MATEN
  6
CENTER
 62
     0
 10
2417.484228
 20
1081.222117
 30
0.0
 11
2419.484228
 21
1083.222117
 31
0.0
  0
LINE
  5
188
  8
MATEN
  6
CENTER
 62
     0
 10
2450.284228
 20
1114.022117
 30
0.0
 11
2452.284228
 21
1116.022117
 31
0.0
  0
LINE
  5
189
  8
MATEN
  6
CENTER
 62
     0
 10
2407.284228
 20
1071.022117
 30
0.0
 11
2409.284228
 21
1073.022117
 31
0.0
  0
LINE
  5
18A
  8
MATEN
  6
CENTER
 62
     0
 10
2433.584774
 20
1099.118714
 30
0.0
 11
2437.485738
 21
1103.019678
 31
0.0
  0
LINE
  5
18B
  8
MATEN
  6
CENTER
 62
     0
 10
2425.087212
 20
1090.621153
 30
0.0
 11
2428.988176
 21
1094.522117
 31
0.0
  0
LINE
  5
18C
  8
MATEN
  6
CENTER
 62
     0
 10
2444.838176
 20
1110.372117
 30
0.0
 11
2446.838176
 21
1112.372117
 31
0.0
  0
LINE
  5
18D
  8
MATEN
  6
CENTER
 62
     0
 10
2415.688176
 20
1081.222117
 30
0.0
 11
2417.688176
 21
1083.222117
 31
0.0
  0
LINE
  5
18E
  8
MATEN
  6
CENTER
 62
     0
 10
2448.488176
 20
1114.022117
 30
0.0
 11
2450.488176
 21
1116.022117
 31
0.0
  0
LINE
  5
18F
  8
MATEN
  6
CENTER
 62
     0
 10
2405.881491
 20
1071.415431
 30
0.0
 11
2407.488176
 21
1073.022117
 31
0.0
  0
LINE
  5
190
  8
MATEN
  6
CENTER
 62
     0
 10
2429.681343
 20
1097.011334
 30
0.0
 11
2431.095556
 21
1098.425548
 31
0.0
  0
LINE
  5
191
  8
MATEN
  6
CENTER
 62
     0
 10
2433.418133
 20
1100.748125
 30
0.0
 11
2435.689686
 21
1103.019678
 31
0.0
  0
LINE
  5
192
  8
MATEN
  6
CENTER
 62
     0
 10
2425.087212
 20
1092.417204
 30
0.0
 11
2427.358796
 21
1094.688788
 31
0.0
  0
LINE
  5
193
  8
MATEN
  6
CENTER
 62
     0
 10
2443.042125
 20
1110.372117
 30
0.0
 11
2445.042125
 21
1112.372117
 31
0.0
  0
LINE
  5
194
  8
MATEN
  6
CENTER
 62
     0
 10
2413.892125
 20
1081.222117
 30
0.0
 11
2415.892125
 21
1083.222117
 31
0.0
  0
LINE
  5
195
  8
MATEN
  6
CENTER
 62
     0
 10
2446.692125
 20
1114.022117
 30
0.0
 11
2448.692125
 21
1116.022117
 31
0.0
  0
LINE
  5
196
  8
MATEN
  6
CENTER
 62
     0
 10
2404.982164
 20
1072.312156
 30
0.0
 11
2406.584774
 21
1073.914765
 31
0.0
  0
LINE
  5
197
  8
MATEN
  6
CENTER
 62
     0
 10
2428.783317
 20
1097.90936
 30
0.0
 11
2430.19753
 21
1099.323573
 31
0.0
  0
LINE
  5
198
  8
MATEN
  6
CENTER
 62
     0
 10
2431.31133
 20
1100.437373
 30
0.0
 11
2433.893635
 21
1103.019678
 31
0.0
  0
LINE
  5
199
  8
MATEN
  6
CENTER
 62
     0
 10
2425.087212
 20
1094.213255
 30
0.0
 11
2427.669802
 21
1096.795844
 31
0.0
  0
LINE
  5
19A
  8
MATEN
  6
CENTER
 62
     0
 10
2441.246074
 20
1110.372117
 30
0.0
 11
2443.246074
 21
1112.372117
 31
0.0
  0
LINE
  5
19B
  8
MATEN
  6
CENTER
 62
     0
 10
2412.096074
 20
1081.222117
 30
0.0
 11
2414.096074
 21
1083.222117
 31
0.0
  0
LINE
  5
19C
  8
MATEN
  6
CENTER
 62
     0
 10
2444.896074
 20
1114.022117
 30
0.0
 11
2446.896074
 21
1116.022117
 31
0.0
  0
LINE
  5
19D
  8
MATEN
  6
CENTER
 62
     0
 10
2404.584797
 20
1073.71084
 30
0.0
 11
2406.584774
 21
1075.710816
 31
0.0
  0
LINE
  5
19E
  8
MATEN
  6
CENTER
 62
     0
 10
2425.087212
 20
1096.009306
 30
0.0
 11
2432.097584
 21
1103.019678
 31
0.0
  0
LINE
  5
19F
  8
MATEN
  6
CENTER
 62
     0
 10
2439.734774
 20
1110.656868
 30
0.0
 11
2441.734774
 21
1112.656868
 31
0.0
  0
LINE
  5
1A0
  8
MATEN
  6
CENTER
 62
     0
 10
2410.300023
 20
1081.222117
 30
0.0
 11
2412.300023
 21
1083.222117
 31
0.0
  0
LINE
  5
1A1
  8
MATEN
  6
CENTER
 62
     0
 10
2443.100023
 20
1114.022117
 30
0.0
 11
2445.100023
 21
1116.022117
 31
0.0
  0
LINE
  5
1A2
  8
MATEN
  6
CENTER
 62
     0
 10
2404.584774
 20
1075.506868
 30
0.0
 11
2406.584774
 21
1077.506868
 31
0.0
  0
LINE
  5
1A3
  8
MATEN
  6
CENTER
 62
     0
 10
2425.087212
 20
1097.805358
 30
0.0
 11
2430.301533
 21
1103.019678
 31
0.0
  0
LINE
  5
1A4
  8
MATEN
  6
CENTER
 62
     0
 10
2408.503971
 20
1081.222117
 30
0.0
 11
2410.503971
 21
1083.222117
 31
0.0
  0
LINE
  5
1A5
  8
MATEN
  6
CENTER
 62
     0
 10
2439.734774
 20
1112.452919
 30
0.0
 11
2443.303971
 21
1116.022117
 31
0.0
  0
LINE
  5
1A6
  8
MATEN
  6
CENTER
 62
     0
 10
2404.584774
 20
1077.302919
 30
0.0
 11
2406.584774
 21
1079.302919
 31
0.0
  0
LINE
  5
1A7
  8
MATEN
  6
CENTER
 62
     0
 10
2425.087212
 20
1099.601409
 30
0.0
 11
2428.505481
 21
1103.019678
 31
0.0
  0
LINE
  5
1A8
  8
MATEN
  6
CENTER
 62
     0
 10
2408.234774
 20
1082.74897
 30
0.0
 11
2410.234774
 21
1084.74897
 31
0.0
  0
LINE
  5
1A9
  8
MATEN
  6
CENTER
 62
     0
 10
2439.734774
 20
1114.24897
 30
0.0
 11
2441.50792
 21
1116.022117
 31
0.0
  0
LINE
  5
1AA
  8
MATEN
  6
CENTER
 62
     0
 10
2404.584774
 20
1079.09897
 30
0.0
 11
2406.584774
 21
1081.09897
 31
0.0
  0
LINE
  5
1AB
  8
MATEN
  6
CENTER
 62
     0
 10
2408.234774
 20
1084.545021
 30
0.0
 11
2410.234774
 21
1086.545021
 31
0.0
  0
LINE
  5
1AC
  8
MATEN
  6
CENTER
 62
     0
 10
2424.83888
 20
1101.149128
 30
0.0
 11
2426.957762
 21
1103.26801
 31
0.0
  0
LINE
  5
1AD
  8
MATEN
  6
CENTER
 62
     0
 10
2404.584774
 20
1080.895021
 30
0.0
 11
2406.584774
 21
1082.895021
 31
0.0
  0
LINE
  5
1AE
  8
MATEN
  6
CENTER
 62
     0
 10
2408.234774
 20
1086.341072
 30
0.0
 11
2410.234774
 21
1088.341072
 31
0.0
  0
LINE
  5
1AF
  8
MATEN
  6
CENTER
 62
     0
 10
2423.940855
 20
1102.047154
 30
0.0
 11
2426.059736
 21
1104.166035
 31
0.0
  0
LINE
  5
1B0
  8
MATEN
  6
CENTER
 62
     0
 10
2404.584774
 20
1082.691072
 30
0.0
 11
2406.584774
 21
1084.691072
 31
0.0
  0
LINE
  5
1B1
  8
MATEN
  6
CENTER
 62
     0
 10
2423.042829
 20
1102.945179
 30
0.0
 11
2425.161711
 21
1105.064061
 31
0.0
  0
LINE
  5
1B2
  8
MATEN
  6
CENTER
 62
     0
 10
2404.584774
 20
1084.487124
 30
0.0
 11
2408.469767
 21
1088.372117
 31
0.0
  0
LINE
  5
1B3
  8
MATEN
  6
CENTER
 62
     0
 10
2422.123715
 20
1103.822117
 30
0.0
 11
2424.284774
 21
1105.983175
 31
0.0
  0
LINE
  5
1B4
  8
MATEN
  6
CENTER
 62
     0
 10
2428.673715
 20
1110.372117
 30
0.0
 11
2429.434774
 21
1111.133175
 31
0.0
  0
LINE
  5
1B5
  8
MATEN
  6
CENTER
 62
     0
 10
2404.584774
 20
1086.283175
 30
0.0
 11
2406.673715
 21
1088.372117
 31
0.0
  0
LINE
  5
1B6
  8
MATEN
  6
CENTER
 62
     0
 10
2420.327664
 20
1103.822117
 30
0.0
 11
2424.284774
 21
1107.779226
 31
0.0
  0
LINE
  5
1B7
  8
MATEN
  6
CENTER
 62
     0
 10
2426.877664
 20
1110.372117
 30
0.0
 11
2429.434774
 21
1112.929226
 31
0.0
  0
LINE
  5
1B8
  8
MATEN
  6
CENTER
 62
     0
 10
2404.584774
 20
1088.079226
 30
0.0
 11
2404.877664
 21
1088.372117
 31
0.0
  0
LINE
  5
1B9
  8
MATEN
  6
CENTER
 62
     0
 10
2425.081613
 20
1110.372117
 30
0.0
 11
2427.081613
 21
1112.372117
 31
0.0
  0
LINE
  5
1BA
  8
MATEN
  6
CENTER
 62
     0
 10
2422.284774
 20
1107.575277
 30
0.0
 11
2424.284774
 21
1109.575277
 31
0.0
  0
LINE
  5
1BB
  8
MATEN
  6
CENTER
 62
     0
 10
2427.434774
 20
1112.725277
 30
0.0
 11
2429.434774
 21
1114.725277
 31
0.0
  0
LINE
  5
1BC
  8
MATEN
  6
CENTER
 62
     0
 10
2418.531613
 20
1103.822117
 30
0.0
 11
2420.531613
 21
1105.822117
 31
0.0
  0
LINE
  5
1BD
  8
MATEN
  6
CENTER
 62
     0
 10
2422.284774
 20
1109.371329
 30
0.0
 11
2425.285562
 21
1112.372117
 31
0.0
  0
LINE
  5
1BE
  8
MATEN
  6
CENTER
 62
     0
 10
2426.935562
 20
1114.022117
 30
0.0
 11
2428.935562
 21
1116.022117
 31
0.0
  0
LINE
  5
1BF
  8
MATEN
  6
CENTER
 62
     0
 10
2416.735562
 20
1103.822117
 30
0.0
 11
2418.735562
 21
1105.822117
 31
0.0
  0
LINE
  5
1C0
  8
MATEN
  6
CENTER
 62
     0
 10
2422.284774
 20
1111.16738
 30
0.0
 11
2423.48951
 21
1112.372117
 31
0.0
  0
LINE
  5
1C1
  8
MATEN
  6
CENTER
 62
     0
 10
2414.93951
 20
1103.822117
 30
0.0
 11
2416.93951
 21
1105.822117
 31
0.0
  0
LINE
  5
1C2
  8
MATEN
  6
CENTER
 62
     0
 10
2425.13951
 20
1114.022117
 30
0.0
 11
2427.13951
 21
1116.022117
 31
0.0
  0
LINE
  5
1C3
  8
MATEN
  6
CENTER
 62
     0
 10
2409.78951
 20
1098.672117
 30
0.0
 11
2410.234774
 21
1099.11738
 31
0.0
  0
LINE
  5
1C4
  8
MATEN
  6
CENTER
 62
     0
 10
2413.143459
 20
1103.822117
 30
0.0
 11
2415.143459
 21
1105.822117
 31
0.0
  0
LINE
  5
1C5
  8
MATEN
  6
CENTER
 62
     0
 10
2423.343459
 20
1114.022117
 30
0.0
 11
2425.343459
 21
1116.022117
 31
0.0
  0
LINE
  5
1C6
  8
MATEN
  6
CENTER
 62
     0
 10
2407.993459
 20
1098.672117
 30
0.0
 11
2410.234774
 21
1100.913431
 31
0.0
  0
LINE
  5
1C7
  8
MATEN
  6
CENTER
 62
     0
 10
2411.347408
 20
1103.822117
 30
0.0
 11
2413.347408
 21
1105.822117
 31
0.0
  0
LINE
  5
1C8
  8
MATEN
  6
CENTER
 62
     0
 10
2408.234774
 20
1100.709482
 30
0.0
 11
2410.234774
 21
1102.709482
 31
0.0
  0
LINE
  5
1C9
  8
MATEN
  6
CENTER
 62
     0
 10
2421.547408
 20
1114.022117
 30
0.0
 11
2423.547408
 21
1116.022117
 31
0.0
  0
LINE
  5
1CA
  8
MATEN
  6
CENTER
 62
     0
 10
2406.197408
 20
1098.672117
 30
0.0
 11
2408.197408
 21
1100.672117
 31
0.0
  0
LINE
  5
1CB
  8
MATEN
  6
CENTER
 62
     0
 10
2408.234774
 20
1102.505534
 30
0.0
 11
2411.551357
 21
1105.822117
 31
0.0
  0
LINE
  5
1CC
  8
MATEN
  6
CENTER
 62
     0
 10
2419.751357
 20
1114.022117
 30
0.0
 11
2421.751357
 21
1116.022117
 31
0.0
  0
LINE
  5
1CD
  8
MATEN
  6
CENTER
 62
     0
 10
2404.584774
 20
1098.855534
 30
0.0
 11
2406.584774
 21
1100.855534
 31
0.0
  0
LINE
  5
1CE
  8
MATEN
  6
CENTER
 62
     0
 10
2408.234774
 20
1104.301585
 30
0.0
 11
2409.755306
 21
1105.822117
 31
0.0
  0
LINE
  5
1CF
  8
MATEN
  6
CENTER
 62
     0
 10
2417.955306
 20
1114.022117
 30
0.0
 11
2419.955306
 21
1116.022117
 31
0.0
  0
LINE
  5
1D0
  8
MATEN
  6
CENTER
 62
     0
 10
2404.584774
 20
1100.651585
 30
0.0
 11
2406.584774
 21
1102.651585
 31
0.0
  0
LINE
  5
1D1
  8
MATEN
  6
CENTER
 62
     0
 10
2416.159254
 20
1114.022117
 30
0.0
 11
2418.159254
 21
1116.022117
 31
0.0
  0
LINE
  5
1D2
  8
MATEN
  6
CENTER
 62
     0
 10
2404.584774
 20
1102.447636
 30
0.0
 11
2406.584774
 21
1104.447636
 31
0.0
  0
LINE
  5
1D3
  8
MATEN
  6
CENTER
 62
     0
 10
2414.363203
 20
1114.022117
 30
0.0
 11
2416.363203
 21
1116.022117
 31
0.0
  0
LINE
  5
1D4
  8
MATEN
  6
CENTER
 62
     0
 10
2404.584774
 20
1104.243687
 30
0.0
 11
2406.584774
 21
1106.243687
 31
0.0
  0
LINE
  5
1D5
  8
MATEN
  6
CENTER
 62
     0
 10
2412.567152
 20
1114.022117
 30
0.0
 11
2414.567152
 21
1116.022117
 31
0.0
  0
LINE
  5
1D6
  8
MATEN
  6
CENTER
 62
     0
 10
2404.584774
 20
1106.039738
 30
0.0
 11
2406.584774
 21
1108.039738
 31
0.0
  0
LINE
  5
1D7
  8
MATEN
  6
CENTER
 62
     0
 10
2410.771101
 20
1114.022117
 30
0.0
 11
2412.771101
 21
1116.022117
 31
0.0
  0
LINE
  5
1D8
  8
MATEN
  6
CENTER
 62
     0
 10
2404.584774
 20
1107.83579
 30
0.0
 11
2406.584774
 21
1109.83579
 31
0.0
  0
LINE
  5
1D9
  8
MATEN
  6
CENTER
 62
     0
 10
2408.975049
 20
1114.022117
 30
0.0
 11
2410.975049
 21
1116.022117
 31
0.0
  0
LINE
  5
1DA
  8
MATEN
  6
CENTER
 62
     0
 10
2404.584774
 20
1109.631841
 30
0.0
 11
2406.584774
 21
1111.631841
 31
0.0
  0
LINE
  5
1DB
  8
MATEN
  6
CENTER
 62
     0
 10
2407.16943
 20
1114.012548
 30
0.0
 11
2409.178998
 21
1116.022117
 31
0.0
  0
LINE
  5
1DC
  8
MATEN
  6
CENTER
 62
     0
 10
2404.584774
 20
1111.427892
 30
0.0
 11
2406.594342
 21
1113.43746
 31
0.0
  0
LINE
  5
1DD
  8
MATEN
  6
CENTER
 62
     0
 10
2404.584774
 20
1113.223943
 30
0.0
 11
2407.382947
 21
1116.022117
 31
0.0
  0
ENDBLK
  5
1DF
  8
0
  0
ENDSEC
  0
SECTION
  2
ENTITIES
  0
INSERT
  5
1E
  8
0
  6
CONTINUOUS
  2
*X3
 10
0.0
 20
0.0
 30
0.0
1001
ACAD
1000
HATCH
1002
{
1070
    19
1000
ANSI31
1040
0.4
1040
0.0
1000
ASC_BOUNDS
1070
     6
1070
     1
1070
    10
1005
35
1005
29
1005
32
1005
33
1005
30
1005
31
1005
2A
1005
38
1005
37
1005
36
1070
     1
1070
    10
1005
6F
1005
71
1005
70
1005
56
1005
5C
1005
5B
1005
5D
1005
5E
1005
55
1005
6E
1070
     1
1070
    10
1005
42
1005
3A
1005
3B
1005
3C
1005
3D
1005
3F
1005
39
1005
3E
1005
41
1005
40
1070
     1
1070
    48
1005
81
1005
7C
1005
98
1005
99
1005
97
1005
7B
1005
82
1005
7A
1005
94
1005
84
1005
93
1005
20
1005
45
1005
44
1005
22
1005
85
1005
21
1005
43
1005
46
1005
1F
1005
96
1005
86
1005
95
1005
79
1005
83
1005
78
1005
92
1005
87
1005
91
1005
77
1005
7E
1005
76
1005
8C
1005
88
1005
8B
1005
75
1005
7F
1005
74
1005
8E
1005
89
1005
8D
1005
73
1005
80
1005
72
1005
90
1005
8A
1005
8F
1005
7D
1070
     1
1070
    10
1005
66
1005
65
1005
68
1005
6B
1005
6C
1005
6A
1005
67
1005
64
1005
69
1005
6D
1070
     1
1070
    48
1005
AB
1005
9C
1005
9E
1005
9F
1005
9A
1005
A2
1005
AA
1005
A1
1005
9B
1005
A0
1005
9D
1005
57
1005
63
1005
5F
1005
61
1005
62
1005
58
1005
A3
1005
25
1005
47
1005
2B
1005
24
1005
60
1005
23
1005
34
1005
2C
1005
4F
1005
4B
1005
4D
1005
52
1005
53
1005
51
1005
4E
1005
4C
1005
50
1005
4A
1005
54
1005
28
1005
A6
1005
27
1005
49
1005
48
1005
26
1005
A4
1005
A9
1005
A5
1005
A7
1005
A8
1000
ASC_SEEDPOINT
1011
2442.684904
1021
7.095599E+277
1031
0.0
1021
1114.934297
1031
0.0
1000
R14_HATCH_DATA
1000
1E
1011
1.0
1021
7.095599E+277
1031
0.0
1021
0.0
1031
0.0
1011
0.0
1021
7.095599E+277
1031
0.0
1021
1.0
1031
0.0
1011
0.0
1021
7.095599E+277
1031
0.0
1021
0.0
1031
1.0
1040
0.0
1010
0.0
1020
0.0
1030
1.0
1000
ANSI31
1070
     0
1070
     1
1071
        6
1071
        7
1070
     1
1070
     1
1071
       48
1040
2439.734774
1040
1116.022117
1040
0.0
1040
2439.734774
1040
1110.372117
1040
0.0
1040
2444.884774
1040
1110.372117
1040
0.0
1040
2444.884774
1040
1105.940998
1040
0.0
1040
2441.963453
1040
1103.019678
1040
0.0
1040
2427.206094
1040
1103.019678
1040
0.0
1040
2424.284774
1040
1105.940998
1040
0.0
1040
2424.284774
1040
1110.372117
1040
0.0
1040
2429.434774
1040
1110.372117
1040
0.0
1040
2429.434774
1040
1116.022117
1040
0.0
1040
2407.284774
1040
1116.022117
1040
0.414214
1040
2404.584774
1040
1113.322117
1040
0.0
1040
2404.584774
1040
1098.672117
1040
0.0
1040
2410.234774
1040
1098.672117
1040
0.0
1040
2410.234774
1040
1103.822117
1040
0.0
1040
2422.165892
1040
1103.822117
1040
0.0
1040
2425.087212
1040
1100.900796
1040
0.0
1040
2425.087212
1040
1086.143437
1040
0.0
1040
2422.165892
1040
1083.222117
1040
0.0
1040
2410.234774
1040
1083.222117
1040
0.0
1040
2410.234774
1040
1088.372117
1040
0.0
1040
2404.584774
1040
1088.372117
1040
0.0
1040
2404.584774
1040
1073.722117
1040
0.414214
1040
2407.284774
1040
1071.022117
1040
0.0
1040
2429.434774
1040
1071.022117
1040
0.0
1040
2429.434774
1040
1076.672117
1040
0.0
1040
2424.284774
1040
1076.672117
1040
0.0
1040
2424.284774
1040
1081.103235
1040
0.0
1040
2427.206094
1040
1084.024556
1040
0.0
1040
2441.963453
1040
1084.024556
1040
0.0
1040
2444.884774
1040
1081.103235
1040
0.0
1040
2444.884774
1040
1076.672117
1040
0.0
1040
2439.734774
1040
1076.672117
1040
0.0
1040
2439.734774
1040
1071.022117
1040
0.0
1040
2461.884774
1040
1071.022117
1040
0.414214
1040
2464.584774
1040
1073.722117
1040
0.0
1040
2464.584774
1040
1088.372117
1040
0.0
1040
2458.934774
1040
1088.372117
1040
0.0
1040
2458.934774
1040
1083.222117
1040
0.0
1040
2447.003655
1040
1083.222117
1040
0.0
1040
2444.087212
1040
1086.138559
1040
0.0
1040
2444.087212
1040
1100.905674
1040
0.0
1040
2447.003655
1040
1103.822117
1040
0.0
1040
2458.934774
1040
1103.822117
1040
0.0
1040
2458.934774
1040
1098.672117
1040
0.0
1040
2464.584774
1040
1098.672117
1040
0.0
1040
2464.584774
1040
1113.322117
1040
0.414214
1040
2461.884774
1040
1116.022117
1040
0.0
1071
       48
1005
A8
1005
A7
1005
A5
1005
A9
1005
A4
1005
26
1005
48
1005
49
1005
27
1005
A6
1005
28
1005
54
1005
4A
1005
50
1005
4C
1005
4E
1005
51
1005
53
1005
52
1005
4D
1005
4B
1005
4F
1005
2C
1005
34
1005
23
1005
60
1005
24
1005
2B
1005
47
1005
25
1005
A3
1005
58
1005
62
1005
61
1005
5F
1005
63
1005
57
1005
9D
1005
A0
1005
9B
1005
A1
1005
AA
1005
A2
1005
9A
1005
9F
1005
9E
1005
9C
1005
AB
1071
       22
1070
     1
1070
     1
1071
       10
1040
2461.884774
1040
1114.022117
1040
-0.414214
1040
2462.584774
1040
1113.322117
1040
0.0
1040
2462.584774
1040
1100.672117
1040
0.0
1040
2460.934774
1040
1100.672117
1040
0.0
1040
2460.934774
1040
1105.822117
1040
0.0
1040
2447.832082
1040
1105.822117
1040
0.0
1040
2446.884774
1040
1106.769425
1040
0.0
1040
2446.884774
1040
1112.372117
1040
0.0
1040
2441.734774
1040
1112.372117
1040
0.0
1040
2441.734774
1040
1114.022117
1040
0.0
1071
       10
1005
6D
1005
69
1005
64
1005
67
1005
6A
1005
6C
1005
6B
1005
68
1005
65
1005
66
1071
       22
1070
     1
1070
     1
1071
       48
1040
2438.783225
1040
1100.20257
1040
-0.58125
1040
2439.013019
1040
1099.364575
1040
0.0
1040
2437.486971
1040
1097.838527
1040
-0.09706
1040
2438.901662
1040
1096.424792
1040
0.0
1040
2440.428284
1040
1097.951414
1040
-0.580901
1040
2441.266149
1040
1097.722126
1040
0.0
1040
2441.927037
1040
1095.146382
1040
-0.489844
1040
2441.442725
1040
1094.522117
1040
0.0
1040
2439.690153
1040
1094.522117
1040
-0.09706
1040
2439.690153
1040
1092.522117
1040
0.0
1040
2441.442725
1040
1092.522117
1040
-0.489844
1040
2441.927037
1040
1091.897851
1040
0.0
1040
2441.266149
1040
1089.322108
1040
-0.580901
1040
2440.428284
1040
1089.09282
1040
0.0
1040
2438.901662
1040
1090.619442
1040
-0.09706
1040
2437.486971
1040
1089.205706
1040
0.0
1040
2439.013019
1040
1087.679658
1040
-0.58125
1040
2438.783225
1040
1086.841663
1040
0.0
1040
2436.208534
1040
1086.183907
1040
-0.489521
1040
2435.584774
1040
1086.668349
1040
0.0
1040
2435.584774
1040
1088.418699
1040
-0.09706
1040
2433.584774
1040
1088.419655
1040
0.0
1040
2433.584774
1040
1086.668763
1040
-0.489714
1040
2432.960712
1040
1086.184399
1040
0.0
1040
2430.38771
1040
1086.84343
1040
-0.581042
1040
2430.158218
1040
1087.681348
1040
0.0
1040
2431.684537
1040
1089.207667
1040
-0.09706
1040
2430.270802
1040
1090.622358
1040
0.0
1040
2428.744242
1040
1089.095798
1040
-0.581012
1040
2427.906335
1040
1089.325248
1040
0.0
1040
2427.247124
1040
1091.898013
1040
-0.489741
1040
2427.731478
1040
1092.522117
1040
0.0
1040
2429.484272
1040
1092.522117
1040
-0.09706
1040
2429.484272
1040
1094.522117
1040
0.0
1040
2427.731478
1040
1094.522117
1040
-0.489741
1040
2427.247124
1040
1095.146221
1040
0.0
1040
2427.906335
1040
1097.718986
1040
-0.581012
1040
2428.744242
1040
1097.948435
1040
0.0
1040
2430.270802
1040
1096.421875
1040
-0.09706
1040
2431.684537
1040
1097.836567
1040
0.0
1040
2430.158218
1040
1099.362885
1040
-0.581042
1040
2430.38771
1040
1100.200803
1040
0.0
1040
2432.960712
1040
1100.859835
1040
-0.489714
1040
2433.584774
1040
1100.375471
1040
0.0
1040
2433.584774
1040
1098.624579
1040
-0.09706
1040
2435.584774
1040
1098.625534
1040
0.0
1040
2435.584774
1040
1100.375885
1040
-0.489521
1040
2436.208534
1040
1100.860326
1040
0.0
1071
       48
1005
7D
1005
8F
1005
8A
1005
90
1005
72
1005
80
1005
73
1005
8D
1005
89
1005
8E
1005
74
1005
7F
1005
75
1005
8B
1005
88
1005
8C
1005
76
1005
7E
1005
77
1005
91
1005
87
1005
92
1005
78
1005
83
1005
79
1005
95
1005
86
1005
96
1005
1F
1005
46
1005
43
1005
21
1005
85
1005
22
1005
44
1005
45
1005
20
1005
93
1005
84
1005
94
1005
7A
1005
82
1005
7B
1005
97
1005
99
1005
98
1005
7C
1005
81
1071
       22
1070
     1
1070
     1
1071
       10
1040
2427.434774
1040
1114.022117
1040
0.0
1040
2427.434774
1040
1112.372117
1040
0.0
1040
2422.284774
1040
1112.372117
1040
0.0
1040
2422.284774
1040
1106.769425
1040
0.0
1040
2421.337465
1040
1105.822117
1040
0.0
1040
2408.234774
1040
1105.822117
1040
0.0
1040
2408.234774
1040
1100.672117
1040
0.0
1040
2406.584774
1040
1100.672117
1040
0.0
1040
2406.584774
1040
1113.322117
1040
-0.414214
1040
2407.284774
1040
1114.022117
1040
0.0
1071
       10
1005
40
1005
41
1005
3E
1005
39
1005
3F
1005
3D
1005
3C
1005
3B
1005
3A
1005
42
1071
       22
1070
     1
1070
     1
1071
       10
1040
2460.934774
1040
1086.372117
1040
0.0
1040
2462.584774
1040
1086.372117
1040
0.0
1040
2462.584774
1040
1073.722117
1040
-0.414214
1040
2461.884774
1040
1073.022117
1040
0.0
1040
2441.734774
1040
1073.022117
1040
0.0
1040
2441.734774
1040
1074.672117
1040
0.0
1040
2446.884774
1040
1074.672117
1040
0.0
1040
2446.884774
1040
1080.274808
1040
0.0
1040
2447.832082
1040
1081.222117
1040
0.0
1040
2460.934774
1040
1081.222117
1040
0.0
1071
       10
1005
6E
1005
55
1005
5E
1005
5D
1005
5B
1005
5C
1005
56
1005
70
1005
71
1005
6F
1071
       22
1070
     1
1070
     1
1071
       10
1040
2421.337465
1040
1081.222117
1040
0.0
1040
2422.284774
1040
1080.274808
1040
0.0
1040
2422.284774
1040
1074.672117
1040
0.0
1040
2427.434774
1040
1074.672117
1040
0.0
1040
2427.434774
1040
1073.022117
1040
0.0
1040
2407.284774
1040
1073.022117
1040
-0.414214
1040
2406.584774
1040
1073.722117
1040
0.0
1040
2406.584774
1040
1086.372117
1040
0.0
1040
2408.234774
1040
1086.372117
1040
0.0
1040
2408.234774
1040
1081.222117
1040
0.0
1071
       10
1005
36
1005
37
1005
38
1005
2A
1005
31
1005
30
1005
33
1005
32
1005
29
1005
35
1070
     0
1070
     1
1040
0.0
1040
0.4
1070
     0
1070
     1
1040
0.785398
1040
0.0
1040
0.0
1040
-0.898026
1040
0.898026
1070
     0
1040
0.151914
1071
        6
1040
2442.684904
1040
1114.934297
1040
0.0
1040
2442.684904
1040
1114.934297
1040
0.0
1040
2442.684904
1040
1114.934297
1040
0.0
1040
2442.684904
1040
1114.934297
1040
0.0
1040
2442.684904
1040
1114.934297
1040
0.0
1040
2442.684904
1040
1114.934297
1040
0.0
1002
}
  0
ARC
  5
1F
  8
0
 10
2428.390688
 20
1089.449352
 30
0.0
 40
0.5
 50
194.371513
 51
315.0
1001
ACAD
1000
ASC_BOUNDS
1002
{
1070
    19
1005
1E
1002
}
  0
ARC
  5
20
  8
0
 10
2428.390688
 20
1097.594882
 30
0.0
 40
0.5
 50
45.0
 51
165.628487
1001
ACAD
1000
ASC_BOUNDS
1002
{
1070
    19
1005
1E
1002
}
  0
LINE
  5
21
  8
0
 10
2427.731478
 20
1092.522117
 30
0.0
 11
2429.484272
 21
1092.522117
 31
0.0
1001
ACAD
1000
ASC_BOUNDS
1002
{
1070
    19
1005
1E
1002
}
  0
LINE
  5
22
  8
0
 10
2427.731478
 20
1094.522117
 30
0.0
 11
2429.484272
 21
1094.522117
 31
0.0
1001
ACAD
1000
ASC_BOUNDS
1002
{
1070
    19
1005
1E
1002
}
  0
LINE
  5
23
  8
0
 10
2429.434774
 20
1071.022117
 30
0.0
 11
2407.284774
 21
1071.022117
 31
0.0
1001
ACAD
1000
ASC_BOUNDS
1002
{
1070
    19
1005
1E
1002
}
  0
LINE
  5
24
  8
0
 10
2429.434774
 20
1076.672117
 30
0.0
 11
2424.284774
 21
1076.672117
 31
0.0
1001
ACAD
1000
ASC_BOUNDS
1002
{
1070
    19
1005
1E
1002
}
  0
LINE
  5
25
  8
0
 10
2427.206094
 20
1084.024556
 30
0.0
 11
2441.963453
 21
1084.024556
 31
0.0
1001
ACAD
1000
ASC_BOUNDS
1002
{
1070
    19
1005
1E
1002
}
  0
LINE
  5
26
  8
0
 10
2441.963453
 20
1103.019678
 30
0.0
 11
2427.206094
 21
1103.019678
 31
0.0
1001
ACAD
1000
ASC_BOUNDS
1002
{
1070
    19
1005
1E
1002
}
  0
LINE
  5
27
  8
0
 10
2429.434774
 20
1110.372117
 30
0.0
 11
2424.284774
 21
1110.372117
 31
0.0
1001
ACAD
1000
ASC_BOUNDS
1002
{
1070
    19
1005
1E
1002
}
  0
LINE
  5
28
  8
0
 10
2407.284774
 20
1116.022117
 30
0.0
 11
2429.434774
 21
1116.022117
 31
0.0
1001
ACAD
1000
ASC_BOUNDS
1002
{
1070
    19
1005
1E
1002
}
  0
LINE
  5
29
  8
0
 10
2406.584774
 20
1073.722117
 30
0.0
 11
2406.584774
 21
1086.372117
 31
0.0
1001
ACAD
1000
ASC_BOUNDS
1002
{
1070
    19
1005
1E
1002
}
  0
LINE
  5
2A
  8
0
 10
2422.284774
 20
1074.672117
 30
0.0
 11
2422.284774
 21
1080.274808
 31
0.0
1001
ACAD
1000
ASC_BOUNDS
1002
{
1070
    19
1005
1E
1002
}
  0
LINE
  5
2B
  8
0
 10
2424.284774
 20
1076.672117
 30
0.0
 11
2424.284774
 21
1081.103235
 31
0.0
1001
ACAD
1000
ASC_BOUNDS
1002
{
1070
    19
1005
1E
1002
}
  0
LINE
  5
2C
  8
0
 10
2404.584774
 20
1073.722117
 30
0.0
 11
2404.584774
 21
1088.372117
 31
0.0
1001
ACAD
1000
ASC_BOUNDS
1002
{
1070
    19
1005
1E
1002
}
  0
LINE
  5
2D
  8
MATEN
 10
2407.284774
 20
1071.022117
 30
0.0
 11
2403.538232
 21
1071.022117
 31
0.0
  0
LINE
  5
2F
  8
MATEN
 10
2404.584774
 20
1073.722117
 30
0.0
 11
2404.584774
 21
1067.784867
 31
0.0
  0
LINE
  5
30
  8
0
 10
2427.434774
 20
1073.022117
 30
0.0
 11
2427.434774
 21
1074.672117
 31
0.0
1001
ACAD
1000
ASC_BOUNDS
1002
{
1070
    19
1005
1E
1002
}
  0
LINE
  5
31
  8
0
 10
2427.434774
 20
1074.672117
 30
0.0
 11
2422.284774
 21
1074.672117
 31
0.0
1001
ACAD
1000
ASC_BOUNDS
1002
{
1070
    19
1005
1E
1002
}
  0
ARC
  5
32
  8
0
 10
2407.284774
 20
1073.722117
 30
0.0
 40
0.7
 50
180.0
 51
270.0
1001
ACAD
1000
ASC_BOUNDS
1002
{
1070
    19
1005
1E
1002
}
  0
LINE
  5
33
  8
0
 10
2427.434774
 20
1073.022117
 30
0.0
 11
2407.284774
 21
1073.022117
 31
0.0
1001
ACAD
1000
ASC_BOUNDS
1002
{
1070
    19
1005
1E
1002
}
  0
ARC
  5
34
  8
0
 10
2407.284774
 20
1073.722117
 30
0.0
 40
2.7
 50
180.0
 51
270.0
1001
ACAD
1000
ASC_BOUNDS
1002
{
1070
    19
1005
1E
1002
}
  0
LINE
  5
35
  8
0
 10
2406.584774
 20
1086.372117
 30
0.0
 11
2408.234774
 21
1086.372117
 31
0.0
1001
ACAD
1000
ASC_BOUNDS
1002
{
1070
    19
1005
1E
1002
}
  0
LINE
  5
36
  8
0
 10
2408.234774
 20
1086.372117
 30
0.0
 11
2408.234774
 21
1081.222117
 31
0.0
1001
ACAD
1000
ASC_BOUNDS
1002
{
1070
    19
1005
1E
1002
}
  0
LINE
  5
37
  8
0
 10
2408.234774
 20
1081.222117
 30
0.0
 11
2421.337465
 21
1081.222117
 31
0.0
1001
ACAD
1000
ASC_BOUNDS
1002
{
1070
    19
1005
1E
1002
}
  0
LINE
  5
38
  8
0
 10
2422.284774
 20
1080.274808
 30
0.0
 11
2421.337465
 21
1081.222117
 31
0.0
1001
ACAD
1000
ASC_BOUNDS
1002
{
1070
    19
1005
1E
1002
}
  0
LINE
  5
39
  8
0
 10
2421.337465
 20
1105.822117
 30
0.0
 11
2422.284774
 21
1106.769425
 31
0.0
1001
ACAD
1000
ASC_BOUNDS
1002
{
1070
    19
1005
1E
1002
}
  0
ARC
  5
3A
  8
0
 10
2407.284774
 20
1113.322117
 30
0.0
 40
0.7
 50
90.0
 51
180.0
1001
ACAD
1000
ASC_BOUNDS
1002
{
1070
    19
1005
1E
1002
}
  0
LINE
  5
3B
  8
0
 10
2406.584774
 20
1100.672117
 30
0.0
 11
2406.584774
 21
1113.322117
 31
0.0
1001
ACAD
1000
ASC_BOUNDS
1002
{
1070
    19
1005
1E
1002
}
  0
LINE
  5
3C
  8
0
 10
2406.584774
 20
1100.672117
 30
0.0
 11
2408.234774
 21
1100.672117
 31
0.0
1001
ACAD
1000
ASC_BOUNDS
1002
{
1070
    19
1005
1E
1002
}
  0
LINE
  5
3D
  8
0
 10
2408.234774
 20
1100.672117
 30
0.0
 11
2408.234774
 21
1105.822117
 31
0.0
1001
ACAD
1000
ASC_BOUNDS
1002
{
1070
    19
1005
1E
1002
}
  0
LINE
  5
3E
  8
0
 10
2422.284774
 20
1112.372117
 30
0.0
 11
2422.284774
 21
1106.769425
 31
0.0
1001
ACAD
1000
ASC_BOUNDS
1002
{
1070
    19
1005
1E
1002
}
  0
LINE
  5
3F
  8
0
 10
2408.234774
 20
1105.822117
 30
0.0
 11
2421.337465
 21
1105.822117
 31
0.0
1001
ACAD
1000
ASC_BOUNDS
1002
{
1070
    19
1005
1E
1002
}
  0
LINE
  5
40
  8
0
 10
2427.434774
 20
1114.022117
 30
0.0
 11
2427.434774
 21
1112.372117
 31
0.0
1001
ACAD
1000
ASC_BOUNDS
1002
{
1070
    19
1005
1E
1002
}
  0
LINE
  5
41
  8
0
 10
2427.434774
 20
1112.372117
 30
0.0
 11
2422.284774
 21
1112.372117
 31
0.0
1001
ACAD
1000
ASC_BOUNDS
1002
{
1070
    19
1005
1E
1002
}
  0
LINE
  5
42
  8
0
 10
2407.284774
 20
1114.022117
 30
0.0
 11
2427.434774
 21
1114.022117
 31
0.0
1001
ACAD
1000
ASC_BOUNDS
1002
{
1070
    19
1005
1E
1002
}
  0
ARC
  5
43
  8
0
 10
2427.731478
 20
1092.022117
 30
0.0
 40
0.5
 50
90.0
 51
194.371513
1001
ACAD
1000
ASC_BOUNDS
1002
{
1070
    19
1005
1E
1002
}
  0
ARC
  5
44
  8
0
 10
2427.731478
 20
1095.022117
 30
0.0
 40
0.5
 50
165.628487
 51
270.0
1001
ACAD
1000
ASC_BOUNDS
1002
{
1070
    19
1005
1E
1002
}
  0
LINE
  5
45
  8
0
 10
2427.247124
 20
1095.146221
 30
0.0
 11
2427.906335
 21
1097.718986
 31
0.0
1001
ACAD
1000
ASC_BOUNDS
1002
{
1070
    19
1005
1E
1002
}
  0
LINE
  5
46
  8
0
 10
2427.906335
 20
1089.325248
 30
0.0
 11
2427.247124
 21
1091.898013
 31
0.0
1001
ACAD
1000
ASC_BOUNDS
1002
{
1070
    19
1005
1E
1002
}
  0
LINE
  5
47
  8
0
 10
2427.206094
 20
1084.024556
 30
0.0
 11
2424.284774
 21
1081.103235
 31
0.0
1001
ACAD
1000
ASC_BOUNDS
1002
{
1070
    19
1005
1E
1002
}
  0
LINE
  5
48
  8
0
 10
2424.284774
 20
1105.940998
 30
0.0
 11
2427.206094
 21
1103.019678
 31
0.0
1001
ACAD
1000
ASC_BOUNDS
1002
{
1070
    19
1005
1E
1002
}
  0
LINE
  5
49
  8
0
 10
2424.284774
 20
1110.372117
 30
0.0
 11
2424.284774
 21
1105.940998
 31
0.0
1001
ACAD
1000
ASC_BOUNDS
1002
{
1070
    19
1005
1E
1002
}
  0
LINE
  5
4A
  8
0
 10
2404.584774
 20
1098.672117
 30
0.0
 11
2404.584774
 21
1113.322117
 31
0.0
1001
ACAD
1000
ASC_BOUNDS
1002
{
1070
    19
1005
1E
1002
}
  0
LINE
  5
4B
  8
0
 10
2410.234774
 20
1088.372117
 30
0.0
 11
2410.234774
 21
1083.222117
 31
0.0
1001
ACAD
1000
ASC_BOUNDS
1002
{
1070
    19
1005
1E
1002
}
  0
LINE
  5
4C
  8
0
 10
2410.234774
 20
1098.672117
 30
0.0
 11
2410.234774
 21
1103.822117
 31
0.0
1001
ACAD
1000
ASC_BOUNDS
1002
{
1070
    19
1005
1E
1002
}
  0
LINE
  5
4D
  8
0
 10
2410.234774
 20
1083.222117
 30
0.0
 11
2422.165892
 21
1083.222117
 31
0.0
1001
ACAD
1000
ASC_BOUNDS
1002
{
1070
    19
1005
1E
1002
}
  0
LINE
  5
4E
  8
0
 10
2410.234774
 20
1103.822117
 30
0.0
 11
2422.165892
 21
1103.822117
 31
0.0
1001
ACAD
1000
ASC_BOUNDS
1002
{
1070
    19
1005
1E
1002
}
  0
LINE
  5
4F
  8
0
 10
2404.584774
 20
1088.372117
 30
0.0
 11
2410.234774
 21
1088.372117
 31
0.0
1001
ACAD
1000
ASC_BOUNDS
1002
{
1070
    19
1005
1E
1002
}
  0
LINE
  5
50
  8
0
 10
2404.584774
 20
1098.672117
 30
0.0
 11
2410.234774
 21
1098.672117
 31
0.0
1001
ACAD
1000
ASC_BOUNDS
1002
{
1070
    19
1005
1E
1002
}
  0
LINE
  5
51
  8
0
 10
2425.087212
 20
1100.900796
 30
0.0
 11
2422.165892
 21
1103.822117
 31
0.0
1001
ACAD
1000
ASC_BOUNDS
1002
{
1070
    19
1005
1E
1002
}
  0
LINE
  5
52
  8
0
 10
2422.165892
 20
1083.222117
 30
0.0
 11
2425.087212
 21
1086.143437
 31
0.0
1001
ACAD
1000
ASC_BOUNDS
1002
{
1070
    19
1005
1E
1002
}
  0
LINE
  5
53
  8
0
 10
2425.087212
 20
1100.900796
 30
0.0
 11
2425.087212
 21
1086.143437
 31
0.0
1001
ACAD
1000
ASC_BOUNDS
1002
{
1070
    19
1005
1E
1002
}
  0
ARC
  5
54
  8
0
 10
2407.284774
 20
1113.322117
 30
0.0
 40
2.7
 50
90.0
 51
180.0
1001
ACAD
1000
ASC_BOUNDS
1002
{
1070
    19
1005
1E
1002
}
  0
LINE
  5
55
  8
0
 10
2462.584774
 20
1086.372117
 30
0.0
 11
2462.584774
 21
1073.722117
 31
0.0
1001
ACAD
1000
ASC_BOUNDS
1002
{
1070
    19
1005
1E
1002
}
  0
LINE
  5
56
  8
0
 10
2446.884774
 20
1074.672117
 30
0.0
 11
2446.884774
 21
1080.274808
 31
0.0
1001
ACAD
1000
ASC_BOUNDS
1002
{
1070
    19
1005
1E
1002
}
  0
LINE
  5
57
  8
0
 10
2464.584774
 20
1088.372117
 30
0.0
 11
2464.584774
 21
1073.722117
 31
0.0
1001
ACAD
1000
ASC_BOUNDS
1002
{
1070
    19
1005
1E
1002
}
  0
LINE
  5
58
  8
0
 10
2444.884774
 20
1076.672117
 30
0.0
 11
2444.884774
 21
1081.103235
 31
0.0
1001
ACAD
1000
ASC_BOUNDS
1002
{
1070
    19
1005
1E
1002
}
  0
LINE
  5
59
  8
MATEN
 10
2461.884774
 20
1071.022117
 30
0.0
 11
2470.842751
 21
1071.022117
 31
0.0
  0
LINE
  5
5A
  8
MATEN
 10
2464.584774
 20
1073.722117
 30
0.0
 11
2464.584774
 21
1066.040401
 31
0.0
  0
LINE
  5
5B
  8
0
 10
2441.734774
 20
1073.022117
 30
0.0
 11
2441.734774
 21
1074.672117
 31
0.0
1001
ACAD
1000
ASC_BOUNDS
1002
{
1070
    19
1005
1E
1002
}
  0
LINE
  5
5C
  8
0
 10
2441.734774
 20
1074.672117
 30
0.0
 11
2446.884774
 21
1074.672117
 31
0.0
1001
ACAD
1000
ASC_BOUNDS
1002
{
1070
    19
1005
1E
1002
}
  0
LINE
  5
5D
  8
0
 10
2461.884774
 20
1073.022117
 30
0.0
 11
2441.734774
 21
1073.022117
 31
0.0
1001
ACAD
1000
ASC_BOUNDS
1002
{
1070
    19
1005
1E
1002
}
  0
ARC
  5
5E
  8
0
 10
2461.884774
 20
1073.722117
 30
0.0
 40
0.7
 50
270.0
 51
0.0
1001
ACAD
1000
ASC_BOUNDS
1002
{
1070
    19
1005
1E
1002
}
  0
LINE
  5
5F
  8
0
 10
2461.884774
 20
1071.022117
 30
0.0
 11
2439.734774
 21
1071.022117
 31
0.0
1001
ACAD
1000
ASC_BOUNDS
1002
{
1070
    19
1005
1E
1002
}
  0
LINE
  5
60
  8
0
 10
2429.434774
 20
1071.022117
 30
0.0
 11
2429.434774
 21
1076.672117
 31
0.0
1001
ACAD
1000
ASC_BOUNDS
1002
{
1070
    19
1005
1E
1002
}
  0
LINE
  5
61
  8
0
 10
2439.734774
 20
1071.022117
 30
0.0
 11
2439.734774
 21
1076.672117
 31
0.0
1001
ACAD
1000
ASC_BOUNDS
1002
{
1070
    19
1005
1E
1002
}
  0
LINE
  5
62
  8
0
 10
2439.734774
 20
1076.672117
 30
0.0
 11
2444.884774
 21
1076.672117
 31
0.0
1001
ACAD
1000
ASC_BOUNDS
1002
{
1070
    19
1005
1E
1002
}
  0
ARC
  5
63
  8
0
 10
2461.884774
 20
1073.722117
 30
0.0
 40
2.7
 50
270.0
 51
0.0
1001
ACAD
1000
ASC_BOUNDS
1002
{
1070
    19
1005
1E
1002
}
  0
LINE
  5
64
  8
0
 10
2462.584774
 20
1100.672117
 30
0.0
 11
2460.934774
 21
1100.672117
 31
0.0
1001
ACAD
1000
ASC_BOUNDS
1002
{
1070
    19
1005
1E
1002
}
  0
LINE
  5
65
  8
0
 10
2441.734774
 20
1114.022117
 30
0.0
 11
2441.734774
 21
1112.372117
 31
0.0
1001
ACAD
1000
ASC_BOUNDS
1002
{
1070
    19
1005
1E
1002
}
  0
LINE
  5
66
  8
0
 10
2441.734774
 20
1114.022117
 30
0.0
 11
2461.884774
 21
1114.022117
 31
0.0
1001
ACAD
1000
ASC_BOUNDS
1002
{
1070
    19
1005
1E
1002
}
  0
LINE
  5
67
  8
0
 10
2460.934774
 20
1100.672117
 30
0.0
 11
2460.934774
 21
1105.822117
 31
0.0
1001
ACAD
1000
ASC_BOUNDS
1002
{
1070
    19
1005
1E
1002
}
  0
LINE
  5
68
  8
0
 10
2441.734774
 20
1112.372117
 30
0.0
 11
2446.884774
 21
1112.372117
 31
0.0
1001
ACAD
1000
ASC_BOUNDS
1002
{
1070
    19
1005
1E
1002
}
  0
LINE
  5
69
  8
0
 10
2462.584774
 20
1113.322117
 30
0.0
 11
2462.584774
 21
1100.672117
 31
0.0
1001
ACAD
1000
ASC_BOUNDS
1002
{
1070
    19
1005
1E
1002
}
  0
LINE
  5
6A
  8
0
 10
2460.934774
 20
1105.822117
 30
0.0
 11
2447.832082
 21
1105.822117
 31
0.0
1001
ACAD
1000
ASC_BOUNDS
1002
{
1070
    19
1005
1E
1002
}
  0
LINE
  5
6B
  8
0
 10
2446.884774
 20
1112.372117
 30
0.0
 11
2446.884774
 21
1106.769425
 31
0.0
1001
ACAD
1000
ASC_BOUNDS
1002
{
1070
    19
1005
1E
1002
}
  0
LINE
  5
6C
  8
0
 10
2446.884774
 20
1106.769425
 30
0.0
 11
2447.832082
 21
1105.822117
 31
0.0
1001
ACAD
1000
ASC_BOUNDS
1002
{
1070
    19
1005
1E
1002
}
  0
ARC
  5
6D
  8
0
 10
2461.884774
 20
1113.322117
 30
0.0
 40
0.7
 50
0.0
 51
90.0
1001
ACAD
1000
ASC_BOUNDS
1002
{
1070
    19
1005
1E
1002
}
  0
LINE
  5
6E
  8
0
 10
2462.584774
 20
1086.372117
 30
0.0
 11
2460.934774
 21
1086.372117
 31
0.0
1001
ACAD
1000
ASC_BOUNDS
1002
{
1070
    19
1005
1E
1002
}
  0
LINE
  5
6F
  8
0
 10
2460.934774
 20
1086.372117
 30
0.0
 11
2460.934774
 21
1081.222117
 31
0.0
1001
ACAD
1000
ASC_BOUNDS
1002
{
1070
    19
1005
1E
1002
}
  0
LINE
  5
70
  8
0
 10
2447.832082
 20
1081.222117
 30
0.0
 11
2446.884774
 21
1080.274808
 31
0.0
1001
ACAD
1000
ASC_BOUNDS
1002
{
1070
    19
1005
1E
1002
}
  0
LINE
  5
71
  8
0
 10
2460.934774
 20
1081.222117
 30
0.0
 11
2447.832082
 21
1081.222117
 31
0.0
1001
ACAD
1000
ASC_BOUNDS
1002
{
1070
    19
1005
1E
1002
}
  0
ARC
  5
72
  8
0
 10
2440.781837
 20
1097.59786
 30
0.0
 40
0.5
 50
14.390599
 51
135.0
1001
ACAD
1000
ASC_BOUNDS
1002
{
1070
    19
1005
1E
1002
}
  0
ARC
  5
73
  8
0
 10
2441.442725
 20
1095.022117
 30
0.0
 40
0.5
 50
270.0
 51
14.390599
1001
ACAD
1000
ASC_BOUNDS
1002
{
1070
    19
1005
1E
1002
}
  0
ARC
  5
74
  8
0
 10
2441.442725
 20
1092.022117
 30
0.0
 40
0.5
 50
345.609401
 51
90.0
1001
ACAD
1000
ASC_BOUNDS
1002
{
1070
    19
1005
1E
1002
}
  0
ARC
  5
75
  8
0
 10
2440.781837
 20
1089.446373
 30
0.0
 40
0.5
 50
225.0
 51
345.609401
1001
ACAD
1000
ASC_BOUNDS
1002
{
1070
    19
1005
1E
1002
}
  0
ARC
  5
76
  8
0
 10
2438.659465
 20
1087.326105
 30
0.0
 40
0.5
 50
284.330823
 51
45.0
1001
ACAD
1000
ASC_BOUNDS
1002
{
1070
    19
1005
1E
1002
}
  0
ARC
  5
77
  8
0
 10
2436.084774
 20
1086.668349
 30
0.0
 40
0.5
 50
180.0
 51
284.330823
1001
ACAD
1000
ASC_BOUNDS
1002
{
1070
    19
1005
1E
1002
}
  0
ARC
  5
78
  8
0
 10
2433.084774
 20
1086.668763
 30
0.0
 40
0.5
 50
255.633488
 51
0.0
1001
ACAD
1000
ASC_BOUNDS
1002
{
1070
    19
1005
1E
1002
}
  0
ARC
  5
79
  8
0
 10
2430.511772
 20
1087.327795
 30
0.0
 40
0.5
 50
135.0
 51
255.633488
1001
ACAD
1000
ASC_BOUNDS
1002
{
1070
    19
1005
1E
1002
}
  0
ARC
  5
7A
  8
0
 10
2430.511772
 20
1099.716439
 30
0.0
 40
0.5
 50
104.366512
 51
225.0
1001
ACAD
1000
ASC_BOUNDS
1002
{
1070
    19
1005
1E
1002
}
  0
ARC
  5
7B
  8
0
 10
2433.084774
 20
1100.375471
 30
0.0
 40
0.5
 50
0.0
 51
104.366512
1001
ACAD
1000
ASC_BOUNDS
1002
{
1070
    19
1005
1E
1002
}
  0
ARC
  5
7C
  8
0
 10
2436.084774
 20
1100.375885
 30
0.0
 40
0.5
 50
75.669177
 51
180.0
1001
ACAD
1000
ASC_BOUNDS
1002
{
1070
    19
1005
1E
1002
}
  0
ARC
  5
7D
  8
0
 10
2438.659465
 20
1099.718129
 30
0.0
 40
0.5
 50
315.0
 51
75.669177
1001
ACAD
1000
ASC_BOUNDS
1002
{
1070
    19
1005
1E
1002
}
  0
LINE
  5
7E
  8
0
 10
2438.783225
 20
1086.841663
 30
0.0
 11
2436.208534
 21
1086.183907
 31
0.0
1001
ACAD
1000
ASC_BOUNDS
1002
{
1070
    19
1005
1E
1002
}
  0
LINE
  5
7F
  8
0
 10
2441.927037
 20
1091.897851
 30
0.0
 11
2441.266149
 21
1089.322108
 31
0.0
1001
ACAD
1000
ASC_BOUNDS
1002
{
1070
    19
1005
1E
1002
}
  0
LINE
  5
80
  8
0
 10
2441.266149
 20
1097.722126
 30
0.0
 11
2441.927037
 21
1095.146382
 31
0.0
1001
ACAD
1000
ASC_BOUNDS
1002
{
1070
    19
1005
1E
1002
}
  0
LINE
  5
81
  8
0
 10
2436.208534
 20
1100.860326
 30
0.0
 11
2438.783225
 21
1100.20257
 31
0.0
1001
ACAD
1000
ASC_BOUNDS
1002
{
1070
    19
1005
1E
1002
}
  0
LINE
  5
82
  8
0
 10
2430.38771
 20
1100.200803
 30
0.0
 11
2432.960712
 21
1100.859835
 31
0.0
1001
ACAD
1000
ASC_BOUNDS
1002
{
1070
    19
1005
1E
1002
}
  0
LINE
  5
83
  8
0
 10
2430.38771
 20
1086.84343
 30
0.0
 11
2432.960712
 21
1086.184399
 31
0.0
1001
ACAD
1000
ASC_BOUNDS
1002
{
1070
    19
1005
1E
1002
}
  0
ARC
  5
84
  8
0
 10
2434.587212
 20
1093.522117
 30
0.0
 40
5.2
 50
123.931873
 51
146.106853
1001
ACAD
1000
ASC_BOUNDS
1002
{
1070
    19
1005
1E
1002
}
  0
ARC
  5
85
  8
0
 10
2434.587212
 20
1093.522117
 30
0.0
 40
5.2
 50
168.912511
 51
191.087489
1001
ACAD
1000
ASC_BOUNDS
1002
{
1070
    19
1005
1E
1002
}
  0
ARC
  5
86
  8
0
 10
2434.587212
 20
1093.522117
 30
0.0
 40
5.2
 50
213.893147
 51
236.068127
1001
ACAD
1000
ASC_BOUNDS
1002
{
1070
    19
1005
1E
1002
}
  0
ARC
  5
87
  8
0
 10
2434.587212
 20
1093.522117
 30
0.0
 40
5.2
 50
258.885127
 51
281.060108
1001
ACAD
1000
ASC_BOUNDS
1002
{
1070
    19
1005
1E
1002
}
  0
ARC
  5
88
  8
0
 10
2434.587212
 20
1093.522117
 30
0.0
 40
5.2
 50
303.893147
 51
326.068127
1001
ACAD
1000
ASC_BOUNDS
1002
{
1070
    19
1005
1E
1002
}
  0
ARC
  5
89
  8
0
 10
2434.587212
 20
1093.522117
 30
0.0
 40
5.2
 50
348.912511
 51
11.087489
1001
ACAD
1000
ASC_BOUNDS
1002
{
1070
    19
1005
1E
1002
}
  0
ARC
  5
8A
  8
0
 10
2434.587212
 20
1093.522117
 30
0.0
 40
5.2
 50
33.931873
 51
56.106853
1001
ACAD
1000
ASC_BOUNDS
1002
{
1070
    19
1005
1E
1002
}
  0
LINE
  5
8B
  8
0
 10
2438.901662
 20
1090.619442
 30
0.0
 11
2440.428284
 21
1089.09282
 31
0.0
1001
ACAD
1000
ASC_BOUNDS
1002
{
1070
    19
1005
1E
1002
}
  0
LINE
  5
8C
  8
0
 10
2437.486971
 20
1089.205706
 30
0.0
 11
2439.013019
 21
1087.679658
 31
0.0
1001
ACAD
1000
ASC_BOUNDS
1002
{
1070
    19
1005
1E
1002
}
  0
LINE
  5
8D
  8
0
 10
2439.690153
 20
1094.522117
 30
0.0
 11
2441.442725
 21
1094.522117
 31
0.0
1001
ACAD
1000
ASC_BOUNDS
1002
{
1070
    19
1005
1E
1002
}
  0
LINE
  5
8E
  8
0
 10
2439.690153
 20
1092.522117
 30
0.0
 11
2441.442725
 21
1092.522117
 31
0.0
1001
ACAD
1000
ASC_BOUNDS
1002
{
1070
    19
1005
1E
1002
}
  0
LINE
  5
8F
  8
0
 10
2437.486971
 20
1097.838527
 30
0.0
 11
2439.013019
 21
1099.364575
 31
0.0
1001
ACAD
1000
ASC_BOUNDS
1002
{
1070
    19
1005
1E
1002
}
  0
LINE
  5
90
  8
0
 10
2438.901662
 20
1096.424792
 30
0.0
 11
2440.428284
 21
1097.951414
 31
0.0
1001
ACAD
1000
ASC_BOUNDS
1002
{
1070
    19
1005
1E
1002
}
  0
LINE
  5
91
  8
0
 10
2435.584774
 20
1088.418699
 30
0.0
 11
2435.584774
 21
1086.668349
 31
0.0
1001
ACAD
1000
ASC_BOUNDS
1002
{
1070
    19
1005
1E
1002
}
  0
LINE
  5
92
  8
0
 10
2433.584774
 20
1088.419655
 30
0.0
 11
2433.584774
 21
1086.668763
 31
0.0
1001
ACAD
1000
ASC_BOUNDS
1002
{
1070
    19
1005
1E
1002
}
  0
LINE
  5
93
  8
0
 10
2428.744242
 20
1097.948435
 30
0.0
 11
2430.270802
 21
1096.421875
 31
0.0
1001
ACAD
1000
ASC_BOUNDS
1002
{
1070
    19
1005
1E
1002
}
  0
LINE
  5
94
  8
0
 10
2430.158218
 20
1099.362885
 30
0.0
 11
2431.684537
 21
1097.836567
 31
0.0
1001
ACAD
1000
ASC_BOUNDS
1002
{
1070
    19
1005
1E
1002
}
  0
LINE
  5
95
  8
0
 10
2430.158218
 20
1087.681348
 30
0.0
 11
2431.684537
 21
1089.207667
 31
0.0
1001
ACAD
1000
ASC_BOUNDS
1002
{
1070
    19
1005
1E
1002
}
  0
LINE
  5
96
  8
0
 10
2428.744242
 20
1089.095798
 30
0.0
 11
2430.270802
 21
1090.622358
 31
0.0
1001
ACAD
1000
ASC_BOUNDS
1002
{
1070
    19
1005
1E
1002
}
  0
LINE
  5
97
  8
0
 10
2433.584774
 20
1100.375471
 30
0.0
 11
2433.584774
 21
1098.624579
 31
0.0
1001
ACAD
1000
ASC_BOUNDS
1002
{
1070
    19
1005
1E
1002
}
  0
LINE
  5
98
  8
0
 10
2435.584774
 20
1100.375885
 30
0.0
 11
2435.584774
 21
1098.625534
 31
0.0
1001
ACAD
1000
ASC_BOUNDS
1002
{
1070
    19
1005
1E
1002
}
  0
ARC
  5
99
  8
0
 10
2434.587212
 20
1093.522117
 30
0.0
 40
5.2
 50
78.939892
 51
101.114873
1001
ACAD
1000
ASC_BOUNDS
1002
{
1070
    19
1005
1E
1002
}
  0
LINE
  5
9A
  8
0
 10
2458.934774
 20
1103.822117
 30
0.0
 11
2447.003655
 21
1103.822117
 31
0.0
1001
ACAD
1000
ASC_BOUNDS
1002
{
1070
    19
1005
1E
1002
}
  0
LINE
  5
9B
  8
0
 10
2458.934774
 20
1083.222117
 30
0.0
 11
2447.003655
 21
1083.222117
 31
0.0
1001
ACAD
1000
ASC_BOUNDS
1002
{
1070
    19
1005
1E
1002
}
  0
LINE
  5
9C
  8
0
 10
2464.584774
 20
1113.322117
 30
0.0
 11
2464.584774
 21
1098.672117
 31
0.0
1001
ACAD
1000
ASC_BOUNDS
1002
{
1070
    19
1005
1E
1002
}
  0
LINE
  5
9D
  8
0
 10
2464.584774
 20
1088.372117
 30
0.0
 11
2458.934774
 21
1088.372117
 31
0.0
1001
ACAD
1000
ASC_BOUNDS
1002
{
1070
    19
1005
1E
1002
}
  0
LINE
  5
9E
  8
0
 10
2464.584774
 20
1098.672117
 30
0.0
 11
2458.934774
 21
1098.672117
 31
0.0
1001
ACAD
1000
ASC_BOUNDS
1002
{
1070
    19
1005
1E
1002
}
  0
LINE
  5
9F
  8
0
 10
2458.934774
 20
1098.672117
 30
0.0
 11
2458.934774
 21
1103.822117
 31
0.0
1001
ACAD
1000
ASC_BOUNDS
1002
{
1070
    19
1005
1E
1002
}
  0
LINE
  5
A0
  8
0
 10
2458.934774
 20
1088.372117
 30
0.0
 11
2458.934774
 21
1083.222117
 31
0.0
1001
ACAD
1000
ASC_BOUNDS
1002
{
1070
    19
1005
1E
1002
}
  0
LINE
  5
A1
  8
0
 10
2444.082335
 20
1086.143437
 30
0.0
 11
2447.003655
 21
1083.222117
 31
0.0
1001
ACAD
1000
ASC_BOUNDS
1002
{
1070
    19
1005
1E
1002
}
  0
LINE
  5
A2
  8
0
 10
2447.003655
 20
1103.822117
 30
0.0
 11
2444.082335
 21
1100.900796
 31
0.0
1001
ACAD
1000
ASC_BOUNDS
1002
{
1070
    19
1005
1E
1002
}
  0
LINE
  5
A3
  8
0
 10
2444.884774
 20
1081.103235
 30
0.0
 11
2441.963453
 21
1084.024556
 31
0.0
1001
ACAD
1000
ASC_BOUNDS
1002
{
1070
    19
1005
1E
1002
}
  0
LINE
  5
A4
  8
0
 10
2441.963453
 20
1103.019678
 30
0.0
 11
2444.884774
 21
1105.940998
 31
0.0
1001
ACAD
1000
ASC_BOUNDS
1002
{
1070
    19
1005
1E
1002
}
  0
LINE
  5
A5
  8
0
 10
2439.734774
 20
1110.372117
 30
0.0
 11
2444.884774
 21
1110.372117
 31
0.0
1001
ACAD
1000
ASC_BOUNDS
1002
{
1070
    19
1005
1E
1002
}
  0
LINE
  5
A6
  8
0
 10
2429.434774
 20
1116.022117
 30
0.0
 11
2429.434774
 21
1110.372117
 31
0.0
1001
ACAD
1000
ASC_BOUNDS
1002
{
1070
    19
1005
1E
1002
}
  0
LINE
  5
A7
  8
0
 10
2439.734774
 20
1116.022117
 30
0.0
 11
2439.734774
 21
1110.372117
 31
0.0
1001
ACAD
1000
ASC_BOUNDS
1002
{
1070
    19
1005
1E
1002
}
  0
LINE
  5
A8
  8
0
 10
2439.734774
 20
1116.022117
 30
0.0
 11
2461.884774
 21
1116.022117
 31
0.0
1001
ACAD
1000
ASC_BOUNDS
1002
{
1070
    19
1005
1E
1002
}
  0
LINE
  5
A9
  8
0
 10
2444.884774
 20
1110.372117
 30
0.0
 11
2444.884774
 21
1105.940998
 31
0.0
1001
ACAD
1000
ASC_BOUNDS
1002
{
1070
    19
1005
1E
1002
}
  0
LINE
  5
AA
  8
0
 10
2444.087212
 20
1100.900796
 30
0.0
 11
2444.087212
 21
1086.143437
 31
0.0
1001
ACAD
1000
ASC_BOUNDS
1002
{
1070
    19
1005
1E
1002
}
  0
ARC
  5
AB
  8
0
 10
2461.884774
 20
1113.322117
 30
0.0
 40
2.7
 50
0.0
 51
90.0
1001
ACAD
1000
ASC_BOUNDS
1002
{
1070
    19
1005
1E
1002
}
  0
DIMENSION
  5
BD
  8
MATEN
  2
*D0
 10
2464.584774
 20
1125.061019
 30
0.0
 11
2434.758968
 21
1125.061019
 31
0.0
 70
   128
 13
2404.584774
 23
1113.322117
 33
0.0
 14
2464.584774
 24
1113.322117
 34
0.0
1001
ACAD
1000
DSTYLE
1002
{
1070
    78
1070
     8
1070
   288
1070
     1
1070
   140
1040
4.0
1070
    74
1070
     0
1070
   172
1070
     1
1070
    73
1070
     0
1070
    77
1070
     1
1070
   147
1040
2.625
1070
    42
1040
0.625
1070
    44
1040
1.25
1070
    43
1040
3.75
1070
   271
1070
     2
1070
   141
1040
2.5
1070
   275
1070
     1
1070
    41
1040
5.0
1070
   273
1070
     8
1070
   274
1070
     4
1070
   143
1040
0.0394
1070
   171
1070
     4
1002
}
  0
DIMENSION
  5
CC
  8
MATEN
  2
*D1
 10
2439.734774
 20
1117.66336
 30
0.0
 11
2434.584774
 21
1117.66336
 31
0.0
 70
   128
 13
2429.434774
 23
1116.022117
 33
0.0
 14
2439.734774
 24
1116.022117
 34
0.0
1001
ACAD
1000
DSTYLE
1002
{
1070
    78
1070
     8
1070
   288
1070
     1
1070
   140
1040
4.0
1070
    74
1070
     0
1070
   172
1070
     1
1070
    73
1070
     0
1070
    77
1070
     1
1070
   147
1040
2.625
1070
    42
1040
0.625
1070
    44
1040
1.25
1070
    43
1040
3.75
1070
   271
1070
     2
1070
   141
1040
2.5
1070
   275
1070
     1
1070
    41
1040
5.0
1070
   273
1070
     8
1070
   274
1070
     4
1070
   143
1040
0.0394
1070
   171
1070
     4
1002
}
  0
DIMENSION
  5
F1
  8
MATEN
  2
*D2
 10
2474.427019
 20
1071.022117
 30
0.0
 11
2474.427019
 21
1094.099712
 31
0.0
 70
   128
 13
2461.884774
 23
1116.022117
 33
0.0
 14
2461.884774
 24
1071.022117
 34
0.0
 50
90.0
1001
ACAD
1000
DSTYLE
1002
{
1070
    78
1070
     8
1070
   288
1070
     1
1070
   140
1040
4.0
1070
    74
1070
     0
1070
   172
1070
     1
1070
    73
1070
     0
1070
    77
1070
     1
1070
   147
1040
2.625
1070
    42
1040
0.625
1070
    44
1040
1.25
1070
    43
1040
3.75
1070
   271
1070
     2
1070
   141
1040
2.5
1070
   275
1070
     1
1070
    41
1040
5.0
1070
   273
1070
     8
1070
   274
1070
     4
1070
   143
1040
0.0394
1070
   171
1070
     4
1002
}
  0
ENDSEC
  0
EOF
