  0
SECTION
  2
HEADER
  9
$ACADVER
  1
AC1009
  9
$INSBASE
 10
0.0
 20
0.0
 30
0.0
  9
$EXTMIN
 10
-12.787125
 20
52.000902
 30
0.0
  9
$EXTMAX
 10
563.72472
 20
205.304674
 30
0.0
  9
$LIMMIN
 10
0.0
 20
0.0
  9
$LIMMAX
 10
600.0
 20
300.0
  9
$ORTHOMODE
 70
     1
  9
$REGENMODE
 70
     1
  9
$FILLMODE
 70
     1
  9
$QTEXTMODE
 70
     0
  9
$MIRRTEXT
 70
     1
  9
$DRAGMODE
 70
     2
  9
$LTSCALE
 40
0.3
  9
$OSMODE
 70
   191
  9
$ATTMODE
 70
     1
  9
$TEXTSIZE
 40
2.5
  9
$TRACEWID
 40
1.0
  9
$TEXTSTYLE
  7
STANDARD
  9
$CLAYER
  8
MATEN
  9
$CELTYPE
  6
BYLAYER
  9
$CECOLOR
 62
   256
  9
$DIMSCALE
 40
0.0
  9
$DIMASZ
 40
2.0
  9
$DIMEXO
 40
0.625
  9
$DIMDLI
 40
3.75
  9
$DIMRND
 40
0.0
  9
$DIMDLE
 40
0.0
  9
$DIMEXE
 40
1.25
  9
$DIMTP
 40
0.0
  9
$DIMTM
 40
0.0
  9
$DIMTXT
 40
3.0
  9
$DIMCEN
 40
2.5
  9
$DIMTSZ
 40
0.0
  9
$DIMTOL
 70
     0
  9
$DIMLIM
 70
     0
  9
$DIMTIH
 70
     0
  9
$DIMTOH
 70
     0
  9
$DIMSE1
 70
     0
  9
$DIMSE2
 70
     0
  9
$DIMTAD
 70
     1
  9
$DIMZIN
 70
     8
  9
$DIMBLK
  1

  9
$DIMASO
 70
     1
  9
$DIMSHO
 70
     1
  9
$DIMPOST
  1

  9
$DIMAPOST
  1

  9
$DIMALT
 70
     0
  9
$DIMALTD
 70
     4
  9
$DIMALTF
 40
0.0394
  9
$DIMLFAC
 40
1.0
  9
$DIMTOFL
 70
     1
  9
$DIMTVP
 40
0.0
  9
$DIMTIX
 70
     0
  9
$DIMSOXD
 70
     0
  9
$DIMSAH
 70
     0
  9
$DIMBLK1
  1

  9
$DIMBLK2
  1

  9
$DIMSTYLE
  2
STANDARD
  9
$DIMCLRD
 70
     0
  9
$DIMCLRE
 70
     0
  9
$DIMCLRT
 70
     0
  9
$DIMTFAC
 40
1.0
  9
$DIMGAP
 40
1.625
  9
$LUNITS
 70
     2
  9
$LUPREC
 70
     4
  9
$SKETCHINC
 40
1.0
  9
$FILLETRAD
 40
0.1
  9
$AUNITS
 70
     0
  9
$AUPREC
 70
     0
  9
$MENU
  1
acad
  9
$ELEVATION
 40
0.0
  9
$PELEVATION
 40
0.0
  9
$THICKNESS
 40
0.0
  9
$LIMCHECK
 70
     0
  9
$BLIPMODE
 70
     0
  9
$CHAMFERA
 40
0.0
  9
$CHAMFERB
 40
0.0
  9
$SKPOLY
 70
     0
  9
$TDCREATE
 40
2451801.38001
  9
$TDUPDATE
 40
2451883.581658
  9
$TDINDWG
 40
3.226864
  9
$TDUSRTIMER
 40
3.226864
  9
$USRTIMER
 70
     1
  9
$ANGBASE
 50
0.0
  9
$ANGDIR
 70
     0
  9
$PDMODE
 70
     0
  9
$PDSIZE
 40
0.0
  9
$PLINEWID
 40
0.0
  9
$COORDS
 70
     1
  9
$SPLFRAME
 70
     0
  9
$SPLINETYPE
 70
     6
  9
$SPLINESEGS
 70
     8
  9
$ATTDIA
 70
     0
  9
$ATTREQ
 70
     1
  9
$HANDLING
 70
     1
  9
$HANDSEED
  5
38C
  9
$SURFTAB1
 70
     6
  9
$SURFTAB2
 70
     6
  9
$SURFTYPE
 70
     6
  9
$SURFU
 70
     6
  9
$SURFV
 70
     6
  9
$UCSNAME
  2

  9
$UCSORG
 10
0.0
 20
0.0
 30
0.0
  9
$UCSXDIR
 10
1.0
 20
0.0
 30
0.0
  9
$UCSYDIR
 10
0.0
 20
1.0
 30
0.0
  9
$PUCSNAME
  2

  9
$PUCSORG
 10
0.0
 20
0.0
 30
0.0
  9
$PUCSXDIR
 10
1.0
 20
0.0
 30
0.0
  9
$PUCSYDIR
 10
0.0
 20
1.0
 30
0.0
  9
$USERI1
 70
     0
  9
$USERI2
 70
     0
  9
$USERI3
 70
     0
  9
$USERI4
 70
     0
  9
$USERI5
 70
     0
  9
$USERR1
 40
0.0
  9
$USERR2
 40
0.0
  9
$USERR3
 40
0.0
  9
$USERR4
 40
0.0
  9
$USERR5
 40
0.0
  9
$WORLDVIEW
 70
     1
  9
$SHADEDGE
 70
     3
  9
$SHADEDIF
 70
    70
  9
$TILEMODE
 70
     1
  9
$MAXACTVP
 70
    48
  9
$PLIMCHECK
 70
     0
  9
$PEXTMIN
 10
1.000000E+020
 20
1.000000E+020
 30
1.000000E+020
  9
$PEXTMAX
 10
-1.000000E+020
 20
-1.000000E+020
 30
-1.000000E+020
  9
$PLIMMIN
 10
0.0
 20
0.0
  9
$PLIMMAX
 10
420.0
 20
297.0
  9
$UNITMODE
 70
     0
  9
$VISRETAIN
 70
     1
  9
$PLINEGEN
 70
     0
  9
$PSLTSCALE
 70
     1
  0
ENDSEC
  0
SECTION
  2
TABLES
  0
TABLE
  2
VPORT
 70
     2
  0
VPORT
  2
*ACTIVE
 70
     0
 10
0.0
 20
0.0
 11
1.0
 21
1.0
 12
329.33929
 22
150.0
 13
0.0
 23
0.0
 14
10.0
 24
10.0
 15
25.0
 25
25.0
 16
0.0
 26
0.0
 36
1.0
 17
0.0
 27
0.0
 37
0.0
 40
404.815842
 41
1.700368
 42
50.0
 43
0.0
 44
0.0
 50
0.0
 51
0.0
 71
     0
 72
   100
 73
     1
 74
     1
 75
     0
 76
     0
 77
     0
 78
     0
  0
ENDTAB
  0
TABLE
  2
LTYPE
 70
     2
  0
LTYPE
  2
CONTINUOUS
 70
     0
  3
Solid line
 72
    65
 73
     0
 40
0.0
  0
LTYPE
  2
ACAD_ISO02W100
 70
     0
  3
ISO dash __ __ __ __ __ __ __ __ __ __ __ __ __
 72
    65
 73
     2
 40
15.0
 49
12.0
 49
-3.0
  0
ENDTAB
  0
TABLE
  2
LAYER
 70
     3
  0
LAYER
  2
0
 70
     0
 62
     7
  6
CONTINUOUS
  0
LAYER
  2
DEFPOINTS
 70
     0
 62
     7
  6
CONTINUOUS
  0
LAYER
  2
MATEN
 70
     0
 62
     1
  6
CONTINUOUS
  0
ENDTAB
  0
TABLE
  2
STYLE
 70
     1
  0
STYLE
  2
STANDARD
 70
     0
 40
0.0
 41
1.0
 50
0.0
 71
     0
 42
2.5
  3
txt
  4

  0
ENDTAB
  0
TABLE
  2
VIEW
 70
     0
  0
ENDTAB
  0
TABLE
  2
UCS
 70
     0
  0
ENDTAB
  0
TABLE
  2
APPID
 70
     1
  0
APPID
  2
ACAD
 70
     0
  0
ENDTAB
  0
TABLE
  2
DIMSTYLE
 70
     1
  0
DIMSTYLE
  2
STANDARD
 70
     0
  3

  4

  5

  6

  7

 40
1.0
 41
0.18
 42
0.0625
 43
0.38
 44
0.18
 45
0.0
 46
0.0
 47
0.0
 48
0.0
140
0.18
141
0.09
142
0.0
143
25.4
144
1.0
145
0.0
146
1.0
147
0.09
 71
     0
 72
     0
 73
     1
 74
     1
 75
     0
 76
     0
 77
     0
 78
     0
170
     0
171
     2
172
     0
173
     0
174
     0
175
     0
176
     0
177
     0
178
     0
  0
ENDTAB
  0
ENDSEC
  0
SECTION
  2
BLOCKS
  0
BLOCK
  8
0
  2
$MODEL_SPACE
 70
     0
 10
0.0
 20
0.0
 30
0.0
  3
$MODEL_SPACE
  1

  0
ENDBLK
  5
6
  8
0
  0
BLOCK
 67
     1
  8
0
  2
$PAPER_SPACE
 70
     0
 10
0.0
 20
0.0
 30
0.0
  3
$PAPER_SPACE
  1

  0
ENDBLK
  5
9
 67
     1
  8
0
  0
BLOCK
  8
0
  2
*D0
 70
     1
 10
0.0
 20
0.0
 30
0.0
  3
*D0
  1

  0
LINE
  5
14B
  8
0
  6
BYBLOCK
 62
     0
 10
902.344145
 20
889.044708
 30
0.0
 11
902.344145
 21
863.055093
 31
0.0
  0
LINE
  5
14C
  8
0
  6
BYBLOCK
 62
     0
 10
954.844145
 20
889.044708
 30
0.0
 11
954.844145
 21
863.055093
 31
0.0
  0
LINE
  5
14D
  8
0
  6
BYBLOCK
 62
     0
 10
904.344145
 20
864.305093
 30
0.0
 11
952.844145
 21
864.305093
 31
0.0
  0
SOLID
  5
14E
  8
0
  6
BYBLOCK
 62
     0
 10
904.344145
 20
864.638427
 30
0.0
 11
904.344145
 21
863.97176
 31
0.0
 12
902.344145
 22
864.305093
 32
0.0
 13
902.344145
 23
864.305093
 33
0.0
  0
SOLID
  5
14F
  8
0
  6
BYBLOCK
 62
     0
 10
952.844145
 20
864.638427
 30
0.0
 11
952.844145
 21
863.97176
 31
0.0
 12
954.844145
 22
864.305093
 32
0.0
 13
954.844145
 23
864.305093
 33
0.0
  0
TEXT
  8
0
  40
3
  5
378
  62
0
  72
0
  71
0
 10
922.594
 20
862.120
 30
0.000000
  1
52.5
  0
POINT
  5
151
  8
DEFPOINTS
  6
BYBLOCK
 62
     0
 10
902.344145
 20
889.669708
 30
0.0
  0
POINT
  5
152
  8
DEFPOINTS
  6
BYBLOCK
 62
     0
 10
954.844145
 20
889.669708
 30
0.0
  0
POINT
  5
153
  8
DEFPOINTS
  6
BYBLOCK
 62
     0
 10
954.844145
 20
864.305093
 30
0.0
  0
ENDBLK
  5
154
  8
0
  0
BLOCK
  8
0
  2
*D1
 70
     1
 10
0.0
 20
0.0
 30
0.0
  3
*D1
  1

  0
LINE
  5
160
  8
0
  6
BYBLOCK
 62
     0
 10
999.844145
 20
889.044708
 30
0.0
 11
999.844145
 21
863.055093
 31
0.0
  0
LINE
  5
161
  8
0
  6
BYBLOCK
 62
     0
 10
956.844145
 20
864.305093
 30
0.0
 11
997.844145
 21
864.305093
 31
0.0
  0
SOLID
  5
162
  8
0
  6
BYBLOCK
 62
     0
 10
956.844145
 20
864.638427
 30
0.0
 11
956.844145
 21
863.97176
 31
0.0
 12
954.844145
 22
864.305093
 32
0.0
 13
954.844145
 23
864.305093
 33
0.0
  0
SOLID
  5
163
  8
0
  6
BYBLOCK
 62
     0
 10
997.844145
 20
864.638427
 30
0.0
 11
997.844145
 21
863.97176
 31
0.0
 12
999.844145
 22
864.305093
 32
0.0
 13
999.844145
 23
864.305093
 33
0.0
  0
TEXT
  8
0
  40
3
  5
379
  62
0
  72
0
  71
0
 10
971.344
 20
862.120
 30
0.000000
  1
45
  0
POINT
  5
165
  8
DEFPOINTS
  6
BYBLOCK
 62
     0
 10
954.844145
 20
889.669708
 30
0.0
  0
POINT
  5
166
  8
DEFPOINTS
  6
BYBLOCK
 62
     0
 10
999.844145
 20
889.669708
 30
0.0
  0
POINT
  5
167
  8
DEFPOINTS
  6
BYBLOCK
 62
     0
 10
999.844145
 20
864.305093
 30
0.0
  0
ENDBLK
  5
168
  8
0
  0
BLOCK
  8
0
  2
*D2
 70
     1
 10
0.0
 20
0.0
 30
0.0
  3
*D2
  1

  0
LINE
  5
156
  8
0
  6
BYBLOCK
 62
     0
 10
1044.844145
 20
889.044708
 30
0.0
 11
1044.844145
 21
863.055093
 31
0.0
  0
LINE
  5
157
  8
0
  6
BYBLOCK
 62
     0
 10
1001.844145
 20
864.305093
 30
0.0
 11
1042.844145
 21
864.305093
 31
0.0
  0
SOLID
  5
158
  8
0
  6
BYBLOCK
 62
     0
 10
1001.844145
 20
864.638427
 30
0.0
 11
1001.844145
 21
863.97176
 31
0.0
 12
999.844145
 22
864.305093
 32
0.0
 13
999.844145
 23
864.305093
 33
0.0
  0
SOLID
  5
159
  8
0
  6
BYBLOCK
 62
     0
 10
1042.844145
 20
864.638427
 30
0.0
 11
1042.844145
 21
863.97176
 31
0.0
 12
1044.844145
 22
864.305093
 32
0.0
 13
1044.844145
 23
864.305093
 33
0.0
  0
TEXT
  8
0
  40
3
  5
37A
  62
0
  72
0
  71
0
 10
1016.34
 20
862.120
 30
0.000000
  1
45
  0
POINT
  5
15B
  8
DEFPOINTS
  6
BYBLOCK
 62
     0
 10
999.844145
 20
889.669708
 30
0.0
  0
POINT
  5
15C
  8
DEFPOINTS
  6
BYBLOCK
 62
     0
 10
1044.844145
 20
889.669708
 30
0.0
  0
POINT
  5
15D
  8
DEFPOINTS
  6
BYBLOCK
 62
     0
 10
1044.844145
 20
864.305093
 30
0.0
  0
ENDBLK
  5
15E
  8
0
  0
BLOCK
  8
0
  2
*D3
 70
     1
 10
0.0
 20
0.0
 30
0.0
  3
*D3
  1

  0
LINE
  5
16A
  8
0
  6
BYBLOCK
 62
     0
 10
1089.844145
 20
889.028027
 30
0.0
 11
1089.844145
 21
863.055093
 31
0.0
  0
LINE
  5
16B
  8
0
  6
BYBLOCK
 62
     0
 10
1046.844145
 20
864.305093
 30
0.0
 11
1087.844145
 21
864.305093
 31
0.0
  0
SOLID
  5
16C
  8
0
  6
BYBLOCK
 62
     0
 10
1046.844145
 20
864.638427
 30
0.0
 11
1046.844145
 21
863.97176
 31
0.0
 12
1044.844145
 22
864.305093
 32
0.0
 13
1044.844145
 23
864.305093
 33
0.0
  0
SOLID
  5
16D
  8
0
  6
BYBLOCK
 62
     0
 10
1087.844145
 20
864.638427
 30
0.0
 11
1087.844145
 21
863.97176
 31
0.0
 12
1089.844145
 22
864.305093
 32
0.0
 13
1089.844145
 23
864.305093
 33
0.0
  0
TEXT
  8
0
  40
3
  5
37B
  62
0
  72
0
  71
0
 10
1061.34
 20
862.120
 30
0.000000
  1
45
  0
POINT
  5
16F
  8
DEFPOINTS
  6
BYBLOCK
 62
     0
 10
1044.844145
 20
889.669708
 30
0.0
  0
POINT
  5
170
  8
DEFPOINTS
  6
BYBLOCK
 62
     0
 10
1089.844145
 20
889.653027
 30
0.0
  0
POINT
  5
171
  8
DEFPOINTS
  6
BYBLOCK
 62
     0
 10
1089.844145
 20
864.305093
 30
0.0
  0
ENDBLK
  5
172
  8
0
  0
BLOCK
  8
0
  2
*D4
 70
     1
 10
0.0
 20
0.0
 30
0.0
  3
*D4
  1

  0
LINE
  5
12C
  8
0
  6
BYBLOCK
 62
     0
 10
1134.844145
 20
889.044708
 30
0.0
 11
1134.844145
 21
863.055093
 31
0.0
  0
LINE
  5
12D
  8
0
  6
BYBLOCK
 62
     0
 10
1091.844145
 20
864.305093
 30
0.0
 11
1132.844145
 21
864.305093
 31
0.0
  0
SOLID
  5
12E
  8
0
  6
BYBLOCK
 62
     0
 10
1091.844145
 20
864.638427
 30
0.0
 11
1091.844145
 21
863.97176
 31
0.0
 12
1089.844145
 22
864.305093
 32
0.0
 13
1089.844145
 23
864.305093
 33
0.0
  0
SOLID
  5
12F
  8
0
  6
BYBLOCK
 62
     0
 10
1132.844145
 20
864.638427
 30
0.0
 11
1132.844145
 21
863.97176
 31
0.0
 12
1134.844145
 22
864.305093
 32
0.0
 13
1134.844145
 23
864.305093
 33
0.0
  0
TEXT
  8
0
  40
3
  5
37C
  62
0
  72
0
  71
0
 10
1106.34
 20
862.120
 30
0.000000
  1
45
  0
POINT
  5
131
  8
DEFPOINTS
  6
BYBLOCK
 62
     0
 10
1089.844145
 20
889.653027
 30
0.0
  0
POINT
  5
132
  8
DEFPOINTS
  6
BYBLOCK
 62
     0
 10
1134.844145
 20
889.669708
 30
0.0
  0
POINT
  5
133
  8
DEFPOINTS
  6
BYBLOCK
 62
     0
 10
1134.844145
 20
864.305093
 30
0.0
  0
ENDBLK
  5
134
  8
0
  0
BLOCK
  8
0
  2
*D5
 70
     1
 10
0.0
 20
0.0
 30
0.0
  3
*D5
  1

  0
LINE
  5
141
  8
0
  6
BYBLOCK
 62
     0
 10
1179.844145
 20
889.028027
 30
0.0
 11
1179.844145
 21
863.055093
 31
0.0
  0
LINE
  5
142
  8
0
  6
BYBLOCK
 62
     0
 10
1136.844145
 20
864.305093
 30
0.0
 11
1177.844145
 21
864.305093
 31
0.0
  0
SOLID
  5
143
  8
0
  6
BYBLOCK
 62
     0
 10
1136.844145
 20
864.638427
 30
0.0
 11
1136.844145
 21
863.97176
 31
0.0
 12
1134.844145
 22
864.305093
 32
0.0
 13
1134.844145
 23
864.305093
 33
0.0
  0
SOLID
  5
144
  8
0
  6
BYBLOCK
 62
     0
 10
1177.844145
 20
864.638427
 30
0.0
 11
1177.844145
 21
863.97176
 31
0.0
 12
1179.844145
 22
864.305093
 32
0.0
 13
1179.844145
 23
864.305093
 33
0.0
  0
TEXT
  8
0
  40
3
  5
37D
  62
0
  72
0
  71
0
 10
1151.34
 20
862.120
 30
0.000000
  1
45
  0
POINT
  5
146
  8
DEFPOINTS
  6
BYBLOCK
 62
     0
 10
1134.844145
 20
889.669708
 30
0.0
  0
POINT
  5
147
  8
DEFPOINTS
  6
BYBLOCK
 62
     0
 10
1179.844145
 20
889.653027
 30
0.0
  0
POINT
  5
148
  8
DEFPOINTS
  6
BYBLOCK
 62
     0
 10
1179.844145
 20
864.305093
 30
0.0
  0
ENDBLK
  5
149
  8
0
  0
BLOCK
  8
0
  2
*D6
 70
     1
 10
0.0
 20
0.0
 30
0.0
  3
*D6
  1

  0
LINE
  5
17E
  8
0
  6
BYBLOCK
 62
     0
 10
1224.844145
 20
889.028027
 30
0.0
 11
1224.844145
 21
863.055093
 31
0.0
  0
LINE
  5
17F
  8
0
  6
BYBLOCK
 62
     0
 10
1181.844145
 20
864.305093
 30
0.0
 11
1222.844145
 21
864.305093
 31
0.0
  0
SOLID
  5
180
  8
0
  6
BYBLOCK
 62
     0
 10
1181.844145
 20
864.638427
 30
0.0
 11
1181.844145
 21
863.97176
 31
0.0
 12
1179.844145
 22
864.305093
 32
0.0
 13
1179.844145
 23
864.305093
 33
0.0
  0
SOLID
  5
181
  8
0
  6
BYBLOCK
 62
     0
 10
1222.844145
 20
864.638427
 30
0.0
 11
1222.844145
 21
863.97176
 31
0.0
 12
1224.844145
 22
864.305093
 32
0.0
 13
1224.844145
 23
864.305093
 33
0.0
  0
TEXT
  8
0
  40
3
  5
37E
  62
0
  72
0
  71
0
 10
1196.34
 20
862.120
 30
0.000000
  1
45
  0
POINT
  5
183
  8
DEFPOINTS
  6
BYBLOCK
 62
     0
 10
1179.844145
 20
889.653027
 30
0.0
  0
POINT
  5
184
  8
DEFPOINTS
  6
BYBLOCK
 62
     0
 10
1224.844145
 20
889.653027
 30
0.0
  0
POINT
  5
185
  8
DEFPOINTS
  6
BYBLOCK
 62
     0
 10
1224.844145
 20
864.305093
 30
0.0
  0
ENDBLK
  5
186
  8
0
  0
BLOCK
  8
0
  2
*D7
 70
     1
 10
0.0
 20
0.0
 30
0.0
  3
*D7
  1

  0
LINE
  5
188
  8
0
  6
BYBLOCK
 62
     0
 10
1269.844145
 20
889.044708
 30
0.0
 11
1269.844145
 21
863.055093
 31
0.0
  0
LINE
  5
189
  8
0
  6
BYBLOCK
 62
     0
 10
1226.844145
 20
864.305093
 30
0.0
 11
1267.844145
 21
864.305093
 31
0.0
  0
SOLID
  5
18A
  8
0
  6
BYBLOCK
 62
     0
 10
1226.844145
 20
864.638427
 30
0.0
 11
1226.844145
 21
863.97176
 31
0.0
 12
1224.844145
 22
864.305093
 32
0.0
 13
1224.844145
 23
864.305093
 33
0.0
  0
SOLID
  5
18B
  8
0
  6
BYBLOCK
 62
     0
 10
1267.844145
 20
864.638427
 30
0.0
 11
1267.844145
 21
863.97176
 31
0.0
 12
1269.844145
 22
864.305093
 32
0.0
 13
1269.844145
 23
864.305093
 33
0.0
  0
TEXT
  8
0
  40
3
  5
37F
  62
0
  72
0
  71
0
 10
1241.34
 20
862.120
 30
0.000000
  1
45
  0
POINT
  5
18D
  8
DEFPOINTS
  6
BYBLOCK
 62
     0
 10
1224.844145
 20
889.653027
 30
0.0
  0
POINT
  5
18E
  8
DEFPOINTS
  6
BYBLOCK
 62
     0
 10
1269.844145
 20
889.669708
 30
0.0
  0
POINT
  5
18F
  8
DEFPOINTS
  6
BYBLOCK
 62
     0
 10
1269.844145
 20
864.305093
 30
0.0
  0
ENDBLK
  5
190
  8
0
  0
BLOCK
  8
0
  2
*D8
 70
     1
 10
0.0
 20
0.0
 30
0.0
  3
*D8
  1

  0
LINE
  5
174
  8
0
  6
BYBLOCK
 62
     0
 10
1322.344145
 20
889.028027
 30
0.0
 11
1322.344145
 21
863.055093
 31
0.0
  0
LINE
  5
175
  8
0
  6
BYBLOCK
 62
     0
 10
1271.844145
 20
864.305093
 30
0.0
 11
1320.344145
 21
864.305093
 31
0.0
  0
SOLID
  5
176
  8
0
  6
BYBLOCK
 62
     0
 10
1271.844145
 20
864.638427
 30
0.0
 11
1271.844145
 21
863.97176
 31
0.0
 12
1269.844145
 22
864.305093
 32
0.0
 13
1269.844145
 23
864.305093
 33
0.0
  0
SOLID
  5
177
  8
0
  6
BYBLOCK
 62
     0
 10
1320.344145
 20
864.638427
 30
0.0
 11
1320.344145
 21
863.97176
 31
0.0
 12
1322.344145
 22
864.305093
 32
0.0
 13
1322.344145
 23
864.305093
 33
0.0
  0
TEXT
  8
0
  40
3
  5
380
  62
0
  72
0
  71
0
 10
1290.09
 20
862.120
 30
0.000000
  1
52.5
  0
POINT
  5
179
  8
DEFPOINTS
  6
BYBLOCK
 62
     0
 10
1269.844145
 20
889.669708
 30
0.0
  0
POINT
  5
17A
  8
DEFPOINTS
  6
BYBLOCK
 62
     0
 10
1322.344145
 20
889.653027
 30
0.0
  0
POINT
  5
17B
  8
DEFPOINTS
  6
BYBLOCK
 62
     0
 10
1322.344145
 20
864.305093
 30
0.0
  0
ENDBLK
  5
17C
  8
0
  0
BLOCK
  8
0
  2
*D9
 70
     1
 10
0.0
 20
0.0
 30
0.0
  3
*D9
  1

  0
LINE
  5
136
  8
0
  6
BYBLOCK
 62
     0
 10
877.344145
 20
913.419708
 30
0.0
 11
877.344145
 21
844.802565
 31
0.0
  0
LINE
  5
137
  8
0
  6
BYBLOCK
 62
     0
 10
1347.344145
 20
913.419708
 30
0.0
 11
1347.344145
 21
844.802565
 31
0.0
  0
LINE
  5
138
  8
0
  6
BYBLOCK
 62
     0
 10
879.344145
 20
846.052565
 30
0.0
 11
1345.344145
 21
846.052565
 31
0.0
  0
SOLID
  5
139
  8
0
  6
BYBLOCK
 62
     0
 10
879.344145
 20
846.385899
 30
0.0
 11
879.344145
 21
845.719232
 31
0.0
 12
877.344145
 22
846.052565
 32
0.0
 13
877.344145
 23
846.052565
 33
0.0
  0
SOLID
  5
13A
  8
0
  6
BYBLOCK
 62
     0
 10
1345.344145
 20
846.385899
 30
0.0
 11
1345.344145
 21
845.719232
 31
0.0
 12
1347.344145
 22
846.052565
 32
0.0
 13
1347.344145
 23
846.052565
 33
0.0
  0
TEXT
  8
0
  40
3
  5
381
  62
0
  72
0
  71
0
 10
1106.34
 20
843.868
 30
0.000000
  1
470
  0
POINT
  5
13C
  8
DEFPOINTS
  6
BYBLOCK
 62
     0
 10
877.344145
 20
914.044708
 30
0.0
  0
POINT
  5
13D
  8
DEFPOINTS
  6
BYBLOCK
 62
     0
 10
1347.344145
 20
914.044708
 30
0.0
  0
POINT
  5
13E
  8
DEFPOINTS
  6
BYBLOCK
 62
     0
 10
1347.344145
 20
846.052565
 30
0.0
  0
ENDBLK
  5
13F
  8
0
  0
BLOCK
  8
0
  2
*D10
 70
     1
 10
0.0
 20
0.0
 30
0.0
  3
*D10
  1

  0
LINE
  5
314
  8
0
  6
BYBLOCK
 62
     0
 10
1112.344145
 20
923.294708
 30
0.0
 11
1112.344145
 21
980.434684
 31
0.0
  0
LINE
  5
315
  8
0
  6
BYBLOCK
 62
     0
 10
877.344145
 20
914.669708
 30
0.0
 11
877.344145
 21
980.434684
 31
0.0
  0
LINE
  5
316
  8
0
  6
BYBLOCK
 62
     0
 10
1110.344145
 20
979.184684
 30
0.0
 11
879.344145
 21
979.184684
 31
0.0
  0
SOLID
  5
317
  8
0
  6
BYBLOCK
 62
     0
 10
1110.344145
 20
979.518017
 30
0.0
 11
1110.344145
 21
978.85135
 31
0.0
 12
1112.344145
 22
979.184684
 32
0.0
 13
1112.344145
 23
979.184684
 33
0.0
  0
SOLID
  5
318
  8
0
  6
BYBLOCK
 62
     0
 10
879.344145
 20
979.518017
 30
0.0
 11
879.344145
 21
978.85135
 31
0.0
 12
877.344145
 22
979.184684
 32
0.0
 13
877.344145
 23
979.184684
 33
0.0
  0
TEXT
  8
0
  40
3
  5
382
  62
0
  72
0
  71
0
 10
988.844
 20
977.000
 30
0.000000
  1
235
  0
POINT
  5
31A
  8
DEFPOINTS
  6
BYBLOCK
 62
     0
 10
1112.344145
 20
922.669708
 30
0.0
  0
POINT
  5
31B
  8
DEFPOINTS
  6
BYBLOCK
 62
     0
 10
877.344145
 20
914.044708
 30
0.0
  0
POINT
  5
31C
  8
DEFPOINTS
  6
BYBLOCK
 62
     0
 10
877.344145
 20
979.184684
 30
0.0
  0
ENDBLK
  5
31D
  8
0
  0
BLOCK
  8
0
  2
*D11
 70
     1
 10
0.0
 20
0.0
 30
0.0
  3
*D11
  1

  0
LINE
  5
27F
  8
0
  6
BYBLOCK
 62
     0
 10
1040.844145
 20
950.294708
 30
0.0
 11
1040.844145
 21
965.341167
 31
0.0
  0
LINE
  5
280
  8
0
  6
BYBLOCK
 62
     0
 10
1048.844145
 20
950.294708
 30
0.0
 11
1048.844145
 21
965.341167
 31
0.0
  0
LINE
  5
281
  8
0
  6
BYBLOCK
 62
     0
 10
1042.844145
 20
964.091167
 30
0.0
 11
1046.844145
 21
964.091167
 31
0.0
  0
LINE
  5
282
  8
0
  6
BYBLOCK
 62
     0
 10
1048.844145
 20
964.091167
 30
0.0
 11
1073.594145
 21
964.091167
 31
0.0
  0
SOLID
  5
283
  8
0
  6
BYBLOCK
 62
     0
 10
1042.844145
 20
964.4245
 30
0.0
 11
1042.844145
 21
963.757834
 31
0.0
 12
1040.844145
 22
964.091167
 32
0.0
 13
1040.844145
 23
964.091167
 33
0.0
  0
SOLID
  5
284
  8
0
  6
BYBLOCK
 62
     0
 10
1046.844145
 20
964.4245
 30
0.0
 11
1046.844145
 21
963.757834
 31
0.0
 12
1048.844145
 22
964.091167
 32
0.0
 13
1048.844145
 23
964.091167
 33
0.0
  0
TEXT
  8
0
  40
3
  5
383
  62
0
  72
0
  71
0
 10
1056.22
 20
961.906
 30
0.000000
  1
 M8 X30
  0
POINT
  5
286
  8
DEFPOINTS
  6
BYBLOCK
 62
     0
 10
1040.844145
 20
949.669708
 30
0.0
  0
POINT
  5
287
  8
DEFPOINTS
  6
BYBLOCK
 62
     0
 10
1048.844145
 20
949.669708
 30
0.0
  0
POINT
  5
288
  8
DEFPOINTS
  6
BYBLOCK
 62
     0
 10
1048.844145
 20
964.091167
 30
0.0
  0
ENDBLK
  5
289
  8
0
  0
BLOCK
  8
0
  2
*D12
 70
     1
 10
0.0
 20
0.0
 30
0.0
  3
*D12
  1

  0
LINE
  5
28F
  8
0
  6
BYBLOCK
 62
     0
 10
891.163434
 20
933.140982
 30
0.0
 11
880.861693
 21
918.905454
 31
0.0
  0
LINE
  5
290
  8
0
  6
BYBLOCK
 62
     0
 10
873.826597
 20
909.183961
 30
0.0
 11
872.654081
 21
907.563713
 31
0.0
  0
TEXT
  8
0
  40
3
  5
384
  62
0
  72
0
  71
0
 10
880.213
 20
926.321
 30
0.000000
  1
%%c8
  0
LINE
  5
292
  8
0
  6
BYBLOCK
 62
     0
 10
874.999113
 20
910.80421
 30
0.0
 11
879.689177
 21
917.285205
 31
0.0
  0
SOLID
  5
293
  8
0
  6
BYBLOCK
 62
     0
 10
873.556555
 20
909.379381
 30
0.0
 11
874.096638
 21
908.988542
 31
0.0
 12
874.999113
 22
910.80421
 32
0.0
 13
874.999113
 23
910.80421
 33
0.0
  0
SOLID
  5
294
  8
0
  6
BYBLOCK
 62
     0
 10
880.591651
 20
919.100874
 30
0.0
 11
881.131734
 21
918.710035
 31
0.0
 12
879.689177
 22
917.285205
 32
0.0
 13
879.689177
 23
917.285205
 33
0.0
  0
POINT
  5
295
  8
DEFPOINTS
  6
BYBLOCK
 62
     0
 10
879.689177
 20
917.285205
 30
0.0
  0
POINT
  5
296
  8
DEFPOINTS
  6
BYBLOCK
 62
     0
 10
874.999113
 20
910.80421
 30
0.0
  0
ENDBLK
  5
297
  8
0
  0
BLOCK
  8
0
  2
*D13
 70
     1
 10
0.0
 20
0.0
 30
0.0
  3
*D13
  1

  0
LINE
  5
29B
  8
0
  6
BYBLOCK
 62
     0
 10
1101.087084
 20
901.973204
 30
0.0
 11
1108.760593
 21
916.081221
 31
0.0
  0
LINE
  5
29C
  8
0
  6
BYBLOCK
 62
     0
 10
1115.927697
 20
929.258194
 30
0.0
 11
1116.883311
 21
931.015124
 31
0.0
  0
TEXT
  8
0
  40
3
  5
385
  62
0
  72
0
  71
0
 10
1094.55
 20
902.219
 30
0.000000
  1
%%c11
  0
LINE
  5
29E
  8
0
  6
BYBLOCK
 62
     0
 10
1114.972083
 20
927.501265
 30
0.0
 11
1109.716207
 21
917.838151
 31
0.0
  0
SOLID
  5
29F
  8
0
  6
BYBLOCK
 62
     0
 10
1115.634875
 20
929.417463
 30
0.0
 11
1116.220518
 21
929.098925
 31
0.0
 12
1114.972083
 22
927.501265
 32
0.0
 13
1114.972083
 23
927.501265
 33
0.0
  0
SOLID
  5
2A0
  8
0
  6
BYBLOCK
 62
     0
 10
1108.467771
 20
916.24049
 30
0.0
 11
1109.053415
 21
915.921952
 31
0.0
 12
1109.716207
 22
917.838151
 32
0.0
 13
1109.716207
 23
917.838151
 33
0.0
  0
POINT
  5
2A1
  8
DEFPOINTS
  6
BYBLOCK
 62
     0
 10
1109.716207
 20
917.838151
 30
0.0
  0
POINT
  5
2A2
  8
DEFPOINTS
  6
BYBLOCK
 62
     0
 10
1114.972083
 20
927.501265
 30
0.0
  0
ENDBLK
  5
2A3
  8
0
  0
BLOCK
  8
0
  2
*D14
 70
     1
 10
0.0
 20
0.0
 30
0.0
  3
*D14
  1

  0
LINE
  5
2CC
  8
0
  6
BYBLOCK
 62
     0
 10
1347.969145
 20
914.044708
 30
0.0
 11
1385.082321
 21
914.044708
 31
0.0
  0
LINE
  5
2CD
  8
0
  6
BYBLOCK
 62
     0
 10
1362.969145
 20
879.669708
 30
0.0
 11
1385.082321
 21
879.669708
 31
0.0
  0
LINE
  5
2CE
  8
0
  6
BYBLOCK
 62
     0
 10
1383.832321
 20
912.044708
 30
0.0
 11
1383.832321
 21
881.669708
 31
0.0
  0
SOLID
  5
2CF
  8
0
  6
BYBLOCK
 62
     0
 10
1383.498987
 20
912.044708
 30
0.0
 11
1384.165654
 21
912.044708
 31
0.0
 12
1383.832321
 22
914.044708
 32
0.0
 13
1383.832321
 23
914.044708
 33
0.0
  0
SOLID
  5
2D0
  8
0
  6
BYBLOCK
 62
     0
 10
1383.498987
 20
881.669708
 30
0.0
 11
1384.165654
 21
881.669708
 31
0.0
 12
1383.832321
 22
879.669708
 32
0.0
 13
1383.832321
 23
879.669708
 33
0.0
  0
TEXT
  8
0
  40
3
  5
386
  62
0
  72
0
  71
0
 10
1374.71
 20
891.547
 30
0.000000
  1
34.38
  0
POINT
  5
2D2
  8
DEFPOINTS
  6
BYBLOCK
 62
     0
 10
1347.344145
 20
914.044708
 30
0.0
  0
POINT
  5
2D3
  8
DEFPOINTS
  6
BYBLOCK
 62
     0
 10
1362.344145
 20
879.669708
 30
0.0
  0
POINT
  5
2D4
  8
DEFPOINTS
  6
BYBLOCK
 62
     0
 10
1383.832321
 20
879.669708
 30
0.0
  0
ENDBLK
  5
2D5
  8
0
  0
BLOCK
  8
0
  2
*D15
 70
     1
 10
0.0
 20
0.0
 30
0.0
  3
*D15
  1

  0
LINE
  5
2E4
  8
0
  6
BYBLOCK
 62
     0
 10
1112.969145
 20
922.669708
 30
0.0
 11
1127.154931
 21
922.669708
 31
0.0
  0
LINE
  5
2E5
  8
0
  6
BYBLOCK
 62
     0
 10
1112.969145
 20
879.669708
 30
0.0
 11
1127.154931
 21
879.669708
 31
0.0
  0
LINE
  5
2E6
  8
0
  6
BYBLOCK
 62
     0
 10
1125.904931
 20
920.669708
 30
0.0
 11
1125.904931
 21
881.669708
 31
0.0
  0
SOLID
  5
2E7
  8
0
  6
BYBLOCK
 62
     0
 10
1125.571598
 20
920.669708
 30
0.0
 11
1126.238264
 21
920.669708
 31
0.0
 12
1125.904931
 22
922.669708
 32
0.0
 13
1125.904931
 23
922.669708
 33
0.0
  0
SOLID
  5
2E8
  8
0
  6
BYBLOCK
 62
     0
 10
1125.571598
 20
881.669708
 30
0.0
 11
1126.238264
 21
881.669708
 31
0.0
 12
1125.904931
 22
879.669708
 32
0.0
 13
1125.904931
 23
879.669708
 33
0.0
  0
TEXT
  8
0
  40
3
  5
387
  62
0
  72
0
  71
0
 10
1116.78
 20
895.860
 30
0.000000
  1
43
  0
POINT
  5
2EA
  8
DEFPOINTS
  6
BYBLOCK
 62
     0
 10
1112.344145
 20
922.669708
 30
0.0
  0
POINT
  5
2EB
  8
DEFPOINTS
  6
BYBLOCK
 62
     0
 10
1112.344145
 20
879.669708
 30
0.0
  0
POINT
  5
2EC
  8
DEFPOINTS
  6
BYBLOCK
 62
     0
 10
1125.904931
 20
879.669708
 30
0.0
  0
ENDBLK
  5
2ED
  8
0
  0
BLOCK
  8
0
  2
*D16
 70
     1
 10
0.0
 20
0.0
 30
0.0
  3
*D16
  1

  0
LINE
  5
31F
  8
0
  6
BYBLOCK
 62
     0
 10
862.344145
 20
950.294708
 30
0.0
 11
862.344145
 21
994.731337
 31
0.0
  0
LINE
  5
320
  8
0
  6
BYBLOCK
 62
     0
 10
1362.344145
 20
950.294708
 30
0.0
 11
1362.344145
 21
994.731337
 31
0.0
  0
LINE
  5
321
  8
0
  6
BYBLOCK
 62
     0
 10
864.344145
 20
993.481337
 30
0.0
 11
1360.344145
 21
993.481337
 31
0.0
  0
SOLID
  5
322
  8
0
  6
BYBLOCK
 62
     0
 10
864.344145
 20
993.81467
 30
0.0
 11
864.344145
 21
993.148003
 31
0.0
 12
862.344145
 22
993.481337
 32
0.0
 13
862.344145
 23
993.481337
 33
0.0
  0
SOLID
  5
323
  8
0
  6
BYBLOCK
 62
     0
 10
1360.344145
 20
993.81467
 30
0.0
 11
1360.344145
 21
993.148003
 31
0.0
 12
1362.344145
 22
993.481337
 32
0.0
 13
1362.344145
 23
993.481337
 33
0.0
  0
TEXT
  8
0
  40
3
  5
388
  62
0
  72
0
  71
0
 10
1106.34
 20
991.296
 30
0.000000
  1
500
  0
POINT
  5
325
  8
DEFPOINTS
  6
BYBLOCK
 62
     0
 10
862.344145
 20
949.669708
 30
0.0
  0
POINT
  5
326
  8
DEFPOINTS
  6
BYBLOCK
 62
     0
 10
1362.344145
 20
949.669708
 30
0.0
  0
POINT
  5
327
  8
DEFPOINTS
  6
BYBLOCK
 62
     0
 10
1362.344145
 20
993.481337
 30
0.0
  0
ENDBLK
  5
328
  8
0
  0
BLOCK
  8
0
  2
*D17
 70
     1
 10
0.0
 20
0.0
 30
0.0
  3
*D17
  1

  0
LINE
  5
308
  8
0
  6
BYBLOCK
 62
     0
 10
861.719145
 20
949.669708
 30
0.0
 11
846.206092
 21
949.669708
 31
0.0
  0
LINE
  5
309
  8
0
  6
BYBLOCK
 62
     0
 10
861.719145
 20
879.669708
 30
0.0
 11
846.206092
 21
879.669708
 31
0.0
  0
LINE
  5
30A
  8
0
  6
BYBLOCK
 62
     0
 10
847.456092
 20
947.669708
 30
0.0
 11
847.456092
 21
881.669708
 31
0.0
  0
SOLID
  5
30B
  8
0
  6
BYBLOCK
 62
     0
 10
847.122758
 20
947.669708
 30
0.0
 11
847.789425
 21
947.669708
 31
0.0
 12
847.456092
 22
949.669708
 32
0.0
 13
847.456092
 23
949.669708
 33
0.0
  0
SOLID
  5
30C
  8
0
  6
BYBLOCK
 62
     0
 10
847.122758
 20
881.669708
 30
0.0
 11
847.789425
 21
881.669708
 31
0.0
 12
847.456092
 22
879.669708
 32
0.0
 13
847.456092
 23
879.669708
 33
0.0
  0
TEXT
  8
0
  40
3
  5
389
  62
0
  72
0
  71
0
 10
838.331
 20
909.360
 30
0.000000
  1
70
  0
POINT
  5
30E
  8
DEFPOINTS
  6
BYBLOCK
 62
     0
 10
862.344145
 20
949.669708
 30
0.0
  0
POINT
  5
30F
  8
DEFPOINTS
  6
BYBLOCK
 62
     0
 10
862.344145
 20
879.669708
 30
0.0
  0
POINT
  5
310
  8
DEFPOINTS
  6
BYBLOCK
 62
     0
 10
847.456092
 20
879.669708
 30
0.0
  0
ENDBLK
  5
311
  8
0
  0
BLOCK
  8
0
  2
*D18
 70
     1
 10
0.0
 20
0.0
 30
0.0
  3
*D18
  1

  0
LINE
  5
32B
  8
0
  6
BYBLOCK
 62
     0
 10
1399.342936
 20
950.294708
 30
0.0
 11
1399.342936
 21
959.50325
 31
0.0
  0
LINE
  5
32C
  8
0
  6
BYBLOCK
 62
     0
 10
1419.342936
 20
950.294708
 30
0.0
 11
1419.342936
 21
959.50325
 31
0.0
  0
LINE
  5
32D
  8
0
  6
BYBLOCK
 62
     0
 10
1401.342936
 20
958.25325
 30
0.0
 11
1417.342936
 21
958.25325
 31
0.0
  0
SOLID
  5
32E
  8
0
  6
BYBLOCK
 62
     0
 10
1401.342936
 20
958.586584
 30
0.0
 11
1401.342936
 21
957.919917
 31
0.0
 12
1399.342936
 22
958.25325
 32
0.0
 13
1399.342936
 23
958.25325
 33
0.0
  0
SOLID
  5
32F
  8
0
  6
BYBLOCK
 62
     0
 10
1417.342936
 20
958.586584
 30
0.0
 11
1417.342936
 21
957.919917
 31
0.0
 12
1419.342936
 22
958.25325
 32
0.0
 13
1419.342936
 23
958.25325
 33
0.0
  0
TEXT
  8
0
  40
3
  5
38A
  62
0
  72
0
  71
0
 10
1403.34
 20
956.068
 30
0.000000
  1
20
  0
POINT
  5
331
  8
DEFPOINTS
  6
BYBLOCK
 62
     0
 10
1399.342936
 20
949.669708
 30
0.0
  0
POINT
  5
332
  8
DEFPOINTS
  6
BYBLOCK
 62
     0
 10
1419.342936
 20
949.669708
 30
0.0
  0
POINT
  5
333
  8
DEFPOINTS
  6
BYBLOCK
 62
     0
 10
1419.342936
 20
958.25325
 30
0.0
  0
ENDBLK
  5
334
  8
0
  0
BLOCK
  8
0
  2
*D19
 70
     1
 10
0.0
 20
0.0
 30
0.0
  3
*D19
  1

  0
LINE
  5
360
  8
0
  6
BYBLOCK
 62
     0
 10
1329.864026
 20
879.044708
 30
0.0
 11
1329.864026
 21
867.818688
 31
0.0
  0
LINE
  5
361
  8
0
  6
BYBLOCK
 62
     0
 10
1339.864026
 20
879.044708
 30
0.0
 11
1339.864026
 21
867.818688
 31
0.0
  0
LINE
  5
362
  8
0
  6
BYBLOCK
 62
     0
 10
1331.864026
 20
869.068688
 30
0.0
 11
1337.864026
 21
869.068688
 31
0.0
  0
LINE
  5
363
  8
0
  6
BYBLOCK
 62
     0
 10
1339.864026
 20
869.068688
 30
0.0
 11
1366.614026
 21
869.068688
 31
0.0
  0
SOLID
  5
364
  8
0
  6
BYBLOCK
 62
     0
 10
1331.864026
 20
869.402021
 30
0.0
 11
1331.864026
 21
868.735354
 31
0.0
 12
1329.864026
 22
869.068688
 32
0.0
 13
1329.864026
 23
869.068688
 33
0.0
  0
SOLID
  5
365
  8
0
  6
BYBLOCK
 62
     0
 10
1337.864026
 20
869.402021
 30
0.0
 11
1337.864026
 21
868.735354
 31
0.0
 12
1339.864026
 22
869.068688
 32
0.0
 13
1339.864026
 23
869.068688
 33
0.0
  0
TEXT
  8
0
  40
3
  5
38B
  62
0
  72
0
  71
0
 10
1348.24
 20
866.884
 30
0.000000
  1
M10 X 35
  0
POINT
  5
367
  8
DEFPOINTS
  6
BYBLOCK
 62
     0
 10
1329.864026
 20
879.669708
 30
0.0
  0
POINT
  5
368
  8
DEFPOINTS
  6
BYBLOCK
 62
     0
 10
1339.864026
 20
879.669708
 30
0.0
  0
POINT
  5
369
  8
DEFPOINTS
  6
BYBLOCK
 62
     0
 10
1339.864026
 20
869.068688
 30
0.0
  0
ENDBLK
  5
36A
  8
0
  0
ENDSEC
  0
SECTION
  2
ENTITIES
  0
LINE
  5
1D
  8
0
 10
6.725928
 20
156.868045
 30
0.0
 11
506.725928
 21
156.868045
 31
0.0
  0
LINE
  5
1E
  8
0
 10
506.725928
 20
86.868045
 30
0.0
 11
6.725928
 21
86.868045
 31
0.0
  0
LINE
  5
21
  8
0
 10
6.725928
 20
86.868045
 30
0.0
 11
6.725928
 21
156.868045
 31
0.0
  0
LINE
  5
22
  8
0
  6
ACAD_ISO02W100
 10
50.725928
 20
156.868045
 30
0.0
 11
50.725928
 21
124.243045
 31
0.0
  0
LINE
  5
23
  8
0
  6
ACAD_ISO02W100
 10
42.725928
 20
156.868045
 30
0.0
 11
42.725928
 21
124.243045
 31
0.0
  0
LINE
  5
4F
  8
0
 10
506.725928
 20
86.868045
 30
0.0
 11
506.725928
 21
156.868045
 31
0.0
  0
DIMENSION
  5
67
  8
MATEN
  2
*D0
 10
99.225928
 20
71.503431
 30
0.0
 11
72.975928
 21
74.628431
 31
0.0
 12
-855.618217
 22
-792.801663
 32
0.0
 70
     0
 13
46.725928
 23
96.868045
 33
0.0
 14
99.225928
 24
96.868045
 34
0.0
1001
ACAD
1000
DSTYLE
1002
{
1070
    78
1070
     8
1070
   140
1040
3.0
1070
    74
1070
     0
1070
   172
1070
     1
1070
    73
1070
     0
1070
    77
1070
     1
1070
   147
1040
1.625
1070
    42
1040
0.625
1070
    44
1040
1.25
1070
    43
1040
3.75
1070
   271
1070
     2
1070
   141
1040
2.5
1070
   275
1070
     1
1070
    41
1040
2.0
1070
   273
1070
     8
1070
   274
1070
     4
1070
   143
1040
0.0394
1070
   171
1070
     4
1002
}
  0
DIMENSION
  5
73
  8
MATEN
  2
*D1
 10
144.225928
 20
71.503431
 30
0.0
 11
121.725928
 21
74.628431
 31
0.0
 12
-855.618217
 22
-792.801663
 32
0.0
 70
     0
 13
99.225928
 23
96.868045
 33
0.0
 14
144.225928
 24
96.868045
 34
0.0
1001
ACAD
1000
DSTYLE
1002
{
1070
    78
1070
     8
1070
   140
1040
3.0
1070
    74
1070
     0
1070
   172
1070
     1
1070
    73
1070
     0
1070
    77
1070
     1
1070
    75
1070
     1
1070
   147
1040
1.625
1070
   287
1070
     4
1070
    42
1040
0.625
1070
    44
1040
1.25
1070
    43
1040
3.75
1070
   271
1070
     2
1070
   141
1040
2.5
1070
   275
1070
     1
1070
    41
1040
2.0
1070
   273
1070
     8
1070
   274
1070
     4
1070
   143
1040
0.0394
1070
   171
1070
     4
1002
}
  0
DIMENSION
  5
8C
  8
MATEN
  2
*D2
 10
189.225928
 20
71.503431
 30
0.0
 11
166.725928
 21
74.628431
 31
0.0
 12
-855.618217
 22
-792.801663
 32
0.0
 70
     0
 13
144.225928
 23
96.868045
 33
0.0
 14
189.225928
 24
96.868045
 34
0.0
1001
ACAD
1000
DSTYLE
1002
{
1070
    78
1070
     8
1070
   140
1040
3.0
1070
    74
1070
     0
1070
   172
1070
     1
1070
    73
1070
     0
1070
    77
1070
     1
1070
    75
1070
     1
1070
   147
1040
1.625
1070
   287
1070
     4
1070
    42
1040
0.625
1070
    44
1040
1.25
1070
    43
1040
3.75
1070
   271
1070
     2
1070
   141
1040
2.5
1070
   275
1070
     1
1070
    41
1040
2.0
1070
   273
1070
     8
1070
   274
1070
     4
1070
   143
1040
0.0394
1070
   171
1070
     4
1002
}
  0
DIMENSION
  5
98
  8
MATEN
  2
*D3
 10
234.225928
 20
71.503431
 30
0.0
 11
211.725928
 21
74.628431
 31
0.0
 12
-855.618217
 22
-792.801663
 32
0.0
 70
     0
 13
189.225928
 23
96.868045
 33
0.0
 14
234.225928
 24
96.851365
 34
0.0
1001
ACAD
1000
DSTYLE
1002
{
1070
    78
1070
     8
1070
   140
1040
3.0
1070
    74
1070
     0
1070
   172
1070
     1
1070
    73
1070
     0
1070
    77
1070
     1
1070
    75
1070
     1
1070
   147
1040
1.625
1070
   287
1070
     4
1070
    42
1040
0.625
1070
    44
1040
1.25
1070
    43
1040
3.75
1070
   271
1070
     2
1070
   141
1040
2.5
1070
   275
1070
     1
1070
    41
1040
2.0
1070
   273
1070
     8
1070
   274
1070
     4
1070
   143
1040
0.0394
1070
   171
1070
     4
1002
}
  0
DIMENSION
  5
A4
  8
MATEN
  2
*D4
 10
279.225928
 20
71.503431
 30
0.0
 11
256.725928
 21
74.628431
 31
0.0
 12
-855.618217
 22
-792.801663
 32
0.0
 70
     0
 13
234.225928
 23
96.851365
 33
0.0
 14
279.225928
 24
96.868045
 34
0.0
1001
ACAD
1000
DSTYLE
1002
{
1070
    78
1070
     8
1070
   140
1040
3.0
1070
    74
1070
     0
1070
   172
1070
     1
1070
    73
1070
     0
1070
    77
1070
     1
1070
    75
1070
     1
1070
   147
1040
1.625
1070
   287
1070
     4
1070
    42
1040
0.625
1070
    44
1040
1.25
1070
    43
1040
3.75
1070
   271
1070
     2
1070
   141
1040
2.5
1070
   275
1070
     1
1070
    41
1040
2.0
1070
   273
1070
     8
1070
   274
1070
     4
1070
   143
1040
0.0394
1070
   171
1070
     4
1002
}
  0
DIMENSION
  5
B0
  8
MATEN
  2
*D5
 10
324.225928
 20
71.503431
 30
0.0
 11
301.725928
 21
74.628431
 31
0.0
 12
-855.618217
 22
-792.801663
 32
0.0
 70
     0
 13
279.225928
 23
96.868045
 33
0.0
 14
324.225928
 24
96.851365
 34
0.0
1001
ACAD
1000
DSTYLE
1002
{
1070
    78
1070
     8
1070
   140
1040
3.0
1070
    74
1070
     0
1070
   172
1070
     1
1070
    73
1070
     0
1070
    77
1070
     1
1070
    75
1070
     1
1070
   147
1040
1.625
1070
   287
1070
     4
1070
    42
1040
0.625
1070
    44
1040
1.25
1070
    43
1040
3.75
1070
   271
1070
     2
1070
   141
1040
2.5
1070
   275
1070
     1
1070
    41
1040
2.0
1070
   273
1070
     8
1070
   274
1070
     4
1070
   143
1040
0.0394
1070
   171
1070
     4
1002
}
  0
DIMENSION
  5
BC
  8
MATEN
  2
*D6
 10
369.225928
 20
71.503431
 30
0.0
 11
346.725928
 21
74.628431
 31
0.0
 12
-855.618217
 22
-792.801663
 32
0.0
 70
     0
 13
324.225928
 23
96.851365
 33
0.0
 14
369.225928
 24
96.851365
 34
0.0
1001
ACAD
1000
DSTYLE
1002
{
1070
    78
1070
     8
1070
   140
1040
3.0
1070
    74
1070
     0
1070
   172
1070
     1
1070
    73
1070
     0
1070
    77
1070
     1
1070
    75
1070
     1
1070
   147
1040
1.625
1070
   287
1070
     4
1070
    42
1040
0.625
1070
    44
1040
1.25
1070
    43
1040
3.75
1070
   271
1070
     2
1070
   141
1040
2.5
1070
   275
1070
     1
1070
    41
1040
2.0
1070
   273
1070
     8
1070
   274
1070
     4
1070
   143
1040
0.0394
1070
   171
1070
     4
1002
}
  0
DIMENSION
  5
C8
  8
MATEN
  2
*D7
 10
414.225928
 20
71.503431
 30
0.0
 11
391.725928
 21
74.628431
 31
0.0
 12
-855.618217
 22
-792.801663
 32
0.0
 70
     0
 13
369.225928
 23
96.851365
 33
0.0
 14
414.225928
 24
96.868045
 34
0.0
1001
ACAD
1000
DSTYLE
1002
{
1070
    78
1070
     8
1070
   140
1040
3.0
1070
    74
1070
     0
1070
   172
1070
     1
1070
    73
1070
     0
1070
    77
1070
     1
1070
    75
1070
     1
1070
   147
1040
1.625
1070
   287
1070
     4
1070
    42
1040
0.625
1070
    44
1040
1.25
1070
    43
1040
3.75
1070
   271
1070
     2
1070
   141
1040
2.5
1070
   275
1070
     1
1070
    41
1040
2.0
1070
   273
1070
     8
1070
   274
1070
     4
1070
   143
1040
0.0394
1070
   171
1070
     4
1002
}
  0
DIMENSION
  5
D4
  8
MATEN
  2
*D8
 10
466.725928
 20
71.503431
 30
0.0
 11
440.475928
 21
74.628431
 31
0.0
 12
-855.618217
 22
-792.801663
 32
0.0
 70
     0
 13
414.225928
 23
96.868045
 33
0.0
 14
466.725928
 24
96.851365
 34
0.0
1001
ACAD
1000
DSTYLE
1002
{
1070
    78
1070
     8
1070
   140
1040
3.0
1070
    74
1070
     0
1070
   172
1070
     1
1070
    73
1070
     0
1070
    77
1070
     1
1070
    75
1070
     1
1070
   147
1040
1.625
1070
   287
1070
     4
1070
    42
1040
0.625
1070
    44
1040
1.25
1070
    43
1040
3.75
1070
   271
1070
     2
1070
   141
1040
2.5
1070
   275
1070
     1
1070
    41
1040
2.0
1070
   273
1070
     8
1070
   274
1070
     4
1070
   143
1040
0.0394
1070
   171
1070
     4
1002
}
  0
DIMENSION
  5
F9
  8
MATEN
  2
*D9
 10
491.725928
 20
53.250902
 30
0.0
 11
256.725928
 21
56.375902
 31
0.0
 12
-855.618217
 22
-792.801663
 32
0.0
 70
     0
 13
21.725928
 23
121.243045
 33
0.0
 14
491.725928
 24
121.243045
 34
0.0
1001
ACAD
1000
DSTYLE
1002
{
1070
    78
1070
     8
1070
   140
1040
3.0
1070
    74
1070
     0
1070
   172
1070
     1
1070
    73
1070
     0
1070
    77
1070
     1
1070
   147
1040
1.625
1070
    42
1040
0.625
1070
    44
1040
1.25
1070
    43
1040
3.75
1070
   271
1070
     2
1070
   141
1040
2.5
1070
   275
1070
     1
1070
    41
1040
2.0
1070
   273
1070
     8
1070
   274
1070
     4
1070
   143
1040
0.0394
1070
   171
1070
     4
1002
}
  0
DIMENSION
  5
113
  8
MATEN
  2
*D10
 10
21.725928
 20
186.383021
 30
0.0
 11
139.225928
 21
186.383021
 31
0.0
 12
-855.618217
 22
-792.801663
 32
0.0
 70
   128
 13
256.725928
 23
129.868045
 33
0.0
 14
21.725928
 24
121.243045
 34
0.0
1001
ACAD
1000
DSTYLE
1002
{
1070
    78
1070
     8
1070
   140
1040
3.0
1070
    74
1070
     0
1070
   172
1070
     1
1070
    73
1070
     0
1070
    77
1070
     1
1070
   147
1040
1.625
1070
    42
1040
0.625
1070
    44
1040
1.25
1070
    43
1040
3.75
1070
   271
1070
     2
1070
   141
1040
2.5
1070
   275
1070
     1
1070
    41
1040
2.0
1070
   273
1070
     8
1070
   274
1070
     4
1070
   143
1040
0.0394
1070
   171
1070
     4
1002
}
  0
LINE
  5
1D4
  8
0
  6
ACAD_ISO02W100
 10
49.525928
 20
155.668045
 30
0.0
 11
49.525928
 21
123.343045
 31
0.0
  0
LINE
  5
1D5
  8
0
  6
ACAD_ISO02W100
 10
43.925928
 20
155.668045
 30
0.0
 11
43.925928
 21
123.343045
 31
0.0
  0
LINE
  5
1D8
  8
0
  6
ACAD_ISO02W100
 10
42.725928
 20
124.243045
 30
0.0
 11
50.725928
 21
124.243045
 31
0.0
  0
LINE
  5
1D9
  8
0
  6
ACAD_ISO02W100
 10
46.725928
 20
121.243045
 30
0.0
 11
50.725928
 21
124.243045
 31
0.0
  0
LINE
  5
1DA
  8
0
  6
ACAD_ISO02W100
 10
46.725928
 20
121.243045
 30
0.0
 11
42.725928
 21
124.243045
 31
0.0
  0
LINE
  5
1DF
  8
0
  6
ACAD_ISO02W100
 10
49.525928
 20
155.668045
 30
0.0
 11
50.725928
 21
156.868045
 31
0.0
  0
LINE
  5
1E0
  8
0
  6
ACAD_ISO02W100
 10
43.925928
 20
155.668045
 30
0.0
 11
42.725928
 21
156.868045
 31
0.0
  0
LINE
  5
1E2
  8
0
  6
ACAD_ISO02W100
 10
43.925928
 20
155.668045
 30
0.0
 11
49.525928
 21
155.668045
 31
0.0
  0
LINE
  5
1E3
  8
0
  6
ACAD_ISO02W100
 10
96.425928
 20
155.668045
 30
0.0
 11
96.425928
 21
123.343045
 31
0.0
  0
LINE
  5
1E4
  8
0
  6
ACAD_ISO02W100
 10
102.025928
 20
155.668045
 30
0.0
 11
102.025928
 21
123.343045
 31
0.0
  0
LINE
  5
1E5
  8
0
  6
ACAD_ISO02W100
 10
96.425928
 20
155.668045
 30
0.0
 11
102.025928
 21
155.668045
 31
0.0
  0
LINE
  5
1E6
  8
0
  6
ACAD_ISO02W100
 10
96.425928
 20
155.668045
 30
0.0
 11
95.225928
 21
156.868045
 31
0.0
  0
LINE
  5
1E7
  8
0
  6
ACAD_ISO02W100
 10
102.025928
 20
155.668045
 30
0.0
 11
103.225928
 21
156.868045
 31
0.0
  0
LINE
  5
1E8
  8
0
  6
ACAD_ISO02W100
 10
103.225928
 20
156.868045
 30
0.0
 11
103.225928
 21
124.243045
 31
0.0
  0
LINE
  5
1E9
  8
0
  6
ACAD_ISO02W100
 10
95.225928
 20
156.868045
 30
0.0
 11
95.225928
 21
124.243045
 31
0.0
  0
LINE
  5
1EA
  8
0
  6
ACAD_ISO02W100
 10
95.225928
 20
124.243045
 30
0.0
 11
103.225928
 21
124.243045
 31
0.0
  0
LINE
  5
1EB
  8
0
  6
ACAD_ISO02W100
 10
99.225928
 20
121.243045
 30
0.0
 11
95.225928
 21
124.243045
 31
0.0
  0
LINE
  5
1EC
  8
0
  6
ACAD_ISO02W100
 10
99.225928
 20
121.243045
 30
0.0
 11
103.225928
 21
124.243045
 31
0.0
  0
LINE
  5
1ED
  8
0
  6
ACAD_ISO02W100
 10
141.425928
 20
155.668045
 30
0.0
 11
141.425928
 21
123.343045
 31
0.0
  0
LINE
  5
1EE
  8
0
  6
ACAD_ISO02W100
 10
147.025928
 20
155.668045
 30
0.0
 11
147.025928
 21
123.343045
 31
0.0
  0
LINE
  5
1EF
  8
0
  6
ACAD_ISO02W100
 10
141.425928
 20
155.668045
 30
0.0
 11
147.025928
 21
155.668045
 31
0.0
  0
LINE
  5
1F0
  8
0
  6
ACAD_ISO02W100
 10
141.425928
 20
155.668045
 30
0.0
 11
140.225928
 21
156.868045
 31
0.0
  0
LINE
  5
1F1
  8
0
  6
ACAD_ISO02W100
 10
147.025928
 20
155.668045
 30
0.0
 11
148.225928
 21
156.868045
 31
0.0
  0
LINE
  5
1F2
  8
0
  6
ACAD_ISO02W100
 10
148.225928
 20
156.868045
 30
0.0
 11
148.225928
 21
124.243045
 31
0.0
  0
LINE
  5
1F3
  8
0
  6
ACAD_ISO02W100
 10
140.225928
 20
156.868045
 30
0.0
 11
140.225928
 21
124.243045
 31
0.0
  0
LINE
  5
1F4
  8
0
  6
ACAD_ISO02W100
 10
140.225928
 20
124.243045
 30
0.0
 11
148.225928
 21
124.243045
 31
0.0
  0
LINE
  5
1F5
  8
0
  6
ACAD_ISO02W100
 10
144.225928
 20
121.243045
 30
0.0
 11
140.225928
 21
124.243045
 31
0.0
  0
LINE
  5
1F6
  8
0
  6
ACAD_ISO02W100
 10
144.225928
 20
121.243045
 30
0.0
 11
148.225928
 21
124.243045
 31
0.0
  0
LINE
  5
1F7
  8
0
  6
ACAD_ISO02W100
 10
186.425928
 20
155.668045
 30
0.0
 11
186.425928
 21
123.343045
 31
0.0
  0
LINE
  5
1F8
  8
0
  6
ACAD_ISO02W100
 10
192.025928
 20
155.668045
 30
0.0
 11
192.025928
 21
123.343045
 31
0.0
  0
LINE
  5
1F9
  8
0
  6
ACAD_ISO02W100
 10
186.425928
 20
155.668045
 30
0.0
 11
192.025928
 21
155.668045
 31
0.0
  0
LINE
  5
1FA
  8
0
  6
ACAD_ISO02W100
 10
186.425928
 20
155.668045
 30
0.0
 11
185.225928
 21
156.868045
 31
0.0
  0
LINE
  5
1FB
  8
0
  6
ACAD_ISO02W100
 10
192.025928
 20
155.668045
 30
0.0
 11
193.225928
 21
156.868045
 31
0.0
  0
LINE
  5
1FC
  8
0
  6
ACAD_ISO02W100
 10
193.225928
 20
156.868045
 30
0.0
 11
193.225928
 21
124.243045
 31
0.0
  0
LINE
  5
1FD
  8
0
  6
ACAD_ISO02W100
 10
185.225928
 20
156.868045
 30
0.0
 11
185.225928
 21
124.243045
 31
0.0
  0
LINE
  5
1FE
  8
0
  6
ACAD_ISO02W100
 10
185.225928
 20
124.243045
 30
0.0
 11
193.225928
 21
124.243045
 31
0.0
  0
LINE
  5
1FF
  8
0
  6
ACAD_ISO02W100
 10
189.225928
 20
121.243045
 30
0.0
 11
185.225928
 21
124.243045
 31
0.0
  0
LINE
  5
200
  8
0
  6
ACAD_ISO02W100
 10
189.225928
 20
121.243045
 30
0.0
 11
193.225928
 21
124.243045
 31
0.0
  0
LINE
  5
201
  8
0
  6
ACAD_ISO02W100
 10
231.425928
 20
155.651365
 30
0.0
 11
231.425928
 21
123.326365
 31
0.0
  0
LINE
  5
202
  8
0
  6
ACAD_ISO02W100
 10
237.025928
 20
155.651365
 30
0.0
 11
237.025928
 21
123.326365
 31
0.0
  0
LINE
  5
203
  8
0
  6
ACAD_ISO02W100
 10
231.425928
 20
155.651365
 30
0.0
 11
237.025928
 21
155.651365
 31
0.0
  0
LINE
  5
204
  8
0
  6
ACAD_ISO02W100
 10
231.425928
 20
155.651365
 30
0.0
 11
230.225928
 21
156.851365
 31
0.0
  0
LINE
  5
205
  8
0
  6
ACAD_ISO02W100
 10
237.025928
 20
155.651365
 30
0.0
 11
238.225928
 21
156.851365
 31
0.0
  0
LINE
  5
206
  8
0
  6
ACAD_ISO02W100
 10
238.225928
 20
156.851365
 30
0.0
 11
238.225928
 21
124.226365
 31
0.0
  0
LINE
  5
207
  8
0
  6
ACAD_ISO02W100
 10
230.225928
 20
156.851365
 30
0.0
 11
230.225928
 21
124.226365
 31
0.0
  0
LINE
  5
208
  8
0
  6
ACAD_ISO02W100
 10
230.225928
 20
124.226365
 30
0.0
 11
238.225928
 21
124.226365
 31
0.0
  0
LINE
  5
209
  8
0
  6
ACAD_ISO02W100
 10
234.225928
 20
121.226365
 30
0.0
 11
230.225928
 21
124.226365
 31
0.0
  0
LINE
  5
20A
  8
0
  6
ACAD_ISO02W100
 10
234.225928
 20
121.226365
 30
0.0
 11
238.225928
 21
124.226365
 31
0.0
  0
LINE
  5
20B
  8
0
  6
ACAD_ISO02W100
 10
276.425928
 20
155.668045
 30
0.0
 11
276.425928
 21
123.343045
 31
0.0
  0
LINE
  5
20C
  8
0
  6
ACAD_ISO02W100
 10
282.025928
 20
155.668045
 30
0.0
 11
282.025928
 21
123.343045
 31
0.0
  0
LINE
  5
20D
  8
0
  6
ACAD_ISO02W100
 10
276.425928
 20
155.668045
 30
0.0
 11
282.025928
 21
155.668045
 31
0.0
  0
LINE
  5
20E
  8
0
 10
276.425928
 20
155.668045
 30
0.0
 11
275.225928
 21
156.868045
 31
0.0
  0
LINE
  5
20F
  8
0
 10
282.025928
 20
155.668045
 30
0.0
 11
283.225928
 21
156.868045
 31
0.0
  0
LINE
  5
210
  8
0
  6
ACAD_ISO02W100
 10
283.225928
 20
156.868045
 30
0.0
 11
283.225928
 21
124.243045
 31
0.0
  0
LINE
  5
211
  8
0
  6
ACAD_ISO02W100
 10
275.225928
 20
156.868045
 30
0.0
 11
275.225928
 21
124.243045
 31
0.0
  0
LINE
  5
212
  8
0
  6
ACAD_ISO02W100
 10
275.225928
 20
124.243045
 30
0.0
 11
283.225928
 21
124.243045
 31
0.0
  0
LINE
  5
213
  8
0
  6
ACAD_ISO02W100
 10
279.225928
 20
121.243045
 30
0.0
 11
275.225928
 21
124.243045
 31
0.0
  0
LINE
  5
214
  8
0
  6
ACAD_ISO02W100
 10
279.225928
 20
121.243045
 30
0.0
 11
283.225928
 21
124.243045
 31
0.0
  0
LINE
  5
215
  8
0
  6
ACAD_ISO02W100
 10
321.425928
 20
155.651365
 30
0.0
 11
321.425928
 21
123.326365
 31
0.0
  0
LINE
  5
216
  8
0
  6
ACAD_ISO02W100
 10
327.025928
 20
155.651365
 30
0.0
 11
327.025928
 21
123.326365
 31
0.0
  0
LINE
  5
217
  8
0
  6
ACAD_ISO02W100
 10
321.425928
 20
155.651365
 30
0.0
 11
327.025928
 21
155.651365
 31
0.0
  0
LINE
  5
218
  8
0
  6
ACAD_ISO02W100
 10
321.425928
 20
155.651365
 30
0.0
 11
320.225928
 21
156.851365
 31
0.0
  0
LINE
  5
219
  8
0
  6
ACAD_ISO02W100
 10
327.025928
 20
155.651365
 30
0.0
 11
328.225928
 21
156.851365
 31
0.0
  0
LINE
  5
21A
  8
0
  6
ACAD_ISO02W100
 10
328.225928
 20
156.851365
 30
0.0
 11
328.225928
 21
124.226365
 31
0.0
  0
LINE
  5
21B
  8
0
  6
ACAD_ISO02W100
 10
320.225928
 20
156.851365
 30
0.0
 11
320.225928
 21
124.226365
 31
0.0
  0
LINE
  5
21C
  8
0
  6
ACAD_ISO02W100
 10
320.225928
 20
124.226365
 30
0.0
 11
328.225928
 21
124.226365
 31
0.0
  0
LINE
  5
21D
  8
0
  6
ACAD_ISO02W100
 10
324.225928
 20
121.226365
 30
0.0
 11
320.225928
 21
124.226365
 31
0.0
  0
LINE
  5
21E
  8
0
  6
ACAD_ISO02W100
 10
324.225928
 20
121.226365
 30
0.0
 11
328.225928
 21
124.226365
 31
0.0
  0
LINE
  5
21F
  8
0
  6
ACAD_ISO02W100
 10
366.425928
 20
155.651365
 30
0.0
 11
366.425928
 21
123.326365
 31
0.0
  0
LINE
  5
220
  8
0
  6
ACAD_ISO02W100
 10
372.025928
 20
155.651365
 30
0.0
 11
372.025928
 21
123.326365
 31
0.0
  0
LINE
  5
221
  8
0
  6
ACAD_ISO02W100
 10
366.425928
 20
155.651365
 30
0.0
 11
372.025928
 21
155.651365
 31
0.0
  0
LINE
  5
222
  8
0
  6
ACAD_ISO02W100
 10
366.425928
 20
155.651365
 30
0.0
 11
365.225928
 21
156.851365
 31
0.0
  0
LINE
  5
223
  8
0
  6
ACAD_ISO02W100
 10
372.025928
 20
155.651365
 30
0.0
 11
373.225928
 21
156.851365
 31
0.0
  0
LINE
  5
224
  8
0
  6
ACAD_ISO02W100
 10
373.225928
 20
156.851365
 30
0.0
 11
373.225928
 21
124.226365
 31
0.0
  0
LINE
  5
225
  8
0
  6
ACAD_ISO02W100
 10
365.225928
 20
156.851365
 30
0.0
 11
365.225928
 21
124.226365
 31
0.0
  0
LINE
  5
226
  8
0
  6
ACAD_ISO02W100
 10
365.225928
 20
124.226365
 30
0.0
 11
373.225928
 21
124.226365
 31
0.0
  0
LINE
  5
227
  8
0
  6
ACAD_ISO02W100
 10
369.225928
 20
121.226365
 30
0.0
 11
365.225928
 21
124.226365
 31
0.0
  0
LINE
  5
228
  8
0
  6
ACAD_ISO02W100
 10
369.225928
 20
121.226365
 30
0.0
 11
373.225928
 21
124.226365
 31
0.0
  0
LINE
  5
229
  8
0
  6
ACAD_ISO02W100
 10
411.425928
 20
155.668045
 30
0.0
 11
411.425928
 21
123.343045
 31
0.0
  0
LINE
  5
22A
  8
0
  6
ACAD_ISO02W100
 10
417.025928
 20
155.668045
 30
0.0
 11
417.025928
 21
123.343045
 31
0.0
  0
LINE
  5
22B
  8
0
  6
ACAD_ISO02W100
 10
411.425928
 20
155.668045
 30
0.0
 11
417.025928
 21
155.668045
 31
0.0
  0
LINE
  5
22C
  8
0
  6
ACAD_ISO02W100
 10
411.425928
 20
155.668045
 30
0.0
 11
410.225928
 21
156.868045
 31
0.0
  0
LINE
  5
22D
  8
0
  6
ACAD_ISO02W100
 10
417.025928
 20
155.668045
 30
0.0
 11
418.225928
 21
156.868045
 31
0.0
  0
LINE
  5
22E
  8
0
  6
ACAD_ISO02W100
 10
418.225928
 20
156.868045
 30
0.0
 11
418.225928
 21
124.243045
 31
0.0
  0
LINE
  5
22F
  8
0
  6
ACAD_ISO02W100
 10
410.225928
 20
156.868045
 30
0.0
 11
410.225928
 21
124.243045
 31
0.0
  0
LINE
  5
230
  8
0
  6
ACAD_ISO02W100
 10
410.225928
 20
124.243045
 30
0.0
 11
418.225928
 21
124.243045
 31
0.0
  0
LINE
  5
231
  8
0
  6
ACAD_ISO02W100
 10
414.225928
 20
121.243045
 30
0.0
 11
410.225928
 21
124.243045
 31
0.0
  0
LINE
  5
232
  8
0
  6
ACAD_ISO02W100
 10
414.225928
 20
121.243045
 30
0.0
 11
418.225928
 21
124.243045
 31
0.0
  0
LINE
  5
233
  8
0
  6
ACAD_ISO02W100
 10
463.925928
 20
155.651365
 30
0.0
 11
463.925928
 21
123.326365
 31
0.0
  0
LINE
  5
234
  8
0
  6
ACAD_ISO02W100
 10
469.525928
 20
155.651365
 30
0.0
 11
469.525928
 21
123.326365
 31
0.0
  0
LINE
  5
235
  8
0
  6
ACAD_ISO02W100
 10
463.925928
 20
155.651365
 30
0.0
 11
469.525928
 21
155.651365
 31
0.0
  0
LINE
  5
236
  8
0
  6
ACAD_ISO02W100
 10
463.925928
 20
155.651365
 30
0.0
 11
462.725928
 21
156.851365
 31
0.0
  0
LINE
  5
237
  8
0
  6
ACAD_ISO02W100
 10
469.525928
 20
155.651365
 30
0.0
 11
470.725928
 21
156.851365
 31
0.0
  0
LINE
  5
238
  8
0
  6
ACAD_ISO02W100
 10
470.725928
 20
156.851365
 30
0.0
 11
470.725928
 21
124.226365
 31
0.0
  0
LINE
  5
239
  8
0
  6
ACAD_ISO02W100
 10
462.725928
 20
156.851365
 30
0.0
 11
462.725928
 21
124.226365
 31
0.0
  0
LINE
  5
23A
  8
0
  6
ACAD_ISO02W100
 10
462.725928
 20
124.226365
 30
0.0
 11
470.725928
 21
124.226365
 31
0.0
  0
LINE
  5
23B
  8
0
  6
ACAD_ISO02W100
 10
466.725928
 20
121.226365
 30
0.0
 11
462.725928
 21
124.226365
 31
0.0
  0
LINE
  5
23C
  8
0
  6
ACAD_ISO02W100
 10
466.725928
 20
121.226365
 30
0.0
 11
470.725928
 21
124.226365
 31
0.0
  0
DIMENSION
  5
24E
  8
MATEN
  2
*D11
 10
193.225928
 20
171.289504
 30
0.0
 11
206.600928
 21
174.414504
 31
0.0
 12
-855.618217
 22
-792.801663
 32
0.0
 70
     0
  1
 M<> X30
 13
185.225928
 23
156.868045
 33
0.0
 14
193.225928
 24
156.868045
 34
0.0
1001
ACAD
1000
DSTYLE
1002
{
1070
    78
1070
     8
1070
   140
1040
3.0
1070
    74
1070
     0
1070
   172
1070
     1
1070
    73
1070
     0
1070
    77
1070
     1
1070
   147
1040
1.625
1070
    42
1040
0.625
1070
    44
1040
1.25
1070
    43
1040
3.75
1070
   271
1070
     2
1070
   141
1040
2.5
1070
   275
1070
     1
1070
    41
1040
2.0
1070
   273
1070
     8
1070
   274
1070
     4
1070
   143
1040
0.0394
1070
   171
1070
     4
1002
}
  0
CIRCLE
  5
28A
  8
0
 10
21.725928
 20
121.243045
 30
0.0
 40
4.0
  0
CIRCLE
  5
28B
  8
0
 10
491.725928
 20
121.243045
 30
0.0
 40
4.0
  0
CIRCLE
  5
28C
  8
0
 10
256.725928
 20
129.868045
 30
0.0
 40
5.5
  0
DIMENSION
  5
298
  8
MATEN
  2
*D12
 10
19.380896
 20
118.002547
 30
0.0
 11
33.126903
 21
136.997556
 31
0.0
 12
-855.618217
 22
-792.801663
 32
0.0
 70
   131
 15
24.07096
 25
124.483543
 35
0.0
 40
0.0
1001
ACAD
1000
DSTYLE
1002
{
1070
    78
1070
     8
1070
   288
1070
     1
1070
   140
1040
3.0
1070
    74
1070
     0
1070
   172
1070
     1
1070
    73
1070
     0
1070
    77
1070
     1
1070
   147
1040
1.625
1070
    42
1040
0.625
1070
    44
1040
1.25
1070
    43
1040
3.75
1070
   271
1070
     2
1070
   141
1040
2.5
1070
   275
1070
     1
1070
    41
1040
2.0
1070
   273
1070
     8
1070
   274
1070
     4
1070
   143
1040
0.0394
1070
   171
1070
     4
1002
}
  0
DIMENSION
  5
2A4
  8
MATEN
  2
*D13
 10
259.353866
 20
134.699602
 30
0.0
 11
247.678724
 21
113.234441
 31
0.0
 12
-855.618217
 22
-792.801663
 32
0.0
 70
   131
 15
254.09799
 25
125.036488
 35
0.0
 40
0.0
1001
ACAD
1000
DSTYLE
1002
{
1070
    78
1070
     8
1070
   288
1070
     1
1070
   140
1040
3.0
1070
    74
1070
     0
1070
   172
1070
     1
1070
    73
1070
     0
1070
    77
1070
     1
1070
   147
1040
1.625
1070
    42
1040
0.625
1070
    44
1040
1.25
1070
    43
1040
3.75
1070
   271
1070
     2
1070
   141
1040
2.5
1070
   275
1070
     1
1070
    41
1040
2.0
1070
   273
1070
     8
1070
   274
1070
     4
1070
   143
1040
0.0394
1070
   171
1070
     4
1002
}
  0
LINE
  5
2A9
  8
0
 10
563.72472
 20
156.868045
 30
0.0
 11
563.72472
 21
86.868045
 31
0.0
  0
LINE
  5
2AA
  8
0
 10
543.72472
 20
86.868045
 30
0.0
 11
563.72472
 21
86.868045
 31
0.0
  0
LINE
  5
2AB
  8
0
 10
543.72472
 20
156.868045
 30
0.0
 11
543.72472
 21
86.868045
 31
0.0
  0
LINE
  5
2AC
  8
0
 10
543.72472
 20
156.868045
 30
0.0
 11
563.72472
 21
156.868045
 31
0.0
  0
LINE
  5
2B0
  8
0
  6
ACAD_ISO02W100
 10
553.72472
 20
121.243045
 30
0.0
 11
557.72472
 21
124.243045
 31
0.0
  0
LINE
  5
2B1
  8
0
  6
ACAD_ISO02W100
 10
553.72472
 20
121.243045
 30
0.0
 11
549.72472
 21
124.243045
 31
0.0
  0
LINE
  5
2B2
  8
0
  6
ACAD_ISO02W100
 10
549.72472
 20
124.243045
 30
0.0
 11
557.72472
 21
124.243045
 31
0.0
  0
LINE
  5
2B3
  8
0
  6
ACAD_ISO02W100
 10
549.72472
 20
156.868045
 30
0.0
 11
549.72472
 21
124.243045
 31
0.0
  0
LINE
  5
2B4
  8
0
  6
ACAD_ISO02W100
 10
557.72472
 20
156.868045
 30
0.0
 11
557.72472
 21
124.243045
 31
0.0
  0
LINE
  5
2B5
  8
0
  6
ACAD_ISO02W100
 10
556.52472
 20
155.668045
 30
0.0
 11
557.72472
 21
156.868045
 31
0.0
  0
LINE
  5
2B6
  8
0
  6
ACAD_ISO02W100
 10
550.92472
 20
155.668045
 30
0.0
 11
549.72472
 21
156.868045
 31
0.0
  0
LINE
  5
2B7
  8
0
  6
ACAD_ISO02W100
 10
550.92472
 20
155.668045
 30
0.0
 11
556.52472
 21
155.668045
 31
0.0
  0
LINE
  5
2B8
  8
0
  6
ACAD_ISO02W100
 10
556.52472
 20
155.668045
 30
0.0
 11
556.52472
 21
123.343045
 31
0.0
  0
LINE
  5
2B9
  8
0
  6
ACAD_ISO02W100
 10
550.92472
 20
155.668045
 30
0.0
 11
550.92472
 21
123.343045
 31
0.0
  0
LINE
  5
2BA
  8
0
  6
ACAD_ISO02W100
 10
543.72472
 20
125.243045
 30
0.0
 11
563.72472
 21
125.243045
 31
0.0
  0
LINE
  5
2BB
  8
0
  6
ACAD_ISO02W100
 10
543.72472
 20
117.243045
 30
0.0
 11
563.72472
 21
117.243045
 31
0.0
  0
LINE
  5
2BC
  8
0
  6
ACAD_ISO02W100
 10
543.72472
 20
135.368045
 30
0.0
 11
563.72472
 21
135.368045
 31
0.0
  0
LINE
  5
2BD
  8
0
  6
ACAD_ISO02W100
 10
543.72472
 20
124.368045
 30
0.0
 11
563.72472
 21
124.368045
 31
0.0
  0
DIMENSION
  5
2CA
  8
MATEN
  2
*D14
 10
528.214104
 20
86.868045
 30
0.0
 11
525.089104
 21
104.055545
 31
0.0
 12
-855.618217
 22
-792.801663
 32
0.0
 70
     0
 13
491.725928
 23
121.243045
 33
0.0
 14
506.725928
 24
86.868045
 34
0.0
 50
90.0
1001
ACAD
1000
DSTYLE
1002
{
1070
    78
1070
     8
1070
   140
1040
3.0
1070
    74
1070
     0
1070
   172
1070
     1
1070
    73
1070
     0
1070
    77
1070
     1
1070
   147
1040
1.625
1070
    42
1040
0.625
1070
    44
1040
1.25
1070
    43
1040
3.75
1070
   271
1070
     2
1070
   141
1040
2.5
1070
   275
1070
     1
1070
    41
1040
2.0
1070
   273
1070
     8
1070
   274
1070
     4
1070
   143
1040
0.0394
1070
   171
1070
     4
1002
}
  0
DIMENSION
  5
2E2
  8
MATEN
  2
*D15
 10
270.286714
 20
86.868045
 30
0.0
 11
267.161714
 21
108.368045
 31
0.0
 12
-855.618217
 22
-792.801663
 32
0.0
 70
     0
 13
256.725928
 23
129.868045
 33
0.0
 14
256.725928
 24
86.868045
 34
0.0
 50
90.0
1001
ACAD
1000
DSTYLE
1002
{
1070
    78
1070
     8
1070
   140
1040
3.0
1070
    74
1070
     0
1070
   172
1070
     1
1070
    73
1070
     0
1070
    77
1070
     1
1070
   147
1040
1.625
1070
    42
1040
0.625
1070
    44
1040
1.25
1070
    43
1040
3.75
1070
   271
1070
     2
1070
   141
1040
2.5
1070
   275
1070
     1
1070
    41
1040
2.0
1070
   273
1070
     8
1070
   274
1070
     4
1070
   143
1040
0.0394
1070
   171
1070
     4
1002
}
  0
DIMENSION
  5
2FA
  8
MATEN
  2
*D16
 10
506.725928
 20
200.679674
 30
0.0
 11
256.725928
 21
200.679674
 31
0.0
 12
-855.618217
 22
-792.801663
 32
0.0
 70
   128
 13
6.725928
 23
156.868045
 33
0.0
 14
506.725928
 24
156.868045
 34
0.0
1001
ACAD
1000
DSTYLE
1002
{
1070
    78
1070
     8
1070
   140
1040
3.0
1070
    74
1070
     0
1070
   172
1070
     1
1070
    73
1070
     0
1070
    77
1070
     1
1070
   147
1040
1.625
1070
    42
1040
0.625
1070
    44
1040
1.25
1070
    43
1040
3.75
1070
   271
1070
     2
1070
   141
1040
2.5
1070
   275
1070
     1
1070
    41
1040
2.0
1070
   273
1070
     8
1070
   274
1070
     4
1070
   143
1040
0.0394
1070
   171
1070
     4
1002
}
  0
DIMENSION
  5
312
  8
MATEN
  2
*D17
 10
-8.162125
 20
86.868045
 30
0.0
 11
-11.287125
 21
121.868045
 31
0.0
 12
-855.618217
 22
-792.801663
 32
0.0
 70
     0
 13
6.725928
 23
156.868045
 33
0.0
 14
6.725928
 24
86.868045
 34
0.0
 50
90.0
1001
ACAD
1000
DSTYLE
1002
{
1070
    78
1070
     8
1070
   140
1040
3.0
1070
    74
1070
     0
1070
   172
1070
     1
1070
    73
1070
     0
1070
    77
1070
     1
1070
   147
1040
1.625
1070
    42
1040
0.625
1070
    44
1040
1.25
1070
    43
1040
3.75
1070
   271
1070
     2
1070
   141
1040
2.5
1070
   275
1070
     1
1070
    41
1040
2.0
1070
   273
1070
     8
1070
   274
1070
     4
1070
   143
1040
0.0394
1070
   171
1070
     4
1002
}
  0
DIMENSION
  5
335
  8
MATEN
  2
*D18
 10
563.72472
 20
165.451588
 30
0.0
 11
553.72472
 21
168.576588
 31
0.0
 12
-855.618217
 22
-792.801663
 32
0.0
 70
     0
 13
543.72472
 23
156.868045
 33
0.0
 14
563.72472
 24
156.868045
 34
0.0
1001
ACAD
1000
DSTYLE
1002
{
1070
    78
1070
     8
1070
   140
1040
3.0
1070
    74
1070
     0
1070
   172
1070
     1
1070
    73
1070
     0
1070
    77
1070
     1
1070
   147
1040
1.625
1070
    42
1040
0.625
1070
    44
1040
1.25
1070
    43
1040
3.75
1070
   271
1070
     2
1070
   141
1040
2.5
1070
   275
1070
     1
1070
    41
1040
2.0
1070
   273
1070
     8
1070
   274
1070
     4
1070
   143
1040
0.0394
1070
   171
1070
     4
1002
}
  0
LINE
  5
33D
  8
0
  6
ACAD_ISO02W100
 10
34.225928
 20
119.868045
 30
0.0
 11
34.225928
 21
86.868045
 31
0.0
  0
LINE
  5
340
  8
0
  6
ACAD_ISO02W100
 10
39.225928
 20
116.868045
 30
0.0
 11
39.225928
 21
86.868045
 31
0.0
  0
LINE
  5
341
  8
0
  6
ACAD_ISO02W100
 10
29.225928
 20
116.868045
 30
0.0
 11
29.225928
 21
86.868045
 31
0.0
  0
LINE
  5
342
  8
0
  6
ACAD_ISO02W100
 10
474.24581
 20
116.868045
 30
0.0
 11
474.24581
 21
86.868045
 31
0.0
  0
LINE
  5
343
  8
0
  6
ACAD_ISO02W100
 10
484.24581
 20
116.868045
 30
0.0
 11
484.24581
 21
86.868045
 31
0.0
  0
LINE
  5
344
  8
0
  6
ACAD_ISO02W100
 10
484.24581
 20
116.868045
 30
0.0
 11
474.24581
 21
116.868045
 31
0.0
  0
LINE
  5
345
  8
0
  6
ACAD_ISO02W100
 10
39.225928
 20
116.868045
 30
0.0
 11
29.225928
 21
116.868045
 31
0.0
  0
LINE
  5
348
  8
0
  6
ACAD_ISO02W100
 10
38.025928
 20
117.588045
 30
0.0
 11
38.025928
 21
86.868045
 31
0.0
  0
LINE
  5
349
  8
0
  6
ACAD_ISO02W100
 10
30.425928
 20
117.588045
 30
0.0
 11
30.425928
 21
86.868045
 31
0.0
  0
LINE
  5
34A
  8
0
  6
ACAD_ISO02W100
 10
475.44581
 20
116.868045
 30
0.0
 11
475.44581
 21
86.868045
 31
0.0
  0
LINE
  5
34B
  8
0
  6
ACAD_ISO02W100
 10
483.04581
 20
116.868045
 30
0.0
 11
483.04581
 21
86.868045
 31
0.0
  0
LINE
  5
34C
  8
0
  6
ACAD_ISO02W100
 10
474.24581
 20
116.868045
 30
0.0
 11
479.24581
 21
119.868045
 31
0.0
  0
LINE
  5
34D
  8
0
  6
ACAD_ISO02W100
 10
484.24581
 20
116.868045
 30
0.0
 11
479.24581
 21
119.868045
 31
0.0
  0
LINE
  5
34E
  8
0
  6
ACAD_ISO02W100
 10
29.225928
 20
116.868045
 30
0.0
 11
34.225928
 21
119.868045
 31
0.0
  0
LINE
  5
34F
  8
0
  6
ACAD_ISO02W100
 10
34.225928
 20
119.868045
 30
0.0
 11
39.225928
 21
116.868045
 31
0.0
  0
LINE
  5
350
  8
0
  6
ACAD_ISO02W100
 10
475.44581
 20
116.868045
 30
0.0
 11
475.44581
 21
117.588045
 31
0.0
  0
LINE
  5
351
  8
0
  6
ACAD_ISO02W100
 10
483.04581
 20
116.868045
 30
0.0
 11
483.04581
 21
117.588045
 31
0.0
  0
DIMENSION
  5
35E
  8
MATEN
  2
*D19
 10
484.24581
 20
76.267025
 30
0.0
 11
498.62081
 21
79.392025
 31
0.0
 12
-855.618217
 22
-792.801663
 32
0.0
 70
     0
  1
M<> X 35
 13
474.24581
 23
86.868045
 33
0.0
 14
484.24581
 24
86.868045
 34
0.0
1001
ACAD
1000
DSTYLE
1002
{
1070
    78
1070
     8
1070
   140
1040
3.0
1070
    74
1070
     0
1070
   172
1070
     1
1070
    73
1070
     0
1070
    77
1070
     1
1070
   147
1040
1.625
1070
    42
1040
0.625
1070
    44
1040
1.25
1070
    43
1040
3.75
1070
   271
1070
     2
1070
   141
1040
2.5
1070
   275
1070
     1
1070
    41
1040
2.0
1070
   273
1070
     8
1070
   274
1070
     4
1070
   143
1040
0.0394
1070
   171
1070
     4
1002
}
  0
ENDSEC
  0
EOF
