  0
SECTION
  2
HEADER
  9
$ACADVER
  1
AC1009
  9
$INSBASE
 10
0.0
 20
0.0
 30
0.0
  9
$EXTMIN
 10
2303.682838
 20
1200.724073
 30
0.0
  9
$EXTMAX
 10
2347.234632
 20
1256.358736
 30
0.0
  9
$LIMMIN
 10
0.0
 20
0.0
  9
$LIMMAX
 10
4200.0
 20
2970.0
  9
$ORTHOMODE
 70
     1
  9
$REGENMODE
 70
     1
  9
$FILLMODE
 70
     1
  9
$QTEXTMODE
 70
     0
  9
$MIRRTEXT
 70
     1
  9
$DRAGMODE
 70
     2
  9
$LTSCALE
 40
0.3
  9
$OSMODE
 70
   191
  9
$ATTMODE
 70
     1
  9
$TEXTSIZE
 40
2.5
  9
$TRACEWID
 40
1.0
  9
$TEXTSTYLE
  7
STANDARD
  9
$CLAYER
  8
MATEN
  9
$CELTYPE
  6
BYLAYER
  9
$CECOLOR
 62
   256
  9
$DIMSCALE
 40
0.0
  9
$DIMASZ
 40
2.0
  9
$DIMEXO
 40
0.625
  9
$DIMDLI
 40
3.75
  9
$DIMRND
 40
0.0
  9
$DIMDLE
 40
0.0
  9
$DIMEXE
 40
1.25
  9
$DIMTP
 40
0.0
  9
$DIMTM
 40
0.0
  9
$DIMTXT
 40
2.0
  9
$DIMCEN
 40
1.0
  9
$DIMTSZ
 40
0.0
  9
$DIMTOL
 70
     0
  9
$DIMLIM
 70
     0
  9
$DIMTIH
 70
     0
  9
$DIMTOH
 70
     0
  9
$DIMSE1
 70
     0
  9
$DIMSE2
 70
     0
  9
$DIMTAD
 70
     1
  9
$DIMZIN
 70
     8
  9
$DIMBLK
  1

  9
$DIMASO
 70
     1
  9
$DIMSHO
 70
     1
  9
$DIMPOST
  1

  9
$DIMAPOST
  1

  9
$DIMALT
 70
     0
  9
$DIMALTD
 70
     4
  9
$DIMALTF
 40
0.0394
  9
$DIMLFAC
 40
1.0
  9
$DIMTOFL
 70
     1
  9
$DIMTVP
 40
0.0
  9
$DIMTIX
 70
     0
  9
$DIMSOXD
 70
     0
  9
$DIMSAH
 70
     0
  9
$DIMBLK1
  1

  9
$DIMBLK2
  1

  9
$DIMSTYLE
  2
STANDARD
  9
$DIMCLRD
 70
     0
  9
$DIMCLRE
 70
     0
  9
$DIMCLRT
 70
     0
  9
$DIMTFAC
 40
1.0
  9
$DIMGAP
 40
1.0
  9
$LUNITS
 70
     2
  9
$LUPREC
 70
     4
  9
$SKETCHINC
 40
1.0
  9
$FILLETRAD
 40
0.1
  9
$AUNITS
 70
     0
  9
$AUPREC
 70
     0
  9
$MENU
  1
acad
  9
$ELEVATION
 40
0.0
  9
$PELEVATION
 40
0.0
  9
$THICKNESS
 40
0.0
  9
$LIMCHECK
 70
     0
  9
$BLIPMODE
 70
     0
  9
$CHAMFERA
 40
0.0
  9
$CHAMFERB
 40
0.0
  9
$SKPOLY
 70
     0
  9
$TDCREATE
 40
2451801.38001
  9
$TDUPDATE
 40
2451883.348212
  9
$TDINDWG
 40
3.288543
  9
$TDUSRTIMER
 40
3.288543
  9
$USRTIMER
 70
     1
  9
$ANGBASE
 50
0.0
  9
$ANGDIR
 70
     0
  9
$PDMODE
 70
     0
  9
$PDSIZE
 40
0.0
  9
$PLINEWID
 40
0.0
  9
$COORDS
 70
     1
  9
$SPLFRAME
 70
     0
  9
$SPLINETYPE
 70
     6
  9
$SPLINESEGS
 70
     8
  9
$ATTDIA
 70
     0
  9
$ATTREQ
 70
     1
  9
$HANDLING
 70
     1
  9
$HANDSEED
  5
FF
  9
$SURFTAB1
 70
     6
  9
$SURFTAB2
 70
     6
  9
$SURFTYPE
 70
     6
  9
$SURFU
 70
     6
  9
$SURFV
 70
     6
  9
$UCSNAME
  2

  9
$UCSORG
 10
0.0
 20
0.0
 30
0.0
  9
$UCSXDIR
 10
1.0
 20
0.0
 30
0.0
  9
$UCSYDIR
 10
0.0
 20
1.0
 30
0.0
  9
$PUCSNAME
  2

  9
$PUCSORG
 10
0.0
 20
0.0
 30
0.0
  9
$PUCSXDIR
 10
1.0
 20
0.0
 30
0.0
  9
$PUCSYDIR
 10
0.0
 20
1.0
 30
0.0
  9
$USERI1
 70
     0
  9
$USERI2
 70
     0
  9
$USERI3
 70
     0
  9
$USERI4
 70
     0
  9
$USERI5
 70
     0
  9
$USERR1
 40
0.0
  9
$USERR2
 40
0.0
  9
$USERR3
 40
0.0
  9
$USERR4
 40
0.0
  9
$USERR5
 40
0.0
  9
$WORLDVIEW
 70
     1
  9
$SHADEDGE
 70
     3
  9
$SHADEDIF
 70
    70
  9
$TILEMODE
 70
     1
  9
$MAXACTVP
 70
    48
  9
$PLIMCHECK
 70
     0
  9
$PEXTMIN
 10
1.000000E+020
 20
1.000000E+020
 30
1.000000E+020
  9
$PEXTMAX
 10
-1.000000E+020
 20
-1.000000E+020
 30
-1.000000E+020
  9
$PLIMMIN
 10
0.0
 20
0.0
  9
$PLIMMAX
 10
420.0
 20
297.0
  9
$UNITMODE
 70
     0
  9
$VISRETAIN
 70
     1
  9
$PLINEGEN
 70
     0
  9
$PSLTSCALE
 70
     1
  0
ENDSEC
  0
SECTION
  2
TABLES
  0
TABLE
  2
VPORT
 70
     2
  0
VPORT
  2
*ACTIVE
 70
     0
 10
0.0
 20
0.0
 11
1.0
 21
1.0
 12
2333.346139
 22
1226.961576
 13
0.0
 23
0.0
 14
10.0
 24
10.0
 15
25.0
 25
25.0
 16
0.0
 26
0.0
 36
1.0
 17
0.0
 27
0.0
 37
0.0
 40
66.664637
 41
1.700368
 42
50.0
 43
0.0
 44
0.0
 50
0.0
 51
0.0
 71
     0
 72
   100
 73
     1
 74
     1
 75
     0
 76
     0
 77
     0
 78
     0
  0
ENDTAB
  0
TABLE
  2
LTYPE
 70
     1
  0
LTYPE
  2
CONTINUOUS
 70
     0
  3
Solid line
 72
    65
 73
     0
 40
0.0
  0
ENDTAB
  0
TABLE
  2
LAYER
 70
     3
  0
LAYER
  2
0
 70
     0
 62
     7
  6
CONTINUOUS
  0
LAYER
  2
MATEN
 70
     0
 62
     1
  6
CONTINUOUS
  0
LAYER
  2
DEFPOINTS
 70
     0
 62
     7
  6
CONTINUOUS
  0
ENDTAB
  0
TABLE
  2
STYLE
 70
     1
  0
STYLE
  2
STANDARD
 70
     0
 40
0.0
 41
1.0
 50
0.0
 71
     0
 42
2.5
  3
txt
  4

  0
ENDTAB
  0
TABLE
  2
VIEW
 70
     0
  0
ENDTAB
  0
TABLE
  2
UCS
 70
     0
  0
ENDTAB
  0
TABLE
  2
APPID
 70
     1
  0
APPID
  2
ACAD
 70
     0
  0
ENDTAB
  0
TABLE
  2
DIMSTYLE
 70
     1
  0
DIMSTYLE
  2
STANDARD
 70
     0
  3

  4

  5

  6

  7

 40
1.0
 41
0.18
 42
0.0625
 43
0.38
 44
0.18
 45
0.0
 46
0.0
 47
0.0
 48
0.0
140
0.18
141
0.09
142
0.0
143
25.4
144
1.0
145
0.0
146
1.0
147
0.09
 71
     0
 72
     0
 73
     1
 74
     1
 75
     0
 76
     0
 77
     0
 78
     0
170
     0
171
     2
172
     0
173
     0
174
     0
175
     0
176
     0
177
     0
178
     0
  0
ENDTAB
  0
ENDSEC
  0
SECTION
  2
BLOCKS
  0
BLOCK
  8
0
  2
$MODEL_SPACE
 70
     0
 10
0.0
 20
0.0
 30
0.0
  3
$MODEL_SPACE
  1

  0
ENDBLK
  5
6
  8
0
  0
BLOCK
 67
     1
  8
0
  2
$PAPER_SPACE
 70
     0
 10
0.0
 20
0.0
 30
0.0
  3
$PAPER_SPACE
  1

  0
ENDBLK
  5
9
 67
     1
  8
0
  0
BLOCK
  8
0
  2
*D0
 70
     1
 10
0.0
 20
0.0
 30
0.0
  3
*D0
  1

  0
LINE
  5
89
  8
0
  6
BYBLOCK
 62
     0
 10
2321.946488
 20
1221.227071
 30
0.0
 11
2321.946488
 21
1210.382407
 31
0.0
  0
LINE
  5
8A
  8
0
  6
BYBLOCK
 62
     0
 10
2331.946488
 20
1221.227071
 30
0.0
 11
2331.946488
 21
1210.382407
 31
0.0
  0
LINE
  5
8B
  8
0
  6
BYBLOCK
 62
     0
 10
2323.946488
 20
1211.632407
 30
0.0
 11
2329.946488
 21
1211.632407
 31
0.0
  0
SOLID
  5
8C
  8
0
  6
BYBLOCK
 62
     0
 10
2323.946488
 20
1211.965741
 30
0.0
 11
2323.946488
 21
1211.299074
 31
0.0
 12
2321.946488
 22
1211.632407
 32
0.0
 13
2321.946488
 23
1211.632407
 33
0.0
  0
SOLID
  5
8D
  8
0
  6
BYBLOCK
 62
     0
 10
2329.946488
 20
1211.965741
 30
0.0
 11
2329.946488
 21
1211.299074
 31
0.0
 12
2331.946488
 22
1211.632407
 32
0.0
 13
2331.946488
 23
1211.632407
 33
0.0
  0
TEXT
  8
0
  40
2
  5
F8
  62
0
  72
0
  71
0
 10
2322.95
 20
1210.09
 30
0.000000
  1
10
  0
POINT
  5
8F
  8
DEFPOINTS
  6
BYBLOCK
 62
     0
 10
2321.946488
 20
1221.852071
 30
0.0
  0
POINT
  5
90
  8
DEFPOINTS
  6
BYBLOCK
 62
     0
 10
2331.946488
 20
1221.852071
 30
0.0
  0
POINT
  5
91
  8
DEFPOINTS
  6
BYBLOCK
 62
     0
 10
2331.946488
 20
1211.632407
 30
0.0
  0
ENDBLK
  5
92
  8
0
  0
BLOCK
  8
0
  2
*D1
 70
     1
 10
0.0
 20
0.0
 30
0.0
  3
*D1
  1

  0
LINE
  5
95
  8
0
  6
BYBLOCK
 62
     0
 10
2321.446488
 20
1214.827071
 30
0.0
 11
2321.446488
 21
1205.692295
 31
0.0
  0
LINE
  5
96
  8
0
  6
BYBLOCK
 62
     0
 10
2332.446488
 20
1214.827071
 30
0.0
 11
2332.446488
 21
1205.692295
 31
0.0
  0
LINE
  5
97
  8
0
  6
BYBLOCK
 62
     0
 10
2323.446488
 20
1206.942295
 30
0.0
 11
2330.446488
 21
1206.942295
 31
0.0
  0
SOLID
  5
98
  8
0
  6
BYBLOCK
 62
     0
 10
2323.446488
 20
1207.275629
 30
0.0
 11
2323.446488
 21
1206.608962
 31
0.0
 12
2321.446488
 22
1206.942295
 32
0.0
 13
2321.446488
 23
1206.942295
 33
0.0
  0
SOLID
  5
99
  8
0
  6
BYBLOCK
 62
     0
 10
2330.446488
 20
1207.275629
 30
0.0
 11
2330.446488
 21
1206.608962
 31
0.0
 12
2332.446488
 22
1206.942295
 32
0.0
 13
2332.446488
 23
1206.942295
 33
0.0
  0
TEXT
  8
0
  40
2
  5
F9
  62
0
  72
0
  71
0
 10
2322.97
 20
1205.40
 30
0.000000
  1
11
  0
POINT
  5
9B
  8
DEFPOINTS
  6
BYBLOCK
 62
     0
 10
2321.446488
 20
1215.452071
 30
0.0
  0
POINT
  5
9C
  8
DEFPOINTS
  6
BYBLOCK
 62
     0
 10
2332.446488
 20
1215.452071
 30
0.0
  0
POINT
  5
9D
  8
DEFPOINTS
  6
BYBLOCK
 62
     0
 10
2332.446488
 20
1206.942295
 30
0.0
  0
ENDBLK
  5
9E
  8
0
  0
BLOCK
  8
0
  2
*D2
 70
     1
 10
0.0
 20
0.0
 30
0.0
  3
*D2
  1

  0
LINE
  5
A2
  8
0
  6
BYBLOCK
 62
     0
 10
2314.946488
 20
1214.827071
 30
0.0
 11
2314.946488
 21
1200.724073
 31
0.0
  0
LINE
  5
A3
  8
0
  6
BYBLOCK
 62
     0
 10
2338.946488
 20
1214.827071
 30
0.0
 11
2338.946488
 21
1200.724073
 31
0.0
  0
LINE
  5
A4
  8
0
  6
BYBLOCK
 62
     0
 10
2316.946488
 20
1201.974073
 30
0.0
 11
2336.946488
 21
1201.974073
 31
0.0
  0
SOLID
  5
A5
  8
0
  6
BYBLOCK
 62
     0
 10
2316.946488
 20
1202.307407
 30
0.0
 11
2316.946488
 21
1201.64074
 31
0.0
 12
2314.946488
 22
1201.974073
 32
0.0
 13
2314.946488
 23
1201.974073
 33
0.0
  0
SOLID
  5
A6
  8
0
  6
BYBLOCK
 62
     0
 10
2336.946488
 20
1202.307407
 30
0.0
 11
2336.946488
 21
1201.64074
 31
0.0
 12
2338.946488
 22
1201.974073
 32
0.0
 13
2338.946488
 23
1201.974073
 33
0.0
  0
TEXT
  8
0
  40
2
  5
FA
  62
0
  72
0
  71
0
 10
2323.46
 20
1200.43
 30
0.000000
  1
24
  0
POINT
  5
A8
  8
DEFPOINTS
  6
BYBLOCK
 62
     0
 10
2314.946488
 20
1215.452071
 30
0.0
  0
POINT
  5
A9
  8
DEFPOINTS
  6
BYBLOCK
 62
     0
 10
2338.946488
 20
1215.452071
 30
0.0
  0
POINT
  5
AA
  8
DEFPOINTS
  6
BYBLOCK
 62
     0
 10
2338.946488
 20
1201.974073
 30
0.0
  0
ENDBLK
  5
AB
  8
0
  0
BLOCK
  8
0
  2
*D3
 70
     1
 10
0.0
 20
0.0
 30
0.0
  3
*D3
  1

  0
LINE
  5
BF
  8
0
  6
BYBLOCK
 62
     0
 10
2341.050508
 20
1224.452071
 30
0.0
 11
2347.234632
 21
1224.452071
 31
0.0
  0
LINE
  5
C0
  8
0
  6
BYBLOCK
 62
     0
 10
2339.571488
 20
1215.452071
 30
0.0
 11
2347.234632
 21
1215.452071
 31
0.0
  0
LINE
  5
C1
  8
0
  6
BYBLOCK
 62
     0
 10
2345.984632
 20
1222.452071
 30
0.0
 11
2345.984632
 21
1217.452071
 31
0.0
  0
SOLID
  5
C2
  8
0
  6
BYBLOCK
 62
     0
 10
2345.651299
 20
1222.452071
 30
0.0
 11
2346.317966
 21
1222.452071
 31
0.0
 12
2345.984632
 22
1224.452071
 32
0.0
 13
2345.984632
 23
1224.452071
 33
0.0
  0
SOLID
  5
C3
  8
0
  6
BYBLOCK
 62
     0
 10
2345.651299
 20
1217.452071
 30
0.0
 11
2346.317966
 21
1217.452071
 31
0.0
 12
2345.984632
 22
1215.452071
 32
0.0
 13
2345.984632
 23
1215.452071
 33
0.0
  0
TEXT
  8
0
  40
2
  5
FB
  62
0
  72
0
  71
0
 10
2339.98
 20
1216.35
 30
0.000000
  1
9
  0
POINT
  5
C5
  8
DEFPOINTS
  6
BYBLOCK
 62
     0
 10
2340.425508
 20
1224.452071
 30
0.0
  0
POINT
  5
C6
  8
DEFPOINTS
  6
BYBLOCK
 62
     0
 10
2338.946488
 20
1215.452071
 30
0.0
  0
POINT
  5
C7
  8
DEFPOINTS
  6
BYBLOCK
 62
     0
 10
2345.984632
 20
1215.452071
 30
0.0
  0
ENDBLK
  5
C8
  8
0
  0
BLOCK
  8
0
  2
*D4
 70
     1
 10
0.0
 20
0.0
 30
0.0
  3
*D4
  1

  0
LINE
  5
CC
  8
0
  6
BYBLOCK
 62
     0
 10
2313.446482
 20
1246.077071
 30
0.0
 11
2313.446482
 21
1254.608736
 31
0.0
  0
LINE
  5
CD
  8
0
  6
BYBLOCK
 62
     0
 10
2340.467179
 20
1244.827071
 30
0.0
 11
2340.467179
 21
1254.608736
 31
0.0
  0
LINE
  5
CE
  8
0
  6
BYBLOCK
 62
     0
 10
2315.446482
 20
1253.358736
 30
0.0
 11
2338.467179
 21
1253.358736
 31
0.0
  0
SOLID
  5
CF
  8
0
  6
BYBLOCK
 62
     0
 10
2315.446482
 20
1253.692069
 30
0.0
 11
2315.446482
 21
1253.025402
 31
0.0
 12
2313.446482
 22
1253.358736
 32
0.0
 13
2313.446482
 23
1253.358736
 33
0.0
  0
SOLID
  5
D0
  8
0
  6
BYBLOCK
 62
     0
 10
2338.467179
 20
1253.692069
 30
0.0
 11
2338.467179
 21
1253.025402
 31
0.0
 12
2340.467179
 22
1253.358736
 32
0.0
 13
2340.467179
 23
1253.358736
 33
0.0
  0
TEXT
  8
0
  40
2
  5
FC
  62
0
  72
0
  71
0
 10
2323.45
 20
1251.82
 30
0.000000
  1
27.02
  0
POINT
  5
D2
  8
DEFPOINTS
  6
BYBLOCK
 62
     0
 10
2313.446482
 20
1245.452071
 30
0.0
  0
POINT
  5
D3
  8
DEFPOINTS
  6
BYBLOCK
 62
     0
 10
2340.467179
 20
1244.202071
 30
0.0
  0
POINT
  5
D4
  8
DEFPOINTS
  6
BYBLOCK
 62
     0
 10
2340.467179
 20
1253.358736
 30
0.0
  0
ENDBLK
  5
D5
  8
0
  0
BLOCK
  8
0
  2
*D5
 70
     1
 10
0.0
 20
0.0
 30
0.0
  3
*D5
  1

  0
LINE
  5
DB
  8
0
  6
BYBLOCK
 62
     0
 10
2316.467172
 20
1246.327071
 30
0.0
 11
2316.467172
 21
1249.810963
 31
0.0
  0
LINE
  5
DC
  8
0
  6
BYBLOCK
 62
     0
 10
2337.429172
 20
1244.928319
 30
0.0
 11
2337.429172
 21
1249.810963
 31
0.0
  0
LINE
  5
DD
  8
0
  6
BYBLOCK
 62
     0
 10
2318.467172
 20
1248.560963
 30
0.0
 11
2335.429172
 21
1248.560963
 31
0.0
  0
SOLID
  5
DE
  8
0
  6
BYBLOCK
 62
     0
 10
2318.467172
 20
1248.894296
 30
0.0
 11
2318.467172
 21
1248.22763
 31
0.0
 12
2316.467172
 22
1248.560963
 32
0.0
 13
2316.467172
 23
1248.560963
 33
0.0
  0
SOLID
  5
DF
  8
0
  6
BYBLOCK
 62
     0
 10
2335.429172
 20
1248.894296
 30
0.0
 11
2335.429172
 21
1248.22763
 31
0.0
 12
2337.429172
 22
1248.560963
 32
0.0
 13
2337.429172
 23
1248.560963
 33
0.0
  0
TEXT
  8
0
  40
2
  5
FD
  62
0
  72
0
  71
0
 10
2323.56
 20
1247.02
 30
0.000000
  1
20.96
  0
POINT
  5
E1
  8
DEFPOINTS
  6
BYBLOCK
 62
     0
 10
2316.467172
 20
1245.702071
 30
0.0
  0
POINT
  5
E2
  8
DEFPOINTS
  6
BYBLOCK
 62
     0
 10
2337.429172
 20
1244.303319
 30
0.0
  0
POINT
  5
E3
  8
DEFPOINTS
  6
BYBLOCK
 62
     0
 10
2337.429172
 20
1248.560963
 30
0.0
  0
ENDBLK
  5
E4
  8
0
  0
BLOCK
  8
0
  2
*D6
 70
     1
 10
0.0
 20
0.0
 30
0.0
  3
*D6
  1

  0
LINE
  5
E8
  8
0
  6
BYBLOCK
 62
     0
 10
2313.455456
 20
1224.452071
 30
0.0
 11
2305.432838
 21
1224.452071
 31
0.0
  0
LINE
  5
E9
  8
0
  6
BYBLOCK
 62
     0
 10
2312.821482
 20
1245.452071
 30
0.0
 11
2305.432838
 21
1245.452071
 31
0.0
  0
LINE
  5
EA
  8
0
  6
BYBLOCK
 62
     0
 10
2306.682838
 20
1226.452071
 30
0.0
 11
2306.682838
 21
1243.452071
 31
0.0
  0
SOLID
  5
EB
  8
0
  6
BYBLOCK
 62
     0
 10
2306.349505
 20
1226.452071
 30
0.0
 11
2307.016172
 21
1226.452071
 31
0.0
 12
2306.682838
 22
1224.452071
 32
0.0
 13
2306.682838
 23
1224.452071
 33
0.0
  0
SOLID
  5
EC
  8
0
  6
BYBLOCK
 62
     0
 10
2306.349505
 20
1243.452071
 30
0.0
 11
2307.016172
 21
1243.452071
 31
0.0
 12
2306.682838
 22
1245.452071
 32
0.0
 13
2306.682838
 23
1245.452071
 33
0.0
  0
TEXT
  8
0
  40
2
  5
FE
  62
0
  72
0
  71
0
 10
2300.68
 20
1230.32
 30
0.000000
  1
21
  0
POINT
  5
EE
  8
DEFPOINTS
  6
BYBLOCK
 62
     0
 10
2314.080456
 20
1224.452071
 30
0.0
  0
POINT
  5
EF
  8
DEFPOINTS
  6
BYBLOCK
 62
     0
 10
2313.446482
 20
1245.452071
 30
0.0
  0
POINT
  5
F0
  8
DEFPOINTS
  6
BYBLOCK
 62
     0
 10
2306.682838
 20
1245.452071
 30
0.0
  0
ENDBLK
  5
F1
  8
0
  0
ENDSEC
  0
SECTION
  2
ENTITIES
  0
LINE
  5
1D
  8
0
 10
2338.946488
 20
1218.052071
 30
0.0
 11
2314.946488
 21
1218.052071
 31
0.0
  0
LINE
  5
1F
  8
0
 10
2338.946488
 20
1221.852071
 30
0.0
 11
2314.946488
 21
1221.852071
 31
0.0
  0
LINE
  5
20
  8
0
 10
2338.946488
 20
1225.702071
 30
0.0
 11
2314.946482
 21
1227.222762
 31
0.0
  0
LINE
  5
21
  8
0
 10
2338.946488
 20
1226.702071
 30
0.0
 11
2314.946482
 21
1228.181381
 31
0.0
  0
LINE
  5
22
  8
0
 10
2338.946488
 20
1229.702071
 30
0.0
 11
2314.946482
 21
1231.222762
 31
0.0
  0
LINE
  5
23
  8
0
 10
2338.946488
 20
1230.702071
 30
0.0
 11
2314.946482
 21
1232.202071
 31
0.0
  0
LINE
  5
24
  8
0
 10
2338.946488
 20
1233.702071
 30
0.0
 11
2314.946482
 21
1235.202071
 31
0.0
  0
LINE
  5
25
  8
0
 10
2338.946488
 20
1234.681381
 30
0.0
 11
2314.946482
 21
1236.202071
 31
0.0
  0
LINE
  5
26
  8
0
 10
2338.946488
 20
1237.722762
 30
0.0
 11
2314.946482
 21
1239.202071
 31
0.0
  0
LINE
  5
27
  8
0
 10
2338.946488
 20
1238.702071
 30
0.0
 11
2314.946482
 21
1240.202071
 31
0.0
  0
LINE
  5
28
  8
0
 10
2338.946488
 20
1241.702071
 30
0.0
 11
2314.946482
 21
1243.202071
 31
0.0
  0
LINE
  5
29
  8
0
 10
2338.946488
 20
1242.681381
 30
0.0
 11
2314.946482
 21
1244.181381
 31
0.0
  0
LINE
  5
2A
  8
0
 10
2338.946488
 20
1224.452071
 30
0.0
 11
2314.946488
 21
1224.452071
 31
0.0
  0
LINE
  5
2B
  8
0
 10
2314.080456
 20
1224.452071
 30
0.0
 11
2340.425508
 21
1224.452071
 31
0.0
  0
LINE
  5
2D
  8
0
 10
2313.446482
 20
1245.452071
 30
0.0
 11
2339.812514
 21
1245.452071
 31
0.0
  0
LINE
  5
2E
  8
0
 10
2338.946488
 20
1215.452071
 30
0.0
 11
2314.946488
 21
1215.452071
 31
0.0
  0
LINE
  5
30
  8
0
 10
2314.946488
 20
1218.052071
 30
0.0
 11
2314.946488
 21
1215.452071
 31
0.0
  0
ARC
  5
31
  8
0
 10
2318.446488
 20
1219.952071
 30
0.0
 40
2.2
 50
300.272641
 51
59.727359
  0
ARC
  5
32
  8
0
 10
2318.446488
 20
1219.952071
 30
0.0
 40
2.2
 50
120.272641
 51
239.727359
  0
ARC
  5
33
  8
0
 10
2314.946482
 20
1225.702071
 30
0.0
 40
1.520691
 50
87.514275
 51
235.284996
  0
ARC
  5
34
  8
0
 10
2314.946482
 20
1229.702071
 30
0.0
 40
1.520691
 50
87.514275
 51
270.0
  0
ARC
  5
35
  8
0
 10
2314.946482
 20
1233.702071
 30
0.0
 40
1.5
 50
87.613021
 51
270.0
  0
ARC
  5
36
  8
0
 10
2314.946482
 20
1237.702071
 30
0.0
 40
1.5
 50
87.711771
 51
270.0
  0
ARC
  5
37
  8
0
 10
2314.946482
 20
1241.702071
 30
0.0
 40
1.5
 50
87.613021
 51
270.0
  0
ARC
  5
3D
  8
0
 10
2314.946482
 20
1245.702071
 30
0.0
 40
1.520691
 50
189.462322
 51
270.0
  0
LINE
  5
3E
  8
0
 10
2321.946488
 20
1224.452071
 30
0.0
 11
2321.946488
 21
1221.852071
 31
0.0
  0
LINE
  5
3F
  8
0
 10
2314.946488
 20
1224.452071
 30
0.0
 11
2314.946488
 21
1221.852071
 31
0.0
  0
LINE
  5
41
  8
0
 10
2338.946488
 20
1218.052071
 30
0.0
 11
2338.946488
 21
1215.452071
 31
0.0
  0
ARC
  5
42
  8
0
 10
2335.446488
 20
1219.952071
 30
0.0
 40
2.2
 50
120.272641
 51
239.727359
  0
ARC
  5
43
  8
0
 10
2335.446488
 20
1219.952071
 30
0.0
 40
2.2
 50
300.272641
 51
59.727359
  0
ARC
  5
44
  8
0
 10
2338.946488
 20
1228.202071
 30
0.0
 40
1.5
 50
267.711771
 51
90.0
  0
ARC
  5
45
  8
0
 10
2338.946488
 20
1232.202071
 30
0.0
 40
1.5
 50
267.613021
 51
90.0
  0
ARC
  5
46
  8
0
 10
2338.946488
 20
1236.202071
 30
0.0
 40
1.520691
 50
267.514275
 51
90.0
  0
ARC
  5
47
  8
0
 10
2338.946488
 20
1240.202071
 30
0.0
 40
1.5
 50
267.613021
 51
90.0
  0
ARC
  5
48
  8
0
 10
2338.946488
 20
1244.202071
 30
0.0
 40
1.520691
 50
267.613021
 51
55.284996
  0
ARC
  5
49
  8
0
 10
2338.946488
 20
1224.202071
 30
0.0
 40
1.5
 50
9.594068
 51
90.0
  0
LINE
  5
4F
  8
0
 10
2331.946488
 20
1224.452071
 30
0.0
 11
2331.946488
 21
1221.852071
 31
0.0
  0
LINE
  5
50
  8
0
 10
2338.946488
 20
1224.452071
 30
0.0
 11
2338.946488
 21
1221.852071
 31
0.0
  0
DIMENSION
  5
64
  8
MATEN
  2
*D0
 10
2331.946488
 20
1211.632407
 30
0.0
 11
2326.946488
 21
1211.632407
 31
0.0
 70
   128
 13
2321.946488
 23
1221.852071
 33
0.0
 14
2331.946488
 24
1221.852071
 34
0.0
1001
ACAD
1000
DSTYLE
1002
{
1070
    78
1070
     8
1070
   288
1070
     1
1070
   140
1040
2.0
1070
    74
1070
     0
1070
   172
1070
     1
1070
    73
1070
     0
1070
    77
1070
     1
1070
   147
1040
1.0
1070
    42
1040
0.625
1070
    44
1040
1.25
1070
    43
1040
3.75
1070
   271
1070
     2
1070
   141
1040
1.0
1070
   275
1070
     1
1070
    41
1040
2.0
1070
   273
1070
     8
1070
   274
1070
     4
1070
   143
1040
0.0394
1070
   171
1070
     4
1002
}
  0
LINE
  5
65
  8
0
 10
2321.446488
 20
1218.052071
 30
0.0
 11
2321.446488
 21
1215.452071
 31
0.0
  0
LINE
  5
66
  8
0
 10
2332.446488
 20
1218.052071
 30
0.0
 11
2332.446488
 21
1215.452071
 31
0.0
  0
DIMENSION
  5
9F
  8
MATEN
  2
*D1
 10
2332.446488
 20
1206.942295
 30
0.0
 11
2326.966885
 21
1206.942295
 31
0.0
 70
   128
 13
2321.446488
 23
1215.452071
 33
0.0
 14
2332.446488
 24
1215.452071
 34
0.0
1001
ACAD
1000
DSTYLE
1002
{
1070
    78
1070
     8
1070
   288
1070
     1
1070
   140
1040
2.0
1070
    74
1070
     0
1070
   172
1070
     1
1070
    73
1070
     0
1070
    77
1070
     1
1070
   147
1040
1.0
1070
    42
1040
0.625
1070
    44
1040
1.25
1070
    43
1040
3.75
1070
   271
1070
     2
1070
   141
1040
1.0
1070
   275
1070
     1
1070
    41
1040
2.0
1070
   273
1070
     8
1070
   274
1070
     4
1070
   143
1040
0.0394
1070
   171
1070
     4
1002
}
  0
DIMENSION
  5
AC
  8
MATEN
  2
*D2
 10
2338.946488
 20
1201.974073
 30
0.0
 11
2327.464638
 21
1201.974073
 31
0.0
 70
   128
 13
2314.946488
 23
1215.452071
 33
0.0
 14
2338.946488
 24
1215.452071
 34
0.0
1001
ACAD
1000
DSTYLE
1002
{
1070
    78
1070
     8
1070
   288
1070
     1
1070
   140
1040
2.0
1070
    74
1070
     0
1070
   172
1070
     1
1070
    73
1070
     0
1070
    77
1070
     1
1070
   147
1040
1.0
1070
    42
1040
0.625
1070
    44
1040
1.25
1070
    43
1040
3.75
1070
   271
1070
     2
1070
   141
1040
1.0
1070
   275
1070
     1
1070
    41
1040
2.0
1070
   273
1070
     8
1070
   274
1070
     4
1070
   143
1040
0.0394
1070
   171
1070
     4
1002
}
  0
LINE
  5
B8
  8
0
 10
2338.913644
 20
1242.681735
 30
0.0
 11
2314.978816
 21
1243.198801
 31
0.0
  0
LINE
  5
B9
  8
0
 10
2338.759718
 20
1238.713744
 30
0.0
 11
2315.130695
 21
1239.190717
 31
0.0
  0
LINE
  5
BA
  8
0
 10
2338.946488
 20
1234.681381
 30
0.0
 11
2315.133252
 21
1235.190398
 31
0.0
  0
LINE
  5
BB
  8
0
 10
2338.946488
 20
1230.702071
 30
0.0
 11
2315.138419
 21
1231.2106
 31
0.0
  0
LINE
  5
BC
  8
0
 10
2338.762275
 20
1226.713426
 30
0.0
 11
2315.138419
 21
1227.2106
 31
0.0
  0
DIMENSION
  5
C9
  8
MATEN
  2
*D3
 10
2345.984632
 20
1215.452071
 30
0.0
 11
2345.984632
 21
1219.885917
 31
0.0
 70
   128
 13
2340.425508
 23
1224.452071
 33
0.0
 14
2338.946488
 24
1215.452071
 34
0.0
 50
90.0
1001
ACAD
1000
DSTYLE
1002
{
1070
    78
1070
     8
1070
   288
1070
     1
1070
   140
1040
2.0
1070
    74
1070
     0
1070
   172
1070
     1
1070
    73
1070
     0
1070
    77
1070
     1
1070
   147
1040
1.0
1070
    42
1040
0.625
1070
    44
1040
1.25
1070
    43
1040
3.75
1070
   271
1070
     2
1070
   141
1040
1.0
1070
   275
1070
     1
1070
    41
1040
2.0
1070
   273
1070
     8
1070
   274
1070
     4
1070
   143
1040
0.0394
1070
   171
1070
     4
1002
}
  0
DIMENSION
  5
D6
  8
MATEN
  2
*D4
 10
2340.467179
 20
1253.358736
 30
0.0
 11
2327.453071
 21
1253.358736
 31
0.0
 70
   128
 13
2313.446482
 23
1245.452071
 33
0.0
 14
2340.467179
 24
1244.202071
 34
0.0
1001
ACAD
1000
DSTYLE
1002
{
1070
    78
1070
     8
1070
   288
1070
     1
1070
   140
1040
2.0
1070
    74
1070
     0
1070
   172
1070
     1
1070
    73
1070
     0
1070
    77
1070
     1
1070
   147
1040
1.0
1070
    42
1040
0.625
1070
    44
1040
1.25
1070
    43
1040
3.75
1070
   271
1070
     2
1070
   141
1040
1.0
1070
   275
1070
     1
1070
    41
1040
2.0
1070
   273
1070
     8
1070
   274
1070
     4
1070
   143
1040
0.0394
1070
   171
1070
     4
1002
}
  0
DIMENSION
  5
E5
  8
MATEN
  2
*D5
 10
2337.429172
 20
1248.560963
 30
0.0
 11
2327.564707
 21
1248.560963
 31
0.0
 70
   128
 13
2316.467172
 23
1245.702071
 33
0.0
 14
2337.429172
 24
1244.303319
 34
0.0
1001
ACAD
1000
DSTYLE
1002
{
1070
    78
1070
     8
1070
   288
1070
     1
1070
   140
1040
2.0
1070
    74
1070
     0
1070
   172
1070
     1
1070
    73
1070
     0
1070
    77
1070
     1
1070
   147
1040
1.0
1070
    42
1040
0.625
1070
    44
1040
1.25
1070
    43
1040
3.75
1070
   271
1070
     2
1070
   141
1040
1.0
1070
   275
1070
     1
1070
    41
1040
2.0
1070
   273
1070
     8
1070
   274
1070
     4
1070
   143
1040
0.0394
1070
   171
1070
     4
1002
}
  0
DIMENSION
  5
F2
  8
MATEN
  2
*D6
 10
2306.682838
 20
1245.452071
 30
0.0
 11
2306.682838
 21
1233.858404
 31
0.0
 70
   128
 13
2314.080456
 23
1224.452071
 33
0.0
 14
2313.446482
 24
1245.452071
 34
0.0
 50
90.0
1001
ACAD
1000
DSTYLE
1002
{
1070
    78
1070
     8
1070
   288
1070
     1
1070
   140
1040
2.0
1070
    74
1070
     0
1070
   172
1070
     1
1070
    73
1070
     0
1070
    77
1070
     1
1070
   147
1040
1.0
1070
    42
1040
0.625
1070
    44
1040
1.25
1070
    43
1040
3.75
1070
   271
1070
     2
1070
   141
1040
1.0
1070
   275
1070
     1
1070
    41
1040
2.0
1070
   273
1070
     8
1070
   274
1070
     4
1070
   143
1040
0.0394
1070
   171
1070
     4
1002
}
  0
ENDSEC
  0
EOF
