  0
SECTION
  2
HEADER
  9
$ACADVER
  1
AC1009
  9
$INSBASE
 10
0.0
 20
0.0
 30
0.0
  9
$EXTMIN
 10
-139.824394
 20
-62.733874
 30
0.0
  9
$EXTMAX
 10
371.895808
 20
183.607835
 30
0.0
  9
$LIMMIN
 10
0.0
 20
0.0
  9
$LIMMAX
 10
420.0
 20
297.0
  9
$ORTHOMODE
 70
     1
  9
$REGENMODE
 70
     1
  9
$FILLMODE
 70
     1
  9
$QTEXTMODE
 70
     0
  9
$MIRRTEXT
 70
     1
  9
$DRAGMODE
 70
     2
  9
$LTSCALE
 40
0.5
  9
$OSMODE
 70
   191
  9
$ATTMODE
 70
     1
  9
$TEXTSIZE
 40
2.5
  9
$TRACEWID
 40
1.0
  9
$TEXTSTYLE
  7
STANDARD
  9
$CLAYER
  8
0
  9
$CELTYPE
  6
BYLAYER
  9
$CECOLOR
 62
   256
  9
$DIMSCALE
 40
0.0
  9
$DIMASZ
 40
2.0
  9
$DIMEXO
 40
0.625
  9
$DIMDLI
 40
3.75
  9
$DIMRND
 40
0.0
  9
$DIMDLE
 40
0.0
  9
$DIMEXE
 40
1.25
  9
$DIMTP
 40
0.0
  9
$DIMTM
 40
0.0
  9
$DIMTXT
 40
2.0
  9
$DIMCEN
 40
1.0
  9
$DIMTSZ
 40
0.0
  9
$DIMTOL
 70
     0
  9
$DIMLIM
 70
     0
  9
$DIMTIH
 70
     0
  9
$DIMTOH
 70
     0
  9
$DIMSE1
 70
     0
  9
$DIMSE2
 70
     0
  9
$DIMTAD
 70
     1
  9
$DIMZIN
 70
     8
  9
$DIMBLK
  1

  9
$DIMASO
 70
     1
  9
$DIMSHO
 70
     1
  9
$DIMPOST
  1

  9
$DIMAPOST
  1

  9
$DIMALT
 70
     0
  9
$DIMALTD
 70
     4
  9
$DIMALTF
 40
0.0394
  9
$DIMLFAC
 40
1.0
  9
$DIMTOFL
 70
     1
  9
$DIMTVP
 40
0.0
  9
$DIMTIX
 70
     0
  9
$DIMSOXD
 70
     0
  9
$DIMSAH
 70
     0
  9
$DIMBLK1
  1

  9
$DIMBLK2
  1

  9
$DIMSTYLE
  2
STANDARD
  9
$DIMCLRD
 70
     0
  9
$DIMCLRE
 70
     0
  9
$DIMCLRT
 70
     0
  9
$DIMTFAC
 40
1.0
  9
$DIMGAP
 40
1.0
  9
$LUNITS
 70
     2
  9
$LUPREC
 70
     4
  9
$SKETCHINC
 40
1.0
  9
$FILLETRAD
 40
0.1
  9
$AUNITS
 70
     0
  9
$AUPREC
 70
     0
  9
$MENU
  1
acad
  9
$ELEVATION
 40
0.0
  9
$PELEVATION
 40
0.0
  9
$THICKNESS
 40
0.0
  9
$LIMCHECK
 70
     0
  9
$BLIPMODE
 70
     0
  9
$CHAMFERA
 40
0.0
  9
$CHAMFERB
 40
0.0
  9
$SKPOLY
 70
     0
  9
$TDCREATE
 40
2451801.38001
  9
$TDUPDATE
 40
2451886.599237
  9
$TDINDWG
 40
3.715627
  9
$TDUSRTIMER
 40
3.715627
  9
$USRTIMER
 70
     1
  9
$ANGBASE
 50
0.0
  9
$ANGDIR
 70
     0
  9
$PDMODE
 70
     0
  9
$PDSIZE
 40
0.0
  9
$PLINEWID
 40
0.0
  9
$COORDS
 70
     1
  9
$SPLFRAME
 70
     0
  9
$SPLINETYPE
 70
     6
  9
$SPLINESEGS
 70
     8
  9
$ATTDIA
 70
     0
  9
$ATTREQ
 70
     1
  9
$HANDLING
 70
     1
  9
$HANDSEED
  5
CC7
  9
$SURFTAB1
 70
     6
  9
$SURFTAB2
 70
     6
  9
$SURFTYPE
 70
     6
  9
$SURFU
 70
     6
  9
$SURFV
 70
     6
  9
$UCSNAME
  2

  9
$UCSORG
 10
0.0
 20
0.0
 30
0.0
  9
$UCSXDIR
 10
1.0
 20
0.0
 30
0.0
  9
$UCSYDIR
 10
0.0
 20
1.0
 30
0.0
  9
$PUCSNAME
  2

  9
$PUCSORG
 10
0.0
 20
0.0
 30
0.0
  9
$PUCSXDIR
 10
1.0
 20
0.0
 30
0.0
  9
$PUCSYDIR
 10
0.0
 20
1.0
 30
0.0
  9
$USERI1
 70
     0
  9
$USERI2
 70
     0
  9
$USERI3
 70
     0
  9
$USERI4
 70
     0
  9
$USERI5
 70
     0
  9
$USERR1
 40
0.0
  9
$USERR2
 40
0.0
  9
$USERR3
 40
0.0
  9
$USERR4
 40
0.0
  9
$USERR5
 40
0.0
  9
$WORLDVIEW
 70
     1
  9
$SHADEDGE
 70
     3
  9
$SHADEDIF
 70
    70
  9
$TILEMODE
 70
     1
  9
$MAXACTVP
 70
    48
  9
$PLIMCHECK
 70
     0
  9
$PEXTMIN
 10
1.000000E+020
 20
1.000000E+020
 30
1.000000E+020
  9
$PEXTMAX
 10
-1.000000E+020
 20
-1.000000E+020
 30
-1.000000E+020
  9
$PLIMMIN
 10
0.0
 20
0.0
  9
$PLIMMAX
 10
420.0
 20
297.0
  9
$UNITMODE
 70
     0
  9
$VISRETAIN
 70
     1
  9
$PLINEGEN
 70
     0
  9
$PSLTSCALE
 70
     1
  0
ENDSEC
  0
SECTION
  2
TABLES
  0
TABLE
  2
VPORT
 70
     2
  0
VPORT
  2
*ACTIVE
 70
     0
 10
0.0
 20
0.0
 11
1.0
 21
1.0
 12
115.932904
 22
53.933914
 13
0.0
 23
0.0
 14
10.0
 24
10.0
 15
25.0
 25
25.0
 16
0.0
 26
0.0
 36
1.0
 17
0.0
 27
0.0
 37
0.0
 40
356.120136
 41
1.700368
 42
50.0
 43
0.0
 44
0.0
 50
0.0
 51
0.0
 71
     0
 72
   100
 73
     1
 74
     1
 75
     0
 76
     0
 77
     0
 78
     0
  0
ENDTAB
  0
TABLE
  2
LTYPE
 70
     3
  0
LTYPE
  2
CONTINUOUS
 70
     0
  3
Solid line
 72
    65
 73
     0
 40
0.0
  0
LTYPE
  2
ACAD_ISO02W100
 70
     0
  3
ISO dash __ __ __ __ __ __ __ __ __ __ __ __ __
 72
    65
 73
     2
 40
15.0
 49
12.0
 49
-3.0
  0
LTYPE
  2
CENTER2
 70
     0
  3
Center (.5x) ___ _ ___ _ ___ _ ___ _ ___ _ ___
 72
    65
 73
     4
 40
1.125
 49
0.75
 49
-0.125
 49
0.125
 49
-0.125
  0
ENDTAB
  0
TABLE
  2
LAYER
 70
     3
  0
LAYER
  2
0
 70
     0
 62
     7
  6
CONTINUOUS
  0
LAYER
  2
MATEN
 70
     0
 62
     1
  6
CONTINUOUS
  0
LAYER
  2
DEFPOINTS
 70
     0
 62
     7
  6
CONTINUOUS
  0
ENDTAB
  0
TABLE
  2
STYLE
 70
     1
  0
STYLE
  2
STANDARD
 70
     0
 40
0.0
 41
1.0
 50
0.0
 71
     0
 42
2.5
  3
txt
  4

  0
ENDTAB
  0
TABLE
  2
VIEW
 70
     0
  0
ENDTAB
  0
TABLE
  2
UCS
 70
     0
  0
ENDTAB
  0
TABLE
  2
APPID
 70
     1
  0
APPID
  2
ACAD
 70
     0
  0
ENDTAB
  0
TABLE
  2
DIMSTYLE
 70
     1
  0
DIMSTYLE
  2
STANDARD
 70
     0
  3

  4

  5

  6

  7

 40
1.0
 41
0.18
 42
0.0625
 43
0.38
 44
0.18
 45
0.0
 46
0.0
 47
0.0
 48
0.0
140
0.18
141
0.09
142
0.0
143
25.4
144
1.0
145
0.0
146
1.0
147
0.09
 71
     0
 72
     0
 73
     1
 74
     1
 75
     0
 76
     0
 77
     0
 78
     0
170
     0
171
     2
172
     0
173
     0
174
     0
175
     0
176
     0
177
     0
178
     0
  0
ENDTAB
  0
ENDSEC
  0
SECTION
  2
BLOCKS
  0
BLOCK
  8
0
  2
$MODEL_SPACE
 70
     0
 10
0.0
 20
0.0
 30
0.0
  3
$MODEL_SPACE
  1

  0
ENDBLK
  5
6
  8
0
  0
BLOCK
 67
     1
  8
0
  2
$PAPER_SPACE
 70
     0
 10
0.0
 20
0.0
 30
0.0
  3
$PAPER_SPACE
  1

  0
ENDBLK
  5
9
 67
     1
  8
0
  0
BLOCK
  8
0
  2
*D0
 70
     1
 10
0.0
 20
0.0
 30
0.0
  3
*D0
  1

  0
LINE
  5
9C9
  8
0
  6
BYBLOCK
 62
     0
 10
152.790495
 20
-6.4835
 30
0.0
 11
152.790495
 21
-20.566293
 31
0.0
  0
LINE
  5
9CA
  8
0
  6
BYBLOCK
 62
     0
 10
183.190495
 20
-6.4835
 30
0.0
 11
183.190495
 21
-20.566293
 31
0.0
  0
LINE
  5
9CB
  8
0
  6
BYBLOCK
 62
     0
 10
154.790495
 20
-19.316293
 30
0.0
 11
181.190495
 21
-19.316293
 31
0.0
  0
SOLID
  5
9CC
  8
0
  6
BYBLOCK
 62
     0
 10
154.790495
 20
-18.98296
 30
0.0
 11
154.790495
 21
-19.649627
 31
0.0
 12
152.790495
 22
-19.316293
 32
0.0
 13
152.790495
 23
-19.316293
 33
0.0
  0
SOLID
  5
9CD
  8
0
  6
BYBLOCK
 62
     0
 10
181.190495
 20
-18.98296
 30
0.0
 11
181.190495
 21
-19.649627
 31
0.0
 12
183.190495
 22
-19.316293
 32
0.0
 13
183.190495
 23
-19.316293
 33
0.0
  0
TEXT
  8
0
  40
2
  5
CAA
  62
0
  72
0
  71
0
 10
164.938
 20
-20.8563
 30
0.000000
  1
30.4
  0
POINT
  5
9CF
  8
DEFPOINTS
  6
BYBLOCK
 62
     0
 10
152.790495
 20
-5.8585
 30
0.0
  0
POINT
  5
9D0
  8
DEFPOINTS
  6
BYBLOCK
 62
     0
 10
183.190495
 20
-5.8585
 30
0.0
  0
POINT
  5
9D1
  8
DEFPOINTS
  6
BYBLOCK
 62
     0
 10
183.190495
 20
-19.316293
 30
0.0
  0
ENDBLK
  5
9D2
  8
0
  0
BLOCK
  8
0
  2
*D1
 70
     1
 10
0.0
 20
0.0
 30
0.0
  3
*D1
  1

  0
LINE
  5
9D4
  8
0
  6
BYBLOCK
 62
     0
 10
183.815495
 20
24.8415
 30
0.0
 11
193.548236
 21
24.8415
 31
0.0
  0
LINE
  5
9D5
  8
0
  6
BYBLOCK
 62
     0
 10
183.815495
 20
-5.8585
 30
0.0
 11
193.548236
 21
-5.8585
 31
0.0
  0
LINE
  5
9D6
  8
0
  6
BYBLOCK
 62
     0
 10
192.298236
 20
22.8415
 30
0.0
 11
192.298236
 21
-3.8585
 31
0.0
  0
SOLID
  5
9D7
  8
0
  6
BYBLOCK
 62
     0
 10
191.964903
 20
22.8415
 30
0.0
 11
192.63157
 21
22.8415
 31
0.0
 12
192.298236
 22
24.8415
 32
0.0
 13
192.298236
 23
24.8415
 33
0.0
  0
SOLID
  5
9D8
  8
0
  6
BYBLOCK
 62
     0
 10
191.964903
 20
-3.8585
 30
0.0
 11
192.63157
 21
-3.8585
 31
0.0
 12
192.298236
 22
-5.8585
 32
0.0
 13
192.298236
 23
-5.8585
 33
0.0
  0
TEXT
  8
0
  40
2
  5
CAB
  62
0
  72
0
  71
0
 10
186.298
 20
6.21796
 30
0.000000
  1
30.7
  0
POINT
  5
9DA
  8
DEFPOINTS
  6
BYBLOCK
 62
     0
 10
183.190495
 20
24.8415
 30
0.0
  0
POINT
  5
9DB
  8
DEFPOINTS
  6
BYBLOCK
 62
     0
 10
183.190495
 20
-5.8585
 30
0.0
  0
POINT
  5
9DC
  8
DEFPOINTS
  6
BYBLOCK
 62
     0
 10
192.298236
 20
-5.8585
 30
0.0
  0
ENDBLK
  5
9DD
  8
0
  0
BLOCK
  8
0
  2
*D2
 70
     1
 10
0.0
 20
0.0
 30
0.0
  3
*D2
  1

  0
LINE
  5
9F2
  8
0
  6
BYBLOCK
 62
     0
 10
39.547886
 20
-5.8385
 30
0.0
 11
52.9204
 21
-5.8385
 31
0.0
  0
LINE
  5
9F3
  8
0
  6
BYBLOCK
 62
     0
 10
39.547886
 20
1.4915
 30
0.0
 11
52.9204
 21
1.4915
 31
0.0
  0
LINE
  5
9F4
  8
0
  6
BYBLOCK
 62
     0
 10
51.6704
 20
-3.8385
 30
0.0
 11
51.6704
 21
-0.5085
 31
0.0
  0
LINE
  5
9F5
  8
0
  6
BYBLOCK
 62
     0
 10
51.6704
 20
1.4915
 30
0.0
 11
51.6704
 21
43.4915
 31
0.0
  0
SOLID
  5
9F6
  8
0
  6
BYBLOCK
 62
     0
 10
51.337067
 20
-3.8385
 30
0.0
 11
52.003733
 21
-3.8385
 31
0.0
 12
51.6704
 22
-5.8385
 32
0.0
 13
51.6704
 23
-5.8385
 33
0.0
  0
SOLID
  5
9F7
  8
0
  6
BYBLOCK
 62
     0
 10
51.337067
 20
-0.5085
 30
0.0
 11
52.003733
 21
-0.5085
 31
0.0
 12
51.6704
 22
1.4915
 32
0.0
 13
51.6704
 23
1.4915
 33
0.0
  0
TEXT
  8
0
  40
2
  5
CAC
  62
0
  72
0
  71
0
 10
45.6704
 20
19.9515
 30
0.000000
  1
7.33 Onderkant Draad
  0
POINT
  5
9F9
  8
DEFPOINTS
  6
BYBLOCK
 62
     0
 10
38.922886
 20
-5.8385
 30
0.0
  0
POINT
  5
9FA
  8
DEFPOINTS
  6
BYBLOCK
 62
     0
 10
38.922886
 20
1.4915
 30
0.0
  0
POINT
  5
9FB
  8
DEFPOINTS
  6
BYBLOCK
 62
     0
 10
51.6704
 20
1.4915
 30
0.0
  0
ENDBLK
  5
9FC
  8
0
  0
BLOCK
  8
0
  2
*D3
 70
     1
 10
0.0
 20
0.0
 30
0.0
  3
*D3
  1

  0
LINE
  5
C22
  8
0
  6
BYBLOCK
 62
     0
 10
8.115005
 20
-4.8385
 30
0.0
 11
25.34113
 21
-4.8385
 31
0.0
  0
LINE
  5
C23
  8
0
  6
BYBLOCK
 62
     0
 10
8.115005
 20
-5.8585
 30
0.0
 11
25.34113
 21
-5.8585
 31
0.0
  0
LINE
  5
C24
  8
0
  6
BYBLOCK
 62
     0
 10
24.09113
 20
-2.8385
 30
0.0
 11
24.09113
 21
-0.8385
 31
0.0
  0
LINE
  5
C25
  8
0
  6
BYBLOCK
 62
     0
 10
24.09113
 20
-7.8585
 30
0.0
 11
24.09113
 21
-16.8585
 31
0.0
  0
LINE
  5
C26
  8
0
  6
BYBLOCK
 62
     0
 10
24.09113
 20
-4.8385
 30
0.0
 11
24.09113
 21
-5.8585
 31
0.0
  0
SOLID
  5
C27
  8
0
  6
BYBLOCK
 62
     0
 10
23.757797
 20
-2.8385
 30
0.0
 11
24.424463
 21
-2.8385
 31
0.0
 12
24.09113
 22
-4.8385
 32
0.0
 13
24.09113
 23
-4.8385
 33
0.0
  0
SOLID
  5
C28
  8
0
  6
BYBLOCK
 62
     0
 10
23.757797
 20
-7.8585
 30
0.0
 11
24.424463
 21
-7.8585
 31
0.0
 12
24.09113
 22
-5.8585
 32
0.0
 13
24.09113
 23
-5.8585
 33
0.0
  0
TEXT
  8
0
  40
2
  5
CAD
  62
0
  72
0
  71
0
 10
18.0911
 20
-16.8985
 30
0.000000
  1
1.02
  0
POINT
  5
C2A
  8
DEFPOINTS
  6
BYBLOCK
 62
     0
 10
7.490005
 20
-4.8385
 30
0.0
  0
POINT
  5
C2B
  8
DEFPOINTS
  6
BYBLOCK
 62
     0
 10
7.490005
 20
-5.8585
 30
0.0
  0
POINT
  5
C2C
  8
DEFPOINTS
  6
BYBLOCK
 62
     0
 10
24.09113
 20
-5.8585
 30
0.0
  0
ENDBLK
  5
C2D
  8
0
  0
BLOCK
  8
0
  2
*D4
 70
     1
 10
0.0
 20
0.0
 30
0.0
  3
*D4
  1

  0
LINE
  5
838
  8
0
  6
BYBLOCK
 62
     0
 10
-4.155702
 20
20.1165
 30
0.0
 11
-4.155702
 21
27.611122
 31
0.0
  0
LINE
  5
839
  8
0
  6
BYBLOCK
 62
     0
 10
-7.859995
 20
10.1165
 30
0.0
 11
-7.859995
 21
27.611122
 31
0.0
  0
LINE
  5
83A
  8
0
  6
BYBLOCK
 62
     0
 10
-2.155702
 20
26.361122
 30
0.0
 11
-0.155702
 21
26.361122
 31
0.0
  0
LINE
  5
83B
  8
0
  6
BYBLOCK
 62
     0
 10
-9.859995
 20
26.361122
 30
0.0
 11
-11.859995
 21
26.361122
 31
0.0
  0
LINE
  5
83C
  8
0
  6
BYBLOCK
 62
     0
 10
-4.155702
 20
26.361122
 30
0.0
 11
-7.859995
 21
26.361122
 31
0.0
  0
SOLID
  5
83D
  8
0
  6
BYBLOCK
 62
     0
 10
-2.155702
 20
26.694455
 30
0.0
 11
-2.155702
 21
26.027789
 31
0.0
 12
-4.155702
 22
26.361122
 32
0.0
 13
-4.155702
 23
26.361122
 33
0.0
  0
SOLID
  5
83E
  8
0
  6
BYBLOCK
 62
     0
 10
-9.859995
 20
26.694455
 30
0.0
 11
-9.859995
 21
26.027789
 31
0.0
 12
-7.859995
 22
26.361122
 32
0.0
 13
-7.859995
 23
26.361122
 33
0.0
  0
TEXT
  8
0
  40
2
  5
CAE
  62
0
  72
0
  71
0
 10
-10.0078
 20
24.8211
 30
0.000000
  1
3.7
  0
POINT
  5
840
  8
DEFPOINTS
  6
BYBLOCK
 62
     0
 10
-4.155702
 20
19.4915
 30
0.0
  0
POINT
  5
841
  8
DEFPOINTS
  6
BYBLOCK
 62
     0
 10
-7.859995
 20
9.4915
 30
0.0
  0
POINT
  5
842
  8
DEFPOINTS
  6
BYBLOCK
 62
     0
 10
-7.859995
 20
26.361122
 30
0.0
  0
ENDBLK
  5
843
  8
0
  0
BLOCK
  8
0
  2
*D5
 70
     1
 10
0.0
 20
0.0
 30
0.0
  3
*D5
  1

  0
LINE
  5
A2E
  8
0
  6
BYBLOCK
 62
     0
 10
29.901432
 20
-26.4635
 30
0.0
 11
29.901432
 21
-33.885403
 31
0.0
  0
LINE
  5
A2F
  8
0
  6
BYBLOCK
 62
     0
 10
35.901432
 20
-26.4635
 30
0.0
 11
35.901432
 21
-33.885403
 31
0.0
  0
LINE
  5
A30
  8
0
  6
BYBLOCK
 62
     0
 10
31.901432
 20
-32.635403
 30
0.0
 11
33.901432
 21
-32.635403
 31
0.0
  0
SOLID
  5
A31
  8
0
  6
BYBLOCK
 62
     0
 10
31.901432
 20
-32.30207
 30
0.0
 11
31.901432
 21
-32.968736
 31
0.0
 12
29.901432
 22
-32.635403
 32
0.0
 13
29.901432
 23
-32.635403
 33
0.0
  0
SOLID
  5
A32
  8
0
  6
BYBLOCK
 62
     0
 10
33.901432
 20
-32.30207
 30
0.0
 11
33.901432
 21
-32.968736
 31
0.0
 12
35.901432
 22
-32.635403
 32
0.0
 13
35.901432
 23
-32.635403
 33
0.0
  0
TEXT
  8
0
  40
2
  5
CAF
  62
0
  72
0
  71
0
 10
28.9014
 20
-34.1754
 30
0.000000
  1
M6
  0
POINT
  5
A34
  8
DEFPOINTS
  6
BYBLOCK
 62
     0
 10
29.901432
 20
-25.8385
 30
0.0
  0
POINT
  5
A35
  8
DEFPOINTS
  6
BYBLOCK
 62
     0
 10
35.901432
 20
-25.8385
 30
0.0
  0
POINT
  5
A36
  8
DEFPOINTS
  6
BYBLOCK
 62
     0
 10
35.901432
 20
-32.635403
 30
0.0
  0
ENDBLK
  5
A37
  8
0
  0
BLOCK
  8
0
  2
*D6
 70
     1
 10
0.0
 20
0.0
 30
0.0
  3
*D6
  1

  0
LINE
  5
A5A
  8
0
  6
BYBLOCK
 62
     0
 10
193.110315
 20
156.521295
 30
0.0
 11
203.652119
 21
156.521295
 31
0.0
  0
LINE
  5
A5B
  8
0
  6
BYBLOCK
 62
     0
 10
147.566066
 20
76.521295
 30
0.0
 11
203.652119
 21
76.521295
 31
0.0
  0
LINE
  5
A5C
  8
0
  6
BYBLOCK
 62
     0
 10
202.402119
 20
154.521295
 30
0.0
 11
202.402119
 21
78.521295
 31
0.0
  0
SOLID
  5
A5D
  8
0
  6
BYBLOCK
 62
     0
 10
202.068786
 20
154.521295
 30
0.0
 11
202.735452
 21
154.521295
 31
0.0
 12
202.402119
 22
156.521295
 32
0.0
 13
202.402119
 23
156.521295
 33
0.0
  0
SOLID
  5
A5E
  8
0
  6
BYBLOCK
 62
     0
 10
202.068786
 20
78.521295
 30
0.0
 11
202.735452
 21
78.521295
 31
0.0
 12
202.402119
 22
76.521295
 32
0.0
 13
202.402119
 23
76.521295
 33
0.0
  0
TEXT
  8
0
  40
2
  5
CB0
  62
0
  72
0
  71
0
 10
196.402
 20
108.352
 30
0.000000
  1
80
  0
POINT
  5
A60
  8
DEFPOINTS
  6
BYBLOCK
 62
     0
 10
192.485315
 20
156.521295
 30
0.0
  0
POINT
  5
A61
  8
DEFPOINTS
  6
BYBLOCK
 62
     0
 10
146.941066
 20
76.521295
 30
0.0
  0
POINT
  5
A62
  8
DEFPOINTS
  6
BYBLOCK
 62
     0
 10
202.402119
 20
76.521295
 30
0.0
  0
ENDBLK
  5
A63
  8
0
  0
BLOCK
  8
0
  2
*D7
 70
     1
 10
0.0
 20
0.0
 30
0.0
  3
*D7
  1

  0
LINE
  5
A67
  8
0
  6
BYBLOCK
 62
     0
 10
113.829354
 20
-5.8385
 30
0.0
 11
131.08366
 21
-5.8385
 31
0.0
  0
LINE
  5
A68
  8
0
  6
BYBLOCK
 62
     0
 10
98.61937
 20
-25.8385
 30
0.0
 11
131.08366
 21
-25.8385
 31
0.0
  0
LINE
  5
A69
  8
0
  6
BYBLOCK
 62
     0
 10
129.83366
 20
-7.8385
 30
0.0
 11
129.83366
 21
-23.8385
 31
0.0
  0
SOLID
  5
A6A
  8
0
  6
BYBLOCK
 62
     0
 10
129.500327
 20
-7.8385
 30
0.0
 11
130.166993
 21
-7.8385
 31
0.0
 12
129.83366
 22
-5.8385
 32
0.0
 13
129.83366
 23
-5.8385
 33
0.0
  0
SOLID
  5
A6B
  8
0
  6
BYBLOCK
 62
     0
 10
129.500327
 20
-23.8385
 30
0.0
 11
130.166993
 21
-23.8385
 31
0.0
 12
129.83366
 22
-25.8385
 32
0.0
 13
129.83366
 23
-25.8385
 33
0.0
  0
TEXT
  8
0
  40
2
  5
CB1
  62
0
  72
0
  71
0
 10
123.834
 20
-22.7651
 30
0.000000
  1
20
  0
POINT
  5
A6D
  8
DEFPOINTS
  6
BYBLOCK
 62
     0
 10
113.204354
 20
-5.8385
 30
0.0
  0
POINT
  5
A6E
  8
DEFPOINTS
  6
BYBLOCK
 62
     0
 10
97.99437
 20
-25.8385
 30
0.0
  0
POINT
  5
A6F
  8
DEFPOINTS
  6
BYBLOCK
 62
     0
 10
129.83366
 20
-25.8385
 30
0.0
  0
ENDBLK
  5
A70
  8
0
  0
BLOCK
  8
0
  2
*D8
 70
     1
 10
0.0
 20
0.0
 30
0.0
  3
*D8
  1

  0
LINE
  5
A81
  8
0
  6
BYBLOCK
 62
     0
 10
204.709363
 20
20.1165
 30
0.0
 11
204.709363
 21
35.856254
 31
0.0
  0
LINE
  5
A82
  8
0
  6
BYBLOCK
 62
     0
 10
228.000778
 20
20.1165
 30
0.0
 11
228.000778
 21
35.856254
 31
0.0
  0
LINE
  5
A83
  8
0
  6
BYBLOCK
 62
     0
 10
206.709363
 20
34.606254
 30
0.0
 11
226.000778
 21
34.606254
 31
0.0
  0
SOLID
  5
A84
  8
0
  6
BYBLOCK
 62
     0
 10
206.709363
 20
34.939588
 30
0.0
 11
206.709363
 21
34.272921
 31
0.0
 12
204.709363
 22
34.606254
 32
0.0
 13
204.709363
 23
34.606254
 33
0.0
  0
SOLID
  5
A85
  8
0
  6
BYBLOCK
 62
     0
 10
226.000778
 20
34.939588
 30
0.0
 11
226.000778
 21
34.272921
 31
0.0
 12
228.000778
 22
34.606254
 32
0.0
 13
228.000778
 23
34.606254
 33
0.0
  0
TEXT
  8
0
  40
2
  5
CB2
  62
0
  72
0
  71
0
 10
211.753
 20
33.0663
 30
0.000000
  1
23.29
  0
POINT
  5
A87
  8
DEFPOINTS
  6
BYBLOCK
 62
     0
 10
204.709363
 20
19.4915
 30
0.0
  0
POINT
  5
A88
  8
DEFPOINTS
  6
BYBLOCK
 62
     0
 10
228.000778
 20
19.4915
 30
0.0
  0
POINT
  5
A89
  8
DEFPOINTS
  6
BYBLOCK
 62
     0
 10
228.000778
 20
34.606254
 30
0.0
  0
ENDBLK
  5
A8A
  8
0
  0
BLOCK
  8
0
  2
*D9
 70
     1
 10
0.0
 20
0.0
 30
0.0
  3
*D9
  1

  0
LINE
  5
A8E
  8
0
  6
BYBLOCK
 62
     0
 10
216.98007
 20
9.4915
 30
0.0
 11
241.47959
 21
9.4915
 31
0.0
  0
LINE
  5
A8F
  8
0
  6
BYBLOCK
 62
     0
 10
222.482215
 20
-4.8385
 30
0.0
 11
241.47959
 21
-4.8385
 31
0.0
  0
LINE
  5
A90
  8
0
  6
BYBLOCK
 62
     0
 10
240.22959
 20
7.4915
 30
0.0
 11
240.22959
 21
-2.8385
 31
0.0
  0
SOLID
  5
A91
  8
0
  6
BYBLOCK
 62
     0
 10
239.896256
 20
7.4915
 30
0.0
 11
240.562923
 21
7.4915
 31
0.0
 12
240.22959
 22
9.4915
 32
0.0
 13
240.22959
 23
9.4915
 33
0.0
  0
SOLID
  5
A92
  8
0
  6
BYBLOCK
 62
     0
 10
239.896256
 20
-2.8385
 30
0.0
 11
240.562923
 21
-2.8385
 31
0.0
 12
240.22959
 22
-4.8385
 32
0.0
 13
240.22959
 23
-4.8385
 33
0.0
  0
TEXT
  8
0
  40
2
  5
CB3
  62
0
  72
0
  71
0
 10
234.230
 20
-1.68664
 30
0.000000
  1
14.33
  0
POINT
  5
A94
  8
DEFPOINTS
  6
BYBLOCK
 62
     0
 10
216.35507
 20
9.4915
 30
0.0
  0
POINT
  5
A95
  8
DEFPOINTS
  6
BYBLOCK
 62
     0
 10
221.857215
 20
-4.8385
 30
0.0
  0
POINT
  5
A96
  8
DEFPOINTS
  6
BYBLOCK
 62
     0
 10
240.22959
 20
-4.8385
 30
0.0
  0
ENDBLK
  5
A97
  8
0
  0
BLOCK
  8
0
  2
*D10
 70
     1
 10
0.0
 20
0.0
 30
0.0
  3
*D10
  1

  0
LINE
  5
A9B
  8
0
  6
BYBLOCK
 62
     0
 10
240.617719
 20
30.889114
 30
0.0
 11
229.367579
 21
20.967437
 31
0.0
  0
LINE
  5
A9C
  8
0
  6
BYBLOCK
 62
     0
 10
203.342562
 20
-1.984437
 30
0.0
 11
201.842561
 21
-3.307311
 31
0.0
  0
TEXT
  8
0
  40
2
  5
CB4
  62
0
  72
0
  71
0
 10
231.670
 20
25.6522
 30
0.000000
  1
%%c30.7
  0
LINE
  5
A9E
  8
0
  6
BYBLOCK
 62
     0
 10
204.842563
 20
-0.661562
 30
0.0
 11
227.867578
 21
19.644562
 31
0.0
  0
SOLID
  5
A9F
  8
0
  6
BYBLOCK
 62
     0
 10
203.122083
 20
-1.734436
 30
0.0
 11
203.563041
 21
-2.234437
 31
0.0
 12
204.842563
 22
-0.661562
 32
0.0
 13
204.842563
 23
-0.661562
 33
0.0
  0
SOLID
  5
AA0
  8
0
  6
BYBLOCK
 62
     0
 10
229.147099
 20
21.217437
 30
0.0
 11
229.588058
 21
20.717437
 31
0.0
 12
227.867578
 22
19.644562
 32
0.0
 13
227.867578
 23
19.644562
 33
0.0
  0
POINT
  5
AA1
  8
DEFPOINTS
  6
BYBLOCK
 62
     0
 10
227.867578
 20
19.644562
 30
0.0
  0
POINT
  5
AA2
  8
DEFPOINTS
  6
BYBLOCK
 62
     0
 10
204.842563
 20
-0.661562
 30
0.0
  0
ENDBLK
  5
AA3
  8
0
  0
BLOCK
  8
0
  2
*D11
 70
     1
 10
0.0
 20
0.0
 30
0.0
  3
*D11
  1

  0
LINE
  5
B31
  8
0
  6
BYBLOCK
 62
     0
 10
38.115005
 20
144.521295
 30
0.0
 11
50.910559
 21
144.521295
 31
0.0
  0
LINE
  5
B32
  8
0
  6
BYBLOCK
 62
     0
 10
38.115005
 20
102.121295
 30
0.0
 11
50.910559
 21
102.121295
 31
0.0
  0
LINE
  5
B33
  8
0
  6
BYBLOCK
 62
     0
 10
49.660559
 20
142.521295
 30
0.0
 11
49.660559
 21
104.121295
 31
0.0
  0
SOLID
  5
B34
  8
0
  6
BYBLOCK
 62
     0
 10
49.327226
 20
142.521295
 30
0.0
 11
49.993893
 21
142.521295
 31
0.0
 12
49.660559
 22
144.521295
 32
0.0
 13
49.660559
 23
144.521295
 33
0.0
  0
SOLID
  5
B35
  8
0
  6
BYBLOCK
 62
     0
 10
49.327226
 20
104.121295
 30
0.0
 11
49.993893
 21
104.121295
 31
0.0
 12
49.660559
 22
102.121295
 32
0.0
 13
49.660559
 23
102.121295
 33
0.0
  0
TEXT
  8
0
  40
2
  5
CB5
  62
0
  72
0
  71
0
 10
43.6606
 20
119.193
 30
0.000000
  1
42.4
  0
POINT
  5
B37
  8
DEFPOINTS
  6
BYBLOCK
 62
     0
 10
37.490005
 20
144.521295
 30
0.0
  0
POINT
  5
B38
  8
DEFPOINTS
  6
BYBLOCK
 62
     0
 10
37.490005
 20
102.121295
 30
0.0
  0
POINT
  5
B39
  8
DEFPOINTS
  6
BYBLOCK
 62
     0
 10
49.660559
 20
102.121295
 30
0.0
  0
ENDBLK
  5
B3A
  8
0
  0
BLOCK
  8
0
  2
*D12
 70
     1
 10
0.0
 20
0.0
 30
0.0
  3
*D12
  1

  0
LINE
  5
B3D
  8
0
  6
BYBLOCK
 62
     0
 10
38.115005
 20
93.121295
 30
0.0
 11
50.831174
 21
93.121295
 31
0.0
  0
LINE
  5
B3E
  8
0
  6
BYBLOCK
 62
     0
 10
38.115005
 20
101.121295
 30
0.0
 11
50.831174
 21
101.121295
 31
0.0
  0
LINE
  5
B3F
  8
0
  6
BYBLOCK
 62
     0
 10
49.581174
 20
95.121295
 30
0.0
 11
49.581174
 21
99.121295
 31
0.0
  0
SOLID
  5
B40
  8
0
  6
BYBLOCK
 62
     0
 10
49.247841
 20
95.121295
 30
0.0
 11
49.914508
 21
95.121295
 31
0.0
 12
49.581174
 22
93.121295
 32
0.0
 13
49.581174
 23
93.121295
 33
0.0
  0
SOLID
  5
B41
  8
0
  6
BYBLOCK
 62
     0
 10
49.247841
 20
99.121295
 30
0.0
 11
49.914508
 21
99.121295
 31
0.0
 12
49.581174
 22
101.121295
 32
0.0
 13
49.581174
 23
101.121295
 33
0.0
  0
TEXT
  8
0
  40
2
  5
CB6
  62
0
  72
0
  71
0
 10
43.5812
 20
93.5220
 30
0.000000
  1
8
  0
POINT
  5
B43
  8
DEFPOINTS
  6
BYBLOCK
 62
     0
 10
37.490005
 20
93.121295
 30
0.0
  0
POINT
  5
B44
  8
DEFPOINTS
  6
BYBLOCK
 62
     0
 10
37.490005
 20
101.121295
 30
0.0
  0
POINT
  5
B45
  8
DEFPOINTS
  6
BYBLOCK
 62
     0
 10
49.581174
 20
101.121295
 30
0.0
  0
ENDBLK
  5
B46
  8
0
  0
BLOCK
  8
0
  2
*D13
 70
     1
 10
0.0
 20
0.0
 30
0.0
  3
*D13
  1

  0
LINE
  5
B49
  8
0
  6
BYBLOCK
 62
     0
 10
37.490005
 20
123.946295
 30
0.0
 11
37.490005
 21
127.298565
 31
0.0
  0
LINE
  5
B4A
  8
0
  6
BYBLOCK
 62
     0
 10
32.901432
 20
117.646295
 30
0.0
 11
32.901432
 21
127.298565
 31
0.0
  0
LINE
  5
B4B
  8
0
  6
BYBLOCK
 62
     0
 10
39.490005
 20
126.048565
 30
0.0
 11
41.490005
 21
126.048565
 31
0.0
  0
LINE
  5
B4C
  8
0
  6
BYBLOCK
 62
     0
 10
30.901432
 20
126.048565
 30
0.0
 11
20.901432
 21
126.048565
 31
0.0
  0
LINE
  5
B4D
  8
0
  6
BYBLOCK
 62
     0
 10
37.490005
 20
126.048565
 30
0.0
 11
32.901432
 21
126.048565
 31
0.0
  0
SOLID
  5
B4E
  8
0
  6
BYBLOCK
 62
     0
 10
39.490005
 20
126.381898
 30
0.0
 11
39.490005
 21
125.715232
 31
0.0
 12
37.490005
 22
126.048565
 32
0.0
 13
37.490005
 23
126.048565
 33
0.0
  0
SOLID
  5
B4F
  8
0
  6
BYBLOCK
 62
     0
 10
30.901432
 20
126.381898
 30
0.0
 11
30.901432
 21
125.715232
 31
0.0
 12
32.901432
 22
126.048565
 32
0.0
 13
32.901432
 23
126.048565
 33
0.0
  0
TEXT
  8
0
  40
2
  5
CB7
  62
0
  72
0
  71
0
 10
20.9014
 20
124.509
 30
0.000000
  1
4.59
  0
POINT
  5
B51
  8
DEFPOINTS
  6
BYBLOCK
 62
     0
 10
37.490005
 20
123.321295
 30
0.0
  0
POINT
  5
B52
  8
DEFPOINTS
  6
BYBLOCK
 62
     0
 10
32.901432
 20
117.021295
 30
0.0
  0
POINT
  5
B53
  8
DEFPOINTS
  6
BYBLOCK
 62
     0
 10
32.901432
 20
126.048565
 30
0.0
  0
ENDBLK
  5
B54
  8
0
  0
BLOCK
  8
0
  2
*D14
 70
     1
 10
0.0
 20
0.0
 30
0.0
  3
*D14
  1

  0
LINE
  5
B57
  8
0
  6
BYBLOCK
 62
     0
 10
-11.738553
 20
130.96169
 30
0.0
 11
-15.792893
 21
121.820447
 31
0.0
  0
LINE
  5
B58
  8
0
  6
BYBLOCK
 62
     0
 10
-20.049951
 20
112.222142
 30
0.0
 11
-20.860819
 21
110.393893
 31
0.0
  0
TEXT
  8
0
  40
2
  5
CB8
  62
0
  72
0
  71
0
 10
-19.1885
 20
124.576
 30
0.000000
  1
%%c6.5
  0
LINE
  5
B5A
  8
0
  6
BYBLOCK
 62
     0
 10
-19.239083
 20
114.050391
 30
0.0
 11
-16.603761
 21
119.992199
 31
0.0
  0
SOLID
  5
B5B
  8
0
  6
BYBLOCK
 62
     0
 10
-20.354659
 20
112.357287
 30
0.0
 11
-19.745243
 21
112.086997
 31
0.0
 12
-19.239083
 22
114.050391
 32
0.0
 13
-19.239083
 23
114.050391
 33
0.0
  0
SOLID
  5
B5C
  8
0
  6
BYBLOCK
 62
     0
 10
-16.097601
 20
121.955592
 30
0.0
 11
-15.488185
 21
121.685302
 31
0.0
 12
-16.603761
 22
119.992199
 32
0.0
 13
-16.603761
 23
119.992199
 33
0.0
  0
POINT
  5
B5D
  8
DEFPOINTS
  6
BYBLOCK
 62
     0
 10
-16.603761
 20
119.992199
 30
0.0
  0
POINT
  5
B5E
  8
DEFPOINTS
  6
BYBLOCK
 62
     0
 10
-19.239083
 20
114.050391
 30
0.0
  0
ENDBLK
  5
B5F
  8
0
  0
BLOCK
  8
0
  2
*D15
 70
     1
 10
0.0
 20
0.0
 30
0.0
  3
*D15
  1

  0
LINE
  5
B64
  8
0
  6
BYBLOCK
 62
     0
 10
324.612051
 20
7.2865
 30
0.0
 11
324.612051
 21
25.504116
 31
0.0
  0
LINE
  5
B65
  8
0
  6
BYBLOCK
 62
     0
 10
338.377771
 20
19.7865
 30
0.0
 11
338.377771
 21
25.504116
 31
0.0
  0
LINE
  5
B66
  8
0
  6
BYBLOCK
 62
     0
 10
326.612051
 20
24.254116
 30
0.0
 11
336.377771
 21
24.254116
 31
0.0
  0
SOLID
  5
B67
  8
0
  6
BYBLOCK
 62
     0
 10
326.612051
 20
24.58745
 30
0.0
 11
326.612051
 21
23.920783
 31
0.0
 12
324.612051
 22
24.254116
 32
0.0
 13
324.612051
 23
24.254116
 33
0.0
  0
SOLID
  5
B68
  8
0
  6
BYBLOCK
 62
     0
 10
336.377771
 20
24.58745
 30
0.0
 11
336.377771
 21
23.920783
 31
0.0
 12
338.377771
 22
24.254116
 32
0.0
 13
338.377771
 23
24.254116
 33
0.0
  0
TEXT
  8
0
  40
2
  5
CB9
  62
0
  72
0
  71
0
 10
327.133
 20
22.7141
 30
0.000000
  1
13.77
  0
POINT
  5
B6A
  8
DEFPOINTS
  6
BYBLOCK
 62
     0
 10
324.612051
 20
6.6615
 30
0.0
  0
POINT
  5
B6B
  8
DEFPOINTS
  6
BYBLOCK
 62
     0
 10
338.377771
 20
19.1615
 30
0.0
  0
POINT
  5
B6C
  8
DEFPOINTS
  6
BYBLOCK
 62
     0
 10
338.377771
 20
24.254116
 30
0.0
  0
ENDBLK
  5
B6D
  8
0
  0
BLOCK
  8
0
  2
*D16
 70
     1
 10
0.0
 20
0.0
 30
0.0
  3
*D16
  1

  0
LINE
  5
B88
  8
0
  6
BYBLOCK
 62
     0
 10
274.586729
 20
117.021295
 30
0.0
 11
264.827966
 21
117.021295
 31
0.0
  0
LINE
  5
B89
  8
0
  6
BYBLOCK
 62
     0
 10
269.998156
 20
102.121295
 30
0.0
 11
264.827966
 21
102.121295
 31
0.0
  0
LINE
  5
B8A
  8
0
  6
BYBLOCK
 62
     0
 10
266.077966
 20
115.021295
 30
0.0
 11
266.077966
 21
104.121295
 31
0.0
  0
SOLID
  5
B8B
  8
0
  6
BYBLOCK
 62
     0
 10
265.744633
 20
115.021295
 30
0.0
 11
266.4113
 21
115.021295
 31
0.0
 12
266.077966
 22
117.021295
 32
0.0
 13
266.077966
 23
117.021295
 33
0.0
  0
SOLID
  5
B8C
  8
0
  6
BYBLOCK
 62
     0
 10
265.744633
 20
104.121295
 30
0.0
 11
266.4113
 21
104.121295
 31
0.0
 12
266.077966
 22
102.121295
 32
0.0
 13
266.077966
 23
102.121295
 33
0.0
  0
TEXT
  8
0
  40
2
  5
CBA
  62
0
  72
0
  71
0
 10
260.078
 20
106.478
 30
0.000000
  1
14.9
  0
POINT
  5
B8E
  8
DEFPOINTS
  6
BYBLOCK
 62
     0
 10
275.211729
 20
117.021295
 30
0.0
  0
POINT
  5
B8F
  8
DEFPOINTS
  6
BYBLOCK
 62
     0
 10
270.623156
 20
102.121295
 30
0.0
  0
POINT
  5
B90
  8
DEFPOINTS
  6
BYBLOCK
 62
     0
 10
266.077966
 20
102.121295
 30
0.0
  0
ENDBLK
  5
B91
  8
0
  0
BLOCK
  8
0
  2
*D17
 70
     1
 10
0.0
 20
0.0
 30
0.0
  3
*D17
  1

  0
LINE
  5
B94
  8
0
  6
BYBLOCK
 62
     0
 10
291.623156
 20
145.146295
 30
0.0
 11
291.623156
 21
151.425035
 31
0.0
  0
LINE
  5
B95
  8
0
  6
BYBLOCK
 62
     0
 10
309.623156
 20
145.146295
 30
0.0
 11
309.623156
 21
151.425035
 31
0.0
  0
LINE
  5
B96
  8
0
  6
BYBLOCK
 62
     0
 10
293.623156
 20
150.175035
 30
0.0
 11
307.623156
 21
150.175035
 31
0.0
  0
SOLID
  5
B97
  8
0
  6
BYBLOCK
 62
     0
 10
293.623156
 20
150.508368
 30
0.0
 11
293.623156
 21
149.841702
 31
0.0
 12
291.623156
 22
150.175035
 32
0.0
 13
291.623156
 23
150.175035
 33
0.0
  0
SOLID
  5
B98
  8
0
  6
BYBLOCK
 62
     0
 10
307.623156
 20
150.508368
 30
0.0
 11
307.623156
 21
149.841702
 31
0.0
 12
309.623156
 22
150.175035
 32
0.0
 13
309.623156
 23
150.175035
 33
0.0
  0
TEXT
  8
0
  40
2
  5
CBB
  62
0
  72
0
  71
0
 10
296.233
 20
148.635
 30
0.000000
  1
18
  0
POINT
  5
B9A
  8
DEFPOINTS
  6
BYBLOCK
 62
     0
 10
291.623156
 20
144.521295
 30
0.0
  0
POINT
  5
B9B
  8
DEFPOINTS
  6
BYBLOCK
 62
     0
 10
309.623156
 20
144.521295
 30
0.0
  0
POINT
  5
B9C
  8
DEFPOINTS
  6
BYBLOCK
 62
     0
 10
309.623156
 20
150.175035
 30
0.0
  0
ENDBLK
  5
B9D
  8
0
  0
BLOCK
  8
0
  2
*D18
 70
     1
 10
0.0
 20
0.0
 30
0.0
  3
*D18
  1

  0
LINE
  5
BA1
  8
0
  6
BYBLOCK
 62
     0
 10
270.623156
 20
145.146295
 30
0.0
 11
270.623156
 21
158.23186
 31
0.0
  0
LINE
  5
BA2
  8
0
  6
BYBLOCK
 62
     0
 10
330.623156
 20
145.146295
 30
0.0
 11
330.623156
 21
158.23186
 31
0.0
  0
LINE
  5
BA3
  8
0
  6
BYBLOCK
 62
     0
 10
272.623156
 20
156.98186
 30
0.0
 11
328.623156
 21
156.98186
 31
0.0
  0
SOLID
  5
BA4
  8
0
  6
BYBLOCK
 62
     0
 10
272.623156
 20
157.315193
 30
0.0
 11
272.623156
 21
156.648527
 31
0.0
 12
270.623156
 22
156.98186
 32
0.0
 13
270.623156
 23
156.98186
 33
0.0
  0
SOLID
  5
BA5
  8
0
  6
BYBLOCK
 62
     0
 10
328.623156
 20
157.315193
 30
0.0
 11
328.623156
 21
156.648527
 31
0.0
 12
330.623156
 22
156.98186
 32
0.0
 13
330.623156
 23
156.98186
 33
0.0
  0
TEXT
  8
0
  40
2
  5
CBC
  62
0
  72
0
  71
0
 10
296.403
 20
155.442
 30
0.000000
  1
60
  0
POINT
  5
BA7
  8
DEFPOINTS
  6
BYBLOCK
 62
     0
 10
270.623156
 20
144.521295
 30
0.0
  0
POINT
  5
BA8
  8
DEFPOINTS
  6
BYBLOCK
 62
     0
 10
330.623156
 20
144.521295
 30
0.0
  0
POINT
  5
BA9
  8
DEFPOINTS
  6
BYBLOCK
 62
     0
 10
330.623156
 20
156.98186
 30
0.0
  0
ENDBLK
  5
BAA
  8
0
  0
BLOCK
  8
0
  2
*D19
 70
     1
 10
0.0
 20
0.0
 30
0.0
  3
*D19
  1

  0
LINE
  5
BBA
  8
0
  6
BYBLOCK
 62
     0
 10
216.98007
 20
24.8415
 30
0.0
 11
253.507565
 21
24.8415
 31
0.0
  0
LINE
  5
BBB
  8
0
  6
BYBLOCK
 62
     0
 10
216.98007
 20
-4.8385
 30
0.0
 11
253.507565
 21
-4.8385
 31
0.0
  0
LINE
  5
BBC
  8
0
  6
BYBLOCK
 62
     0
 10
252.257565
 20
22.8415
 30
0.0
 11
252.257565
 21
-2.8385
 31
0.0
  0
SOLID
  5
BBD
  8
0
  6
BYBLOCK
 62
     0
 10
251.924232
 20
22.8415
 30
0.0
 11
252.590899
 21
22.8415
 31
0.0
 12
252.257565
 22
24.8415
 32
0.0
 13
252.257565
 23
24.8415
 33
0.0
  0
SOLID
  5
BBE
  8
0
  6
BYBLOCK
 62
     0
 10
251.924232
 20
-2.8385
 30
0.0
 11
252.590899
 21
-2.8385
 31
0.0
 12
252.257565
 22
-4.8385
 32
0.0
 13
252.257565
 23
-4.8385
 33
0.0
  0
TEXT
  8
0
  40
2
  5
CBD
  62
0
  72
0
  71
0
 10
246.258
 20
6.46150
 30
0.000000
  1
29.68
  0
POINT
  5
BC0
  8
DEFPOINTS
  6
BYBLOCK
 62
     0
 10
216.35507
 20
24.8415
 30
0.0
  0
POINT
  5
BC1
  8
DEFPOINTS
  6
BYBLOCK
 62
     0
 10
216.35507
 20
-4.8385
 30
0.0
  0
POINT
  5
BC2
  8
DEFPOINTS
  6
BYBLOCK
 62
     0
 10
252.257565
 20
-4.8385
 30
0.0
  0
ENDBLK
  5
BC3
  8
0
  0
BLOCK
  8
0
  2
*D20
 70
     1
 10
0.0
 20
0.0
 30
0.0
  3
*D20
  1

  0
LINE
  5
BDD
  8
0
  6
BYBLOCK
 62
     0
 10
289.602449
 20
131.921295
 30
0.0
 11
302.995658
 21
131.921295
 31
0.0
  0
LINE
  5
BDE
  8
0
  6
BYBLOCK
 62
     0
 10
289.602449
 20
102.121295
 30
0.0
 11
302.995658
 21
102.121295
 31
0.0
  0
LINE
  5
BDF
  8
0
  6
BYBLOCK
 62
     0
 10
301.745658
 20
129.921295
 30
0.0
 11
301.745658
 21
104.121295
 31
0.0
  0
SOLID
  5
BE0
  8
0
  6
BYBLOCK
 62
     0
 10
301.412325
 20
129.921295
 30
0.0
 11
302.078992
 21
129.921295
 31
0.0
 12
301.745658
 22
131.921295
 32
0.0
 13
301.745658
 23
131.921295
 33
0.0
  0
SOLID
  5
BE1
  8
0
  6
BYBLOCK
 62
     0
 10
301.412325
 20
104.121295
 30
0.0
 11
302.078992
 21
104.121295
 31
0.0
 12
301.745658
 22
102.121295
 32
0.0
 13
301.745658
 23
102.121295
 33
0.0
  0
TEXT
  8
0
  40
2
  5
CBE
  62
0
  72
0
  71
0
 10
295.746
 20
113.481
 30
0.000000
  1
29.8
  0
POINT
  5
BE3
  8
DEFPOINTS
  6
BYBLOCK
 62
     0
 10
288.977449
 20
131.921295
 30
0.0
  0
POINT
  5
BE4
  8
DEFPOINTS
  6
BYBLOCK
 62
     0
 10
288.977449
 20
102.121295
 30
0.0
  0
POINT
  5
BE5
  8
DEFPOINTS
  6
BYBLOCK
 62
     0
 10
301.745658
 20
102.121295
 30
0.0
  0
ENDBLK
  5
BE6
  8
0
  0
BLOCK
  8
0
  2
*D21
 70
     1
 10
0.0
 20
0.0
 30
0.0
  3
*D21
  1

  0
LINE
  5
BF9
  8
0
  6
BYBLOCK
 62
     0
 10
288.932449
 20
101.496295
 30
0.0
 11
288.932449
 21
94.190943
 31
0.0
  0
LINE
  5
BFA
  8
0
  6
BYBLOCK
 62
     0
 10
312.313864
 20
101.496295
 30
0.0
 11
312.313864
 21
94.190943
 31
0.0
  0
LINE
  5
BFB
  8
0
  6
BYBLOCK
 62
     0
 10
290.932449
 20
95.440943
 30
0.0
 11
310.313864
 21
95.440943
 31
0.0
  0
SOLID
  5
BFC
  8
0
  6
BYBLOCK
 62
     0
 10
290.932449
 20
95.774276
 30
0.0
 11
290.932449
 21
95.10761
 31
0.0
 12
288.932449
 22
95.440943
 32
0.0
 13
288.932449
 23
95.440943
 33
0.0
  0
SOLID
  5
BFD
  8
0
  6
BYBLOCK
 62
     0
 10
310.313864
 20
95.774276
 30
0.0
 11
310.313864
 21
95.10761
 31
0.0
 12
312.313864
 22
95.440943
 32
0.0
 13
312.313864
 23
95.440943
 33
0.0
  0
TEXT
  8
0
  40
2
  5
CBF
  62
0
  72
0
  71
0
 10
297.253
 20
93.9009
 30
0.000000
  1
23.38
  0
POINT
  5
BFF
  8
DEFPOINTS
  6
BYBLOCK
 62
     0
 10
288.932449
 20
102.121295
 30
0.0
  0
POINT
  5
C00
  8
DEFPOINTS
  6
BYBLOCK
 62
     0
 10
312.313864
 20
102.121295
 30
0.0
  0
POINT
  5
C01
  8
DEFPOINTS
  6
BYBLOCK
 62
     0
 10
312.313864
 20
95.440943
 30
0.0
  0
ENDBLK
  5
C02
  8
0
  0
BLOCK
  8
0
  2
*D22
 70
     1
 10
0.0
 20
0.0
 30
0.0
  3
*D22
  1

  0
LINE
  5
C6F
  8
0
  6
BYBLOCK
 62
     0
 10
331.248156
 20
27.078887
 30
0.0
 11
341.301933
 21
27.078887
 31
0.0
  0
LINE
  5
C70
  8
0
  6
BYBLOCK
 62
     0
 10
331.248156
 20
52.078887
 30
0.0
 11
341.301933
 21
52.078887
 31
0.0
  0
LINE
  5
C71
  8
0
  6
BYBLOCK
 62
     0
 10
340.051933
 20
29.078887
 30
0.0
 11
340.051933
 21
50.078887
 31
0.0
  0
SOLID
  5
C72
  8
0
  6
BYBLOCK
 62
     0
 10
339.7186
 20
29.078887
 30
0.0
 11
340.385267
 21
29.078887
 31
0.0
 12
340.051933
 22
27.078887
 32
0.0
 13
340.051933
 23
27.078887
 33
0.0
  0
SOLID
  5
C73
  8
0
  6
BYBLOCK
 62
     0
 10
339.7186
 20
50.078887
 30
0.0
 11
340.385267
 21
50.078887
 31
0.0
 12
340.051933
 22
52.078887
 32
0.0
 13
340.051933
 23
52.078887
 33
0.0
  0
TEXT
  8
0
  40
2
  5
CC0
  62
0
  72
0
  71
0
 10
334.052
 20
35.4375
 30
0.000000
  1
25
  0
POINT
  5
C75
  8
DEFPOINTS
  6
BYBLOCK
 62
     0
 10
330.623156
 20
27.078887
 30
0.0
  0
POINT
  5
C76
  8
DEFPOINTS
  6
BYBLOCK
 62
     0
 10
330.623156
 20
52.078887
 30
0.0
  0
POINT
  5
C77
  8
DEFPOINTS
  6
BYBLOCK
 62
     0
 10
340.051933
 20
52.078887
 30
0.0
  0
ENDBLK
  5
C78
  8
0
  0
BLOCK
  8
0
  2
*D23
 70
     1
 10
0.0
 20
0.0
 30
0.0
  3
*D23
  1

  0
LINE
  5
C64
  8
0
  6
BYBLOCK
 62
     0
 10
301.248156
 20
42.408887
 30
0.0
 11
336.18437
 21
42.408887
 31
0.0
  0
LINE
  5
C65
  8
0
  6
BYBLOCK
 62
     0
 10
312.893864
 20
27.078887
 30
0.0
 11
336.18437
 21
27.078887
 31
0.0
  0
LINE
  5
C66
  8
0
  6
BYBLOCK
 62
     0
 10
334.93437
 20
40.408887
 30
0.0
 11
334.93437
 21
29.078887
 31
0.0
  0
SOLID
  5
C67
  8
0
  6
BYBLOCK
 62
     0
 10
334.601037
 20
40.408887
 30
0.0
 11
335.267703
 21
40.408887
 31
0.0
 12
334.93437
 22
42.408887
 32
0.0
 13
334.93437
 23
42.408887
 33
0.0
  0
SOLID
  5
C68
  8
0
  6
BYBLOCK
 62
     0
 10
334.601037
 20
29.078887
 30
0.0
 11
335.267703
 21
29.078887
 31
0.0
 12
334.93437
 22
27.078887
 32
0.0
 13
334.93437
 23
27.078887
 33
0.0
  0
TEXT
  8
0
  40
2
  5
CC1
  62
0
  72
0
  71
0
 10
328.934
 20
31.7023
 30
0.000000
  1
15.33
  0
POINT
  5
C6A
  8
DEFPOINTS
  6
BYBLOCK
 62
     0
 10
300.623156
 20
42.408887
 30
0.0
  0
POINT
  5
C6B
  8
DEFPOINTS
  6
BYBLOCK
 62
     0
 10
312.268864
 20
27.078887
 30
0.0
  0
POINT
  5
C6C
  8
DEFPOINTS
  6
BYBLOCK
 62
     0
 10
334.93437
 20
27.078887
 30
0.0
  0
ENDBLK
  5
C6D
  8
0
  0
BLOCK
  8
0
  2
*D24
 70
     1
 10
0.0
 20
0.0
 30
0.0
  3
*D24
  1

  0
LINE
  5
C85
  8
0
  6
BYBLOCK
 62
     0
 10
309.605478
 20
64.976668
 30
0.0
 11
304.690961
 21
52.62911
 31
0.0
  0
LINE
  5
C86
  8
0
  6
BYBLOCK
 62
     0
 10
296.555351
 20
32.188663
 30
0.0
 11
295.81575
 21
30.330441
 31
0.0
  0
TEXT
  8
0
  40
2
  5
CC2
  62
0
  72
0
  71
0
 10
302.515
 20
59.0792
 30
0.000000
  1
%%c18
  0
LINE
  5
C88
  8
0
  6
BYBLOCK
 62
     0
 10
297.294952
 20
34.046886
 30
0.0
 11
303.95136
 21
50.770887
 31
0.0
  0
SOLID
  5
C89
  8
0
  6
BYBLOCK
 62
     0
 10
296.245647
 20
32.31193
 30
0.0
 11
296.865055
 21
32.065397
 31
0.0
 12
297.294952
 22
34.046886
 32
0.0
 13
297.294952
 23
34.046886
 33
0.0
  0
SOLID
  5
C8A
  8
0
  6
BYBLOCK
 62
     0
 10
304.381258
 20
52.752377
 30
0.0
 11
305.000665
 21
52.505843
 31
0.0
 12
303.95136
 22
50.770887
 32
0.0
 13
303.95136
 23
50.770887
 33
0.0
  0
POINT
  5
C8B
  8
DEFPOINTS
  6
BYBLOCK
 62
     0
 10
303.95136
 20
50.770887
 30
0.0
  0
POINT
  5
C8C
  8
DEFPOINTS
  6
BYBLOCK
 62
     0
 10
297.294952
 20
34.046886
 30
0.0
  0
ENDBLK
  5
C8D
  8
0
  0
BLOCK
  8
0
  2
*D25
 70
     1
 10
0.0
 20
0.0
 30
0.0
  3
*D25
  1

  0
LINE
  5
C91
  8
0
  6
BYBLOCK
 62
     0
 10
316.857437
 20
40.203887
 30
0.0
 11
316.857437
 21
63.971937
 31
0.0
  0
LINE
  5
C92
  8
0
  6
BYBLOCK
 62
     0
 10
312.268864
 20
52.703887
 30
0.0
 11
312.268864
 21
63.971937
 31
0.0
  0
LINE
  5
C93
  8
0
  6
BYBLOCK
 62
     0
 10
318.857437
 20
62.721937
 30
0.0
 11
320.857437
 21
62.721937
 31
0.0
  0
LINE
  5
C94
  8
0
  6
BYBLOCK
 62
     0
 10
310.268864
 20
62.721937
 30
0.0
 11
308.268864
 21
62.721937
 31
0.0
  0
LINE
  5
C95
  8
0
  6
BYBLOCK
 62
     0
 10
316.857437
 20
62.721937
 30
0.0
 11
312.268864
 21
62.721937
 31
0.0
  0
SOLID
  5
C96
  8
0
  6
BYBLOCK
 62
     0
 10
318.857437
 20
63.05527
 30
0.0
 11
318.857437
 21
62.388603
 31
0.0
 12
316.857437
 22
62.721937
 32
0.0
 13
316.857437
 23
62.721937
 33
0.0
  0
SOLID
  5
C97
  8
0
  6
BYBLOCK
 62
     0
 10
310.268864
 20
63.05527
 30
0.0
 11
310.268864
 21
62.388603
 31
0.0
 12
312.268864
 22
62.721937
 32
0.0
 13
312.268864
 23
62.721937
 33
0.0
  0
TEXT
  8
0
  40
2
  5
CC3
  62
0
  72
0
  71
0
 10
310.563
 20
61.1819
 30
0.000000
  1
4.59
  0
POINT
  5
C99
  8
DEFPOINTS
  6
BYBLOCK
 62
     0
 10
316.857437
 20
39.578887
 30
0.0
  0
POINT
  5
C9A
  8
DEFPOINTS
  6
BYBLOCK
 62
     0
 10
312.268864
 20
52.078887
 30
0.0
  0
POINT
  5
C9B
  8
DEFPOINTS
  6
BYBLOCK
 62
     0
 10
312.268864
 20
62.721937
 30
0.0
  0
ENDBLK
  5
C9C
  8
0
  0
ENDSEC
  0
SECTION
  2
ENTITIES
  0
LINE
  5
750
  8
0
 10
152.790495
 20
24.8415
 30
0.0
 11
183.190495
 21
24.8415
 31
0.0
  0
LINE
  5
752
  8
0
 10
152.790495
 20
24.8415
 30
0.0
 11
152.790495
 21
-4.8385
 31
0.0
  0
LINE
  5
753
  8
0
  6
ACAD_ISO02W100
 10
152.790495
 20
1.4915
 30
0.0
 11
183.190495
 21
1.4915
 31
0.0
  0
LINE
  5
754
  8
0
  6
ACAD_ISO02W100
 10
152.790495
 20
17.4915
 30
0.0
 11
183.190495
 21
17.4915
 31
0.0
  0
LINE
  5
755
  8
0
  6
ACAD_ISO02W100
 10
152.790495
 20
15.2415
 30
0.0
 11
183.190495
 21
15.2415
 31
0.0
  0
LINE
  5
756
  8
0
  6
ACAD_ISO02W100
 10
152.790495
 20
3.7415
 30
0.0
 11
183.190495
 21
3.7415
 31
0.0
  0
LINE
  5
757
  8
0
 10
183.190495
 20
24.8415
 30
0.0
 11
183.190495
 21
-4.8385
 31
0.0
  0
CIRCLE
  5
766
  8
0
 10
7.490005
 20
9.4915
 30
0.0
 40
8.0
  0
ARC
  5
76B
  8
0
 10
7.490005
 20
9.4915
 30
0.0
 40
15.35
 50
291.004786
 51
319.347792
  0
DIMENSION
  5
793
  8
MATEN
  2
*D0
 10
183.190495
 20
-19.316293
 30
0.0
 11
168.937915
 21
-19.316293
 31
0.0
 70
   128
 13
152.790495
 23
-5.8585
 33
0.0
 14
183.190495
 24
-5.8585
 34
0.0
1001
ACAD
1000
DSTYLE
1002
{
1070
    78
1070
     8
1070
   288
1070
     1
1070
   140
1040
2.0
1070
    74
1070
     0
1070
   172
1070
     1
1070
    73
1070
     0
1070
    77
1070
     1
1070
   147
1040
1.0
1070
    42
1040
0.625
1070
    44
1040
1.25
1070
    43
1040
3.75
1070
   271
1070
     2
1070
   141
1040
1.0
1070
   275
1070
     1
1070
    41
1040
2.0
1070
   273
1070
     8
1070
   274
1070
     4
1070
   143
1040
0.0394
1070
   171
1070
     4
1002
}
  0
DIMENSION
  5
7A0
  8
MATEN
  2
*D1
 10
192.298236
 20
-5.8585
 30
0.0
 11
192.298236
 21
9.757958
 31
0.0
 70
   128
 13
183.190495
 23
24.8415
 33
0.0
 14
183.190495
 24
-5.8585
 34
0.0
 50
90.0
1001
ACAD
1000
DSTYLE
1002
{
1070
    78
1070
     8
1070
   288
1070
     1
1070
   140
1040
2.0
1070
    74
1070
     0
1070
   172
1070
     1
1070
    73
1070
     0
1070
    77
1070
     1
1070
   147
1040
1.0
1070
    42
1040
0.625
1070
    44
1040
1.25
1070
    43
1040
3.75
1070
   271
1070
     2
1070
   141
1040
1.0
1070
   275
1070
     1
1070
    41
1040
2.0
1070
   273
1070
     8
1070
   274
1070
     4
1070
   143
1040
0.0394
1070
   171
1070
     4
1002
}
  0
ARC
  5
7A5
  8
0
 10
7.490005
 20
9.4915
 30
0.0
 40
5.75
 50
0.0
 51
270.0
  0
DIMENSION
  5
7B9
  8
MATEN
  2
*D2
 10
51.6704
 20
1.4915
 30
0.0
 11
51.6704
 21
23.4915
 31
0.0
 70
   128
  1
<> Onderkant Draad
 13
38.922886
 23
-5.8385
 33
0.0
 14
38.922886
 24
1.4915
 34
0.0
 50
90.0
1001
ACAD
1000
DSTYLE
1002
{
1070
    78
1070
     8
1070
   288
1070
     1
1070
   140
1040
2.0
1070
    74
1070
     0
1070
   172
1070
     1
1070
    73
1070
     0
1070
    77
1070
     1
1070
   147
1040
1.0
1070
    42
1040
0.625
1070
    44
1040
1.25
1070
    43
1040
3.75
1070
   271
1070
     2
1070
   141
1040
1.0
1070
   275
1070
     1
1070
    41
1040
2.0
1070
   273
1070
     8
1070
   274
1070
     4
1070
   143
1040
0.0394
1070
   171
1070
     4
1002
}
  0
LINE
  5
7BE
  8
0
 10
-115.863162
 20
-25.8385
 30
0.0
 11
97.99437
 21
-25.8385
 31
0.0
  0
LINE
  5
7C0
  8
0
 10
-98.783888
 20
-5.8385
 30
0.0
 11
113.204354
 21
-5.8385
 31
0.0
  0
LINE
  5
7C1
  8
0
 10
1.98786
 20
-4.8385
 30
0.0
 11
12.99215
 21
-4.8385
 31
0.0
  0
ARC
  5
7FA
  8
0
 10
7.490005
 20
9.4915
 30
0.0
 40
15.35
 50
220.652208
 51
248.995214
  0
ARC
  5
7FB
  8
0
 10
7.490005
 20
9.4915
 30
0.0
 40
15.35
 50
40.652208
 51
139.347792
  0
DIMENSION
  5
833
  8
MATEN
  2
*D3
 10
24.09113
 20
-5.8585
 30
0.0
 11
24.09113
 21
-13.3585
 31
0.0
 70
   128
 13
7.490005
 23
-4.8385
 33
0.0
 14
7.490005
 24
-5.8585
 34
0.0
 50
90.0
1001
ACAD
1000
DSTYLE
1002
{
1070
    78
1070
     8
1070
   288
1070
     1
1070
   140
1040
2.0
1070
    74
1070
     0
1070
   172
1070
     1
1070
    73
1070
     0
1070
    77
1070
     1
1070
   147
1040
1.0
1070
    42
1040
0.625
1070
    44
1040
1.25
1070
    43
1040
3.75
1070
   271
1070
     2
1070
   141
1040
1.0
1070
   275
1070
     1
1070
    41
1040
2.0
1070
   273
1070
     8
1070
   274
1070
     4
1070
   143
1040
0.0394
1070
   171
1070
     4
1002
}
  0
LINE
  5
834
  8
MATEN
 10
-7.859995
 20
9.4915
 30
0.0
 11
-7.859995
 21
8.620484
 31
0.0
  0
LINE
  5
835
  8
MATEN
 10
8.115005
 20
-5.8585
 30
0.0
 11
7.490005
 21
-5.8585
 31
0.0
  0
DIMENSION
  5
844
  8
MATEN
  2
*D4
 10
-7.859995
 20
26.361122
 30
0.0
 11
-6.007849
 21
26.361122
 31
0.0
 70
   128
 13
-4.155702
 23
19.4915
 33
0.0
 14
-7.859995
 24
9.4915
 34
0.0
1001
ACAD
1000
DSTYLE
1002
{
1070
    78
1070
     8
1070
   288
1070
     1
1070
   140
1040
2.0
1070
    74
1070
     0
1070
   172
1070
     1
1070
    73
1070
     0
1070
    77
1070
     1
1070
   147
1040
1.0
1070
    42
1040
0.625
1070
    44
1040
1.25
1070
    43
1040
3.75
1070
   271
1070
     2
1070
   141
1040
1.0
1070
   275
1070
     1
1070
    41
1040
2.0
1070
   273
1070
     8
1070
   274
1070
     4
1070
   143
1040
0.0394
1070
   171
1070
     4
1002
}
  0
LINE
  5
855
  8
0
  6
CENTER2
 10
125.93693
 20
10.903894
 30
0.0
 11
69.935468
 21
-62.733874
 31
0.0
  0
LINE
  5
856
  8
0
  6
CENTER2
 10
-59.752128
 20
39.868082
 30
0.0
 11
-139.824394
 21
-53.897342
 31
0.0
  0
LINE
  5
85C
  8
0
  6
CENTER2
 10
-57.959238
 20
174.575779
 30
0.0
 11
-121.225156
 21
37.28853
 31
0.0
  0
LINE
  5
85D
  8
0
  6
CENTER2
 10
209.565215
 20
183.607835
 30
0.0
 11
128.22332
 21
44.514175
 31
0.0
  0
LINE
  5
864
  8
0
 10
19.135712
 20
131.921295
 30
0.0
 11
-4.155702
 21
131.921295
 31
0.0
  0
LINE
  5
866
  8
0
  6
ACAD_ISO02W100
 10
15.490005
 20
101.121295
 30
0.0
 11
15.490005
 21
131.921295
 31
0.0
  0
LINE
  5
867
  8
0
  6
ACAD_ISO02W100
 10
13.240005
 20
101.121295
 30
0.0
 11
13.240005
 21
131.921295
 31
0.0
  0
LINE
  5
868
  8
0
  6
ACAD_ISO02W100
 10
1.740005
 20
101.121295
 30
0.0
 11
1.740005
 21
131.921295
 31
0.0
  0
LINE
  5
869
  8
0
  6
ACAD_ISO02W100
 10
-0.509995
 20
101.121295
 30
0.0
 11
-0.509995
 21
131.921295
 31
0.0
  0
LINE
  5
878
  8
0
 10
19.135712
 20
101.121295
 30
0.0
 11
-4.155702
 21
101.121295
 31
0.0
  0
LINE
  5
879
  8
0
 10
-4.155702
 20
131.921295
 30
0.0
 11
-4.155702
 21
101.121295
 31
0.0
  0
LINE
  5
87A
  8
0
 10
19.135712
 20
131.921295
 30
0.0
 11
19.135712
 21
101.121295
 31
0.0
  0
LINE
  5
87F
  8
0
 10
32.490005
 20
102.121295
 30
0.0
 11
19.135712
 21
102.121295
 31
0.0
  0
LINE
  5
880
  8
0
 10
-4.155702
 20
102.121295
 30
0.0
 11
-17.509995
 21
102.121295
 31
0.0
  0
CIRCLE
  5
89C
  8
0
 10
7.490005
 20
9.4915
 30
0.0
 40
9.0
  0
LINE
  5
8BF
  8
0
 10
37.490005
 20
93.121295
 30
0.0
 11
37.490005
 21
101.121295
 31
0.0
  0
LINE
  5
8C0
  8
0
 10
-22.509995
 20
93.121295
 30
0.0
 11
-22.509995
 21
101.121295
 31
0.0
  0
LINE
  5
8C4
  8
0
 10
37.490005
 20
93.121295
 30
0.0
 11
-22.509995
 21
93.121295
 31
0.0
  0
LINE
  5
8C5
  8
0
 10
37.490005
 20
102.121295
 30
0.0
 11
19.135712
 21
102.121295
 31
0.0
  0
LINE
  5
8C6
  8
0
 10
37.490005
 20
144.521295
 30
0.0
 11
-22.509995
 21
144.521295
 31
0.0
  0
LINE
  5
8C8
  8
0
 10
37.490005
 20
101.121295
 30
0.0
 11
-22.509995
 21
101.121295
 31
0.0
  0
LINE
  5
8C9
  8
0
 10
-4.155702
 20
102.121295
 30
0.0
 11
-22.509995
 21
102.121295
 31
0.0
  0
LINE
  5
8DD
  8
0
 10
37.490005
 20
19.1615
 30
0.0
 11
19.135712
 21
19.1615
 31
0.0
  0
LINE
  5
8DE
  8
0
 10
-4.155702
 20
19.1615
 30
0.0
 11
-22.509995
 21
19.1615
 31
0.0
  0
LINE
  5
8DF
  8
0
 10
37.490005
 20
19.1615
 30
0.0
 11
37.490005
 21
-5.8385
 31
0.0
  0
LINE
  5
8E0
  8
0
 10
37.490005
 20
-5.8385
 30
0.0
 11
19.135712
 21
-5.8385
 31
0.0
  0
LINE
  5
8E1
  8
0
 10
-22.509995
 20
19.1615
 30
0.0
 11
-22.509995
 21
-5.8385
 31
0.0
  0
LINE
  5
8E2
  8
0
 10
-4.155702
 20
-5.8385
 30
0.0
 11
-22.509995
 21
-5.8385
 31
0.0
  0
LINE
  5
8E5
  8
0
 10
19.135712
 20
19.1615
 30
0.0
 11
19.135712
 21
-5.8385
 31
0.0
  0
LINE
  5
8E6
  8
0
 10
-4.155702
 20
19.1615
 30
0.0
 11
-4.155702
 21
-5.8385
 31
0.0
  0
CIRCLE
  5
8E9
  8
0
 10
-8.744276
 20
6.6615
 30
0.0
 40
3.0
  0
CIRCLE
  5
8EA
  8
0
 10
23.724285
 20
6.6615
 30
0.0
 40
3.0
  0
ARC
  5
8EE
  8
0
 10
-8.744276
 20
6.6615
 30
0.0
 40
2.3
 50
0.0
 51
270.0
  0
ARC
  5
8EF
  8
0
 10
23.724285
 20
6.6615
 30
0.0
 40
2.3
 50
90.0
 51
0.0
  0
LINE
  5
935
  8
0
 10
37.490005
 20
102.121295
 30
0.0
 11
37.490005
 21
144.521295
 31
0.0
  0
LINE
  5
936
  8
0
 10
-22.509995
 20
102.121295
 30
0.0
 11
-22.509995
 21
144.521295
 31
0.0
  0
LINE
  5
948
  8
0
 10
-4.155702
 20
19.4915
 30
0.0
 11
-4.155702
 21
19.1615
 31
0.0
  0
LINE
  5
949
  8
0
 10
19.135712
 20
19.4915
 30
0.0
 11
19.135712
 21
19.1615
 31
0.0
  0
LINE
  5
9A7
  8
0
  6
ACAD_ISO02W100
 10
-11.744276
 20
93.121295
 30
0.0
 11
-11.744276
 21
101.121295
 31
0.0
  0
LINE
  5
9A8
  8
0
  6
ACAD_ISO02W100
 10
-5.744276
 20
93.121295
 30
0.0
 11
-5.744276
 21
101.121295
 31
0.0
  0
LINE
  5
9A9
  8
0
  6
ACAD_ISO02W100
 10
20.724285
 20
93.121295
 30
0.0
 11
20.724285
 21
101.121295
 31
0.0
  0
LINE
  5
9AA
  8
0
  6
ACAD_ISO02W100
 10
26.724285
 20
93.121295
 30
0.0
 11
26.724285
 21
101.121295
 31
0.0
  0
LINE
  5
9AB
  8
0
  6
ACAD_ISO02W100
 10
26.724285
 20
118.821295
 30
0.0
 11
20.724285
 21
118.821295
 31
0.0
  0
LINE
  5
9AC
  8
0
  6
ACAD_ISO02W100
 10
-5.744276
 20
118.821295
 30
0.0
 11
-11.744276
 21
118.821295
 31
0.0
  0
LINE
  5
9AF
  8
0
  6
ACAD_ISO02W100
 10
20.724285
 20
118.821295
 30
0.0
 11
23.724285
 21
120.821295
 31
0.0
  0
LINE
  5
9B0
  8
0
  6
ACAD_ISO02W100
 10
26.724285
 20
118.821295
 30
0.0
 11
23.724285
 21
120.821295
 31
0.0
  0
LINE
  5
9B1
  8
0
  6
ACAD_ISO02W100
 10
-11.744276
 20
118.821295
 30
0.0
 11
-8.744276
 21
120.821295
 31
0.0
  0
LINE
  5
9B2
  8
0
  6
ACAD_ISO02W100
 10
-5.744276
 20
118.821295
 30
0.0
 11
-8.744276
 21
120.821295
 31
0.0
  0
LINE
  5
9B3
  8
0
  6
ACAD_ISO02W100
 10
-5.744276
 20
102.121295
 30
0.0
 11
-5.744276
 21
118.821295
 31
0.0
  0
LINE
  5
9B4
  8
0
  6
ACAD_ISO02W100
 10
-11.744276
 20
102.121295
 30
0.0
 11
-11.744276
 21
118.821295
 31
0.0
  0
LINE
  5
9B5
  8
0
  6
ACAD_ISO02W100
 10
20.724285
 20
102.121295
 30
0.0
 11
20.724285
 21
118.821295
 31
0.0
  0
LINE
  5
9B6
  8
0
  6
ACAD_ISO02W100
 10
26.724285
 20
102.121295
 30
0.0
 11
26.724285
 21
118.821295
 31
0.0
  0
LINE
  5
9BB
  8
0
  6
ACAD_ISO02W100
 10
26.024285
 20
102.121295
 30
0.0
 11
26.024285
 21
119.287961
 31
0.0
  0
LINE
  5
9BC
  8
0
  6
ACAD_ISO02W100
 10
21.424285
 20
102.121295
 30
0.0
 11
21.424285
 21
119.287961
 31
0.0
  0
LINE
  5
9BD
  8
0
  6
ACAD_ISO02W100
 10
-11.044276
 20
102.121295
 30
0.0
 11
-11.044276
 21
119.287961
 31
0.0
  0
LINE
  5
9BE
  8
0
  6
ACAD_ISO02W100
 10
-6.444276
 20
102.121295
 30
0.0
 11
-6.444276
 21
119.287961
 31
0.0
  0
LINE
  5
9C3
  8
0
  6
ACAD_ISO02W100
 10
-1.509995
 20
93.121295
 30
0.0
 11
-1.509995
 21
101.121295
 31
0.0
  0
LINE
  5
9C4
  8
0
  6
ACAD_ISO02W100
 10
16.490005
 20
93.121295
 30
0.0
 11
16.490005
 21
101.121295
 31
0.0
  0
LINE
  5
9C5
  8
0
  6
ACAD_ISO02W100
 10
-1.509995
 20
131.921295
 30
0.0
 11
-1.509995
 21
144.521295
 31
0.0
  0
LINE
  5
9C6
  8
0
  6
ACAD_ISO02W100
 10
16.490005
 20
131.921295
 30
0.0
 11
16.490005
 21
144.521295
 31
0.0
  0
ARC
  5
9C7
  8
MATEN
  6
ACAD_ISO02W100
 10
7.490005
 20
9.4915
 30
0.0
 40
15.35
 50
158.214606
 51
195.997316
  0
LINE
  5
9EF
  8
0
 10
-66.279265
 20
156.521295
 30
0.0
 11
192.485315
 21
156.521295
 31
0.0
  0
LINE
  5
9F0
  8
0
 10
-104.385275
 20
76.521295
 30
0.0
 11
146.941066
 21
76.521295
 31
0.0
  0
LINE
  5
A09
  8
0
 10
-14.921422
 20
-5.8385
 30
0.0
 11
-14.921422
 21
-25.8385
 31
0.0
  0
LINE
  5
A0A
  8
0
 10
-20.921422
 20
-5.8385
 30
0.0
 11
-20.921422
 21
-25.8385
 31
0.0
  0
LINE
  5
A0B
  8
0
 10
35.901432
 20
-5.8385
 30
0.0
 11
35.901432
 21
-25.8385
 31
0.0
  0
LINE
  5
A0C
  8
0
 10
29.901432
 20
-5.8385
 30
0.0
 11
29.901432
 21
-25.8385
 31
0.0
  0
LINE
  5
A11
  8
0
 10
35.201432
 20
-25.8385
 30
0.0
 11
35.201432
 21
-5.8385
 31
0.0
  0
LINE
  5
A12
  8
0
 10
30.601432
 20
-25.8385
 30
0.0
 11
30.601432
 21
-5.8385
 31
0.0
  0
LINE
  5
A13
  8
0
 10
-15.621422
 20
-25.8385
 30
0.0
 11
-15.621422
 21
-5.8385
 31
0.0
  0
LINE
  5
A14
  8
0
 10
-20.221422
 20
-25.8385
 30
0.0
 11
-20.221422
 21
-5.8385
 31
0.0
  0
DIMENSION
  5
A21
  8
MATEN
  2
*D5
 10
35.901432
 20
-32.635403
 30
0.0
 11
32.901432
 21
-32.635403
 31
0.0
 70
   128
  1
M<>
 13
29.901432
 23
-25.8385
 33
0.0
 14
35.901432
 24
-25.8385
 34
0.0
1001
ACAD
1000
DSTYLE
1002
{
1070
    78
1070
     8
1070
   288
1070
     1
1070
   140
1040
2.0
1070
    74
1070
     0
1070
   172
1070
     1
1070
    73
1070
     0
1070
    77
1070
     1
1070
   147
1040
1.0
1070
    42
1040
0.625
1070
    44
1040
1.25
1070
    43
1040
3.75
1070
   271
1070
     2
1070
   141
1040
1.0
1070
   275
1070
     1
1070
    41
1040
2.0
1070
   273
1070
     8
1070
   274
1070
     4
1070
   143
1040
0.0394
1070
   171
1070
     4
1002
}
  0
LINE
  5
A38
  8
0
 10
-21.171422
 20
19.1615
 30
0.0
 11
-21.171422
 21
-5.8385
 31
0.0
  0
LINE
  5
A39
  8
0
 10
-14.671422
 20
19.1615
 30
0.0
 11
-14.671422
 21
-5.8385
 31
0.0
  0
LINE
  5
A3A
  8
0
 10
29.651432
 20
19.1615
 30
0.0
 11
29.651432
 21
-5.8385
 31
0.0
  0
LINE
  5
A3B
  8
0
 10
36.151432
 20
19.1615
 30
0.0
 11
36.151432
 21
-5.8385
 31
0.0
  0
CIRCLE
  5
A3E
  8
0
 10
32.901432
 20
117.021295
 30
0.0
 40
3.25
  0
CIRCLE
  5
A3F
  8
0
 10
-17.921422
 20
117.021295
 30
0.0
 40
3.25
  0
LINE
  5
A4C
  8
0
 10
30.601432
 20
-25.3385
 30
0.0
 11
35.201432
 21
-25.3385
 31
0.0
  0
LINE
  5
A4D
  8
0
 10
30.601432
 20
-6.3385
 30
0.0
 11
35.201432
 21
-6.3385
 31
0.0
  0
LINE
  5
A4E
  8
0
 10
-20.921422
 20
-25.8385
 30
0.0
 11
-20.221422
 21
-25.3385
 31
0.0
  0
LINE
  5
A4F
  8
0
 10
-14.921422
 20
-25.8385
 30
0.0
 11
-15.621422
 21
-25.3385
 31
0.0
  0
LINE
  5
A50
  8
0
 10
-20.221422
 20
-6.3385
 30
0.0
 11
-20.921422
 21
-5.8385
 31
0.0
  0
LINE
  5
A51
  8
0
 10
-15.621422
 20
-6.3385
 30
0.0
 11
-14.921422
 21
-5.8385
 31
0.0
  0
LINE
  5
A52
  8
0
 10
30.601432
 20
-25.3385
 30
0.0
 11
29.901432
 21
-25.8385
 31
0.0
  0
LINE
  5
A53
  8
0
 10
35.201432
 20
-25.3385
 30
0.0
 11
35.901432
 21
-25.8385
 31
0.0
  0
LINE
  5
A54
  8
0
 10
30.601432
 20
-6.3385
 30
0.0
 11
29.901432
 21
-5.8385
 31
0.0
  0
LINE
  5
A55
  8
0
 10
35.201432
 20
-6.3385
 30
0.0
 11
35.901432
 21
-5.8385
 31
0.0
  0
LINE
  5
A56
  8
0
 10
-20.221422
 20
-25.3385
 30
0.0
 11
-15.621422
 21
-25.3385
 31
0.0
  0
LINE
  5
A57
  8
0
 10
-20.221422
 20
-6.3385
 30
0.0
 11
-15.621422
 21
-6.3385
 31
0.0
  0
DIMENSION
  5
A64
  8
MATEN
  2
*D6
 10
202.402119
 20
76.521295
 30
0.0
 11
202.402119
 21
111.891893
 31
0.0
 70
   128
 13
192.485315
 23
156.521295
 33
0.0
 14
146.941066
 24
76.521295
 34
0.0
 50
90.0
1001
ACAD
1000
DSTYLE
1002
{
1070
    78
1070
     8
1070
   288
1070
     1
1070
   140
1040
2.0
1070
    74
1070
     0
1070
   172
1070
     1
1070
    73
1070
     0
1070
    77
1070
     1
1070
   147
1040
1.0
1070
    42
1040
0.625
1070
    44
1040
1.25
1070
    43
1040
3.75
1070
   271
1070
     2
1070
   141
1040
1.0
1070
   275
1070
     1
1070
    41
1040
2.0
1070
   273
1070
     8
1070
   274
1070
     4
1070
   143
1040
0.0394
1070
   171
1070
     4
1002
}
  0
DIMENSION
  5
A71
  8
MATEN
  2
*D7
 10
129.83366
 20
-25.8385
 30
0.0
 11
129.83366
 21
-19.225144
 31
0.0
 70
   128
 13
113.204354
 23
-5.8385
 33
0.0
 14
97.99437
 24
-25.8385
 34
0.0
 50
90.0
1001
ACAD
1000
DSTYLE
1002
{
1070
    78
1070
     8
1070
   288
1070
     1
1070
   140
1040
2.0
1070
    74
1070
     0
1070
   172
1070
     1
1070
    73
1070
     0
1070
    77
1070
     1
1070
   147
1040
1.0
1070
    42
1040
0.625
1070
    44
1040
1.25
1070
    43
1040
3.75
1070
   271
1070
     2
1070
   141
1040
1.0
1070
   275
1070
     1
1070
    41
1040
2.0
1070
   273
1070
     8
1070
   274
1070
     4
1070
   143
1040
0.0394
1070
   171
1070
     4
1002
}
  0
CIRCLE
  5
A72
  8
0
 10
216.35507
 20
9.4915
 30
0.0
 40
8.0
  0
ARC
  5
A73
  8
0
 10
216.35507
 20
9.4915
 30
0.0
 40
15.35
 50
291.004786
 51
319.347792
  0
ARC
  5
A74
  8
0
 10
216.35507
 20
9.4915
 30
0.0
 40
5.75
 50
0.0
 51
270.0
  0
ARC
  5
A75
  8
0
 10
216.35507
 20
9.4915
 30
0.0
 40
15.35
 50
220.652208
 51
248.995214
  0
ARC
  5
A76
  8
0
 10
216.35507
 20
9.4915
 30
0.0
 40
15.35
 50
40.652208
 51
139.347792
  0
LINE
  5
A7A
  8
0
 10
210.852925
 20
-4.8385
 30
0.0
 11
221.857215
 21
-4.8385
 31
0.0
  0
LINE
  5
A7C
  8
0
 10
204.709363
 20
19.4915
 30
0.0
 11
204.709363
 21
-0.5085
 31
0.0
  0
LINE
  5
A7D
  8
0
 10
228.000778
 20
19.4915
 30
0.0
 11
228.000778
 21
-0.5085
 31
0.0
  0
LINE
  5
A7E
  8
0
 10
183.190495
 20
-4.8385
 30
0.0
 11
152.790495
 21
-4.8385
 31
0.0
  0
DIMENSION
  5
A8B
  8
MATEN
  2
*D8
 10
228.000778
 20
34.606254
 30
0.0
 11
215.752764
 21
34.606254
 31
0.0
 70
   128
 13
204.709363
 23
19.4915
 33
0.0
 14
228.000778
 24
19.4915
 34
0.0
1001
ACAD
1000
DSTYLE
1002
{
1070
    78
1070
     8
1070
   288
1070
     1
1070
   140
1040
2.0
1070
    74
1070
     0
1070
   172
1070
     1
1070
    73
1070
     0
1070
    77
1070
     1
1070
   147
1040
1.0
1070
    42
1040
0.625
1070
    44
1040
1.25
1070
    43
1040
3.75
1070
   271
1070
     2
1070
   141
1040
1.0
1070
   275
1070
     1
1070
    41
1040
2.0
1070
   273
1070
     8
1070
   274
1070
     4
1070
   143
1040
0.0394
1070
   171
1070
     4
1002
}
  0
DIMENSION
  5
A98
  8
MATEN
  2
*D9
 10
240.22959
 20
-4.8385
 30
0.0
 11
240.22959
 21
1.853364
 31
0.0
 70
   128
 13
216.35507
 23
9.4915
 33
0.0
 14
221.857215
 24
-4.8385
 34
0.0
 50
90.0
1001
ACAD
1000
DSTYLE
1002
{
1070
    78
1070
     8
1070
   288
1070
     1
1070
   140
1040
2.0
1070
    74
1070
     0
1070
   172
1070
     1
1070
    73
1070
     0
1070
    77
1070
     1
1070
   147
1040
1.0
1070
    42
1040
0.625
1070
    44
1040
1.25
1070
    43
1040
3.75
1070
   271
1070
     2
1070
   141
1040
1.0
1070
   275
1070
     1
1070
    41
1040
2.0
1070
   273
1070
     8
1070
   274
1070
     4
1070
   143
1040
0.0394
1070
   171
1070
     4
1002
}
  0
DIMENSION
  5
AA4
  8
MATEN
  2
*D10
 10
204.842563
 20
-0.661562
 30
0.0
 11
236.992717
 21
27.692167
 31
0.0
 70
   131
 15
227.867578
 25
19.644562
 35
0.0
 40
0.0
1001
ACAD
1000
DSTYLE
1002
{
1070
    78
1070
     8
1070
   288
1070
     1
1070
   140
1040
2.0
1070
    74
1070
     0
1070
   172
1070
     1
1070
    73
1070
     0
1070
    77
1070
     1
1070
   147
1040
1.0
1070
    42
1040
0.625
1070
    44
1040
1.25
1070
    43
1040
3.75
1070
   271
1070
     2
1070
   141
1040
1.0
1070
   275
1070
     1
1070
    41
1040
2.0
1070
   273
1070
     8
1070
   274
1070
     4
1070
   143
1040
0.0394
1070
   171
1070
     4
1002
}
  0
LINE
  5
AB8
  8
MATEN
 10
285.273156
 20
42.408887
 30
0.0
 11
285.273156
 21
41.537871
 31
0.0
  0
LINE
  5
ABF
  8
0
 10
330.623156
 20
52.078887
 30
0.0
 11
330.623156
 21
27.078887
 31
0.0
  0
LINE
  5
AC1
  8
0
 10
270.623156
 20
52.078887
 30
0.0
 11
270.623156
 21
27.078887
 31
0.0
  0
LINE
  5
AC3
  8
0
 10
312.268864
 20
52.078887
 30
0.0
 11
312.268864
 21
27.078887
 31
0.0
  0
LINE
  5
AC4
  8
0
 10
288.977449
 20
52.078887
 30
0.0
 11
288.977449
 21
27.078887
 31
0.0
  0
CIRCLE
  5
AC5
  8
0
 10
284.388876
 20
39.578887
 30
0.0
 40
3.0
  0
CIRCLE
  5
AC6
  8
0
 10
316.857437
 20
39.578887
 30
0.0
 40
3.0
  0
ARC
  5
AC7
  8
0
 10
284.388876
 20
39.578887
 30
0.0
 40
2.3
 50
0.0
 51
270.0
  0
ARC
  5
AC8
  8
0
 10
316.857437
 20
39.578887
 30
0.0
 40
2.3
 50
90.0
 51
0.0
  0
LINE
  5
ACE
  8
0
 10
271.961729
 20
52.078887
 30
0.0
 11
271.961729
 21
27.078887
 31
0.0
  0
LINE
  5
ACF
  8
0
 10
278.461729
 20
52.078887
 30
0.0
 11
278.461729
 21
27.078887
 31
0.0
  0
LINE
  5
AD0
  8
0
 10
322.784583
 20
52.078887
 30
0.0
 11
322.784583
 21
27.078887
 31
0.0
  0
LINE
  5
AD1
  8
0
 10
329.284583
 20
52.078887
 30
0.0
 11
329.284583
 21
27.078887
 31
0.0
  0
LINE
  5
AFE
  8
0
 10
270.623156
 20
52.078887
 30
0.0
 11
330.623156
 21
52.078887
 31
0.0
  0
LINE
  5
AFF
  8
0
 10
330.623156
 20
27.078887
 30
0.0
 11
270.623156
 21
27.078887
 31
0.0
  0
LINE
  5
B05
  8
0
 10
312.268864
 20
84.084394
 30
0.0
 11
288.977449
 21
84.084394
 31
0.0
  0
LINE
  5
B08
  8
0
 10
325.623156
 20
102.121295
 30
0.0
 11
312.313864
 21
102.121295
 31
0.0
  0
LINE
  5
B09
  8
0
 10
288.932449
 20
102.121295
 30
0.0
 11
275.623156
 21
102.121295
 31
0.0
  0
LINE
  5
B0A
  8
0
 10
330.623156
 20
76.084394
 30
0.0
 11
330.623156
 21
84.084394
 31
0.0
  0
LINE
  5
B0B
  8
0
 10
270.623156
 20
76.084394
 30
0.0
 11
270.623156
 21
84.084394
 31
0.0
  0
LINE
  5
B0C
  8
0
 10
330.623156
 20
76.084394
 30
0.0
 11
270.623156
 21
76.084394
 31
0.0
  0
LINE
  5
B0D
  8
0
 10
330.623156
 20
102.121295
 30
0.0
 11
312.313864
 21
102.121295
 31
0.0
  0
LINE
  5
B0E
  8
0
 10
330.623156
 20
144.521295
 30
0.0
 11
270.623156
 21
144.521295
 31
0.0
  0
LINE
  5
B0F
  8
0
 10
330.623156
 20
84.084394
 30
0.0
 11
270.623156
 21
84.084394
 31
0.0
  0
LINE
  5
B10
  8
0
 10
288.932449
 20
102.121295
 30
0.0
 11
270.623156
 21
102.121295
 31
0.0
  0
DIMENSION
  5
B11
  8
MATEN
  2
*D11
 10
342.793711
 20
102.121295
 30
0.0
 11
342.793711
 21
122.732537
 31
0.0
 12
293.133151
 22
0.0
 32
0.0
 70
   128
 13
330.623156
 23
144.521295
 33
0.0
 14
330.623156
 24
102.121295
 34
0.0
 50
90.0
1001
ACAD
1000
DSTYLE
1002
{
1070
    78
1070
     8
1070
   288
1070
     1
1070
   140
1040
2.0
1070
    74
1070
     0
1070
   172
1070
     1
1070
    73
1070
     0
1070
    77
1070
     1
1070
   147
1040
1.0
1070
    42
1040
0.625
1070
    44
1040
1.25
1070
    43
1040
3.75
1070
   271
1070
     2
1070
   141
1040
1.0
1070
   275
1070
     1
1070
    41
1040
2.0
1070
   273
1070
     8
1070
   274
1070
     4
1070
   143
1040
0.0394
1070
   171
1070
     4
1002
}
  0
DIMENSION
  5
B12
  8
MATEN
  2
*D12
 10
342.714325
 20
84.084394
 30
0.0
 11
342.714325
 21
80.025108
 31
0.0
 12
293.133151
 22
-17.0369
 32
0.0
 70
   128
 13
330.623156
 23
76.084394
 33
0.0
 14
330.623156
 24
84.084394
 34
0.0
 50
90.0
1001
ACAD
1000
DSTYLE
1002
{
1070
    78
1070
     8
1070
   288
1070
     1
1070
   140
1040
2.0
1070
    74
1070
     0
1070
   172
1070
     1
1070
    73
1070
     0
1070
    77
1070
     1
1070
   147
1040
1.0
1070
    42
1040
0.625
1070
    44
1040
1.25
1070
    43
1040
3.75
1070
   271
1070
     2
1070
   141
1040
1.0
1070
   275
1070
     1
1070
    41
1040
2.0
1070
   273
1070
     8
1070
   274
1070
     4
1070
   143
1040
0.0394
1070
   171
1070
     4
1002
}
  0
LINE
  5
B13
  8
0
 10
270.623156
 20
102.121295
 30
0.0
 11
270.623156
 21
144.521295
 31
0.0
  0
DIMENSION
  5
B14
  8
MATEN
  2
*D13
 10
326.034583
 20
126.048565
 30
0.0
 11
318.034583
 21
126.048565
 31
0.0
 12
293.133151
 22
0.0
 32
0.0
 70
   128
 13
330.623156
 23
123.321295
 33
0.0
 14
326.034583
 24
117.021295
 34
0.0
1001
ACAD
1000
DSTYLE
1002
{
1070
    78
1070
     8
1070
   288
1070
     1
1070
   140
1040
2.0
1070
    74
1070
     0
1070
   172
1070
     1
1070
    73
1070
     0
1070
    77
1070
     1
1070
   147
1040
1.0
1070
    42
1040
0.625
1070
    44
1040
1.25
1070
    43
1040
3.75
1070
   271
1070
     2
1070
   141
1040
1.0
1070
   275
1070
     1
1070
    41
1040
2.0
1070
   273
1070
     8
1070
   274
1070
     4
1070
   143
1040
0.0394
1070
   171
1070
     4
1002
}
  0
LINE
  5
B15
  8
0
  6
ACAD_ISO02W100
 10
281.388876
 20
76.084394
 30
0.0
 11
281.388876
 21
84.084394
 31
0.0
  0
LINE
  5
B16
  8
0
  6
ACAD_ISO02W100
 10
287.388876
 20
76.084394
 30
0.0
 11
287.388876
 21
84.084394
 31
0.0
  0
LINE
  5
B17
  8
0
  6
ACAD_ISO02W100
 10
313.857437
 20
76.084394
 30
0.0
 11
313.857437
 21
84.084394
 31
0.0
  0
LINE
  5
B18
  8
0
  6
ACAD_ISO02W100
 10
319.857437
 20
76.084394
 30
0.0
 11
319.857437
 21
84.084394
 31
0.0
  0
LINE
  5
B19
  8
0
  6
ACAD_ISO02W100
 10
319.857437
 20
118.821295
 30
0.0
 11
313.857437
 21
118.821295
 31
0.0
  0
LINE
  5
B1A
  8
0
  6
ACAD_ISO02W100
 10
287.388876
 20
118.821295
 30
0.0
 11
281.388876
 21
118.821295
 31
0.0
  0
LINE
  5
B1B
  8
0
  6
ACAD_ISO02W100
 10
313.857437
 20
118.821295
 30
0.0
 11
316.857437
 21
120.821295
 31
0.0
  0
LINE
  5
B1C
  8
0
  6
ACAD_ISO02W100
 10
319.857437
 20
118.821295
 30
0.0
 11
316.857437
 21
120.821295
 31
0.0
  0
LINE
  5
B1D
  8
0
  6
ACAD_ISO02W100
 10
281.388876
 20
118.821295
 30
0.0
 11
284.388876
 21
120.821295
 31
0.0
  0
LINE
  5
B1E
  8
0
  6
ACAD_ISO02W100
 10
287.388876
 20
118.821295
 30
0.0
 11
284.388876
 21
120.821295
 31
0.0
  0
LINE
  5
B1F
  8
0
  6
ACAD_ISO02W100
 10
287.388876
 20
102.121295
 30
0.0
 11
287.388876
 21
118.821295
 31
0.0
  0
LINE
  5
B20
  8
0
  6
ACAD_ISO02W100
 10
281.388876
 20
102.121295
 30
0.0
 11
281.388876
 21
118.821295
 31
0.0
  0
LINE
  5
B21
  8
0
  6
ACAD_ISO02W100
 10
313.857437
 20
102.121295
 30
0.0
 11
313.857437
 21
118.821295
 31
0.0
  0
LINE
  5
B22
  8
0
  6
ACAD_ISO02W100
 10
319.857437
 20
102.121295
 30
0.0
 11
319.857437
 21
118.821295
 31
0.0
  0
LINE
  5
B23
  8
0
  6
ACAD_ISO02W100
 10
319.157437
 20
102.121295
 30
0.0
 11
319.157437
 21
119.287961
 31
0.0
  0
LINE
  5
B24
  8
0
  6
ACAD_ISO02W100
 10
314.557437
 20
102.121295
 30
0.0
 11
314.557437
 21
119.287961
 31
0.0
  0
LINE
  5
B25
  8
0
  6
ACAD_ISO02W100
 10
282.088876
 20
102.121295
 30
0.0
 11
282.088876
 21
119.287961
 31
0.0
  0
LINE
  5
B26
  8
0
  6
ACAD_ISO02W100
 10
286.688876
 20
102.121295
 30
0.0
 11
286.688876
 21
119.287961
 31
0.0
  0
LINE
  5
B27
  8
0
  6
ACAD_ISO02W100
 10
291.623156
 20
76.084394
 30
0.0
 11
291.623156
 21
84.084394
 31
0.0
  0
LINE
  5
B28
  8
0
  6
ACAD_ISO02W100
 10
309.623156
 20
76.084394
 30
0.0
 11
309.623156
 21
84.084394
 31
0.0
  0
LINE
  5
B29
  8
0
  6
ACAD_ISO02W100
 10
291.623156
 20
131.921295
 30
0.0
 11
291.623156
 21
144.521295
 31
0.0
  0
LINE
  5
B2A
  8
0
  6
ACAD_ISO02W100
 10
309.623156
 20
131.921295
 30
0.0
 11
309.623156
 21
144.521295
 31
0.0
  0
CIRCLE
  5
B2B
  8
0
 10
326.034583
 20
117.021295
 30
0.0
 40
3.25
  0
CIRCLE
  5
B2C
  8
0
 10
275.211729
 20
117.021295
 30
0.0
 40
3.25
  0
LINE
  5
B2D
  8
0
 10
330.623156
 20
102.121295
 30
0.0
 11
330.623156
 21
144.521295
 31
0.0
  0
DIMENSION
  5
B2E
  8
MATEN
  2
*D14
 10
273.894069
 20
114.050391
 30
0.0
 11
279.772862
 21
127.305193
 31
0.0
 12
293.133151
 22
0.0
 32
0.0
 70
   131
 15
276.52939
 25
119.992199
 35
0.0
 40
0.0
1001
ACAD
1000
DSTYLE
1002
{
1070
    78
1070
     8
1070
   288
1070
     1
1070
   140
1040
2.0
1070
    74
1070
     0
1070
   172
1070
     1
1070
    73
1070
     0
1070
    77
1070
     1
1070
   147
1040
1.0
1070
    42
1040
0.625
1070
    44
1040
1.25
1070
    43
1040
3.75
1070
   271
1070
     2
1070
   141
1040
1.0
1070
   275
1070
     1
1070
    41
1040
2.0
1070
   273
1070
     8
1070
   274
1070
     4
1070
   143
1040
0.0394
1070
   171
1070
     4
1002
}
  0
DIMENSION
  5
B6E
  8
MATEN
  2
*D15
 10
330.623156
 20
57.171503
 30
0.0
 11
323.378003
 21
57.171503
 31
0.0
 12
-7.754615
 22
32.917386
 32
0.0
 70
   128
 13
316.857437
 23
39.578887
 33
0.0
 14
330.623156
 24
52.078887
 34
0.0
1001
ACAD
1000
DSTYLE
1002
{
1070
    78
1070
     8
1070
   288
1070
     1
1070
   140
1040
2.0
1070
    74
1070
     0
1070
   172
1070
     1
1070
    73
1070
     0
1070
    77
1070
     1
1070
   147
1040
1.0
1070
    42
1040
0.625
1070
    44
1040
1.25
1070
    43
1040
3.75
1070
   271
1070
     2
1070
   141
1040
1.0
1070
   275
1070
     1
1070
    41
1040
2.0
1070
   273
1070
     8
1070
   274
1070
     4
1070
   143
1040
0.0394
1070
   171
1070
     4
1002
}
  0
DIMENSION
  5
B86
  8
MATEN
  2
*D16
 10
266.077966
 20
102.121295
 30
0.0
 11
266.077966
 21
110.018017
 31
0.0
 70
   128
 13
275.211729
 23
117.021295
 33
0.0
 14
270.623156
 24
102.121295
 34
0.0
 50
90.0
1001
ACAD
1000
DSTYLE
1002
{
1070
    78
1070
     8
1070
   288
1070
     1
1070
   140
1040
2.0
1070
    74
1070
     0
1070
   172
1070
     1
1070
    73
1070
     0
1070
    77
1070
     1
1070
   147
1040
1.0
1070
    42
1040
0.625
1070
    44
1040
1.25
1070
    43
1040
3.75
1070
   271
1070
     2
1070
   141
1040
1.0
1070
   275
1070
     1
1070
    41
1040
2.0
1070
   273
1070
     8
1070
   274
1070
     4
1070
   143
1040
0.0394
1070
   171
1070
     4
1002
}
  0
DIMENSION
  5
B9E
  8
MATEN
  2
*D17
 10
309.623156
 20
150.175035
 30
0.0
 11
300.233263
 21
150.175035
 31
0.0
 70
   128
 13
291.623156
 23
144.521295
 33
0.0
 14
309.623156
 24
144.521295
 34
0.0
1001
ACAD
1000
DSTYLE
1002
{
1070
    78
1070
     8
1070
   288
1070
     1
1070
   140
1040
2.0
1070
    74
1070
     0
1070
   172
1070
     1
1070
    73
1070
     0
1070
    77
1070
     1
1070
   147
1040
1.0
1070
    42
1040
0.625
1070
    44
1040
1.25
1070
    43
1040
3.75
1070
   271
1070
     2
1070
   141
1040
1.0
1070
   275
1070
     1
1070
    41
1040
2.0
1070
   273
1070
     8
1070
   274
1070
     4
1070
   143
1040
0.0394
1070
   171
1070
     4
1002
}
  0
DIMENSION
  5
BAB
  8
MATEN
  2
*D18
 10
330.623156
 20
156.98186
 30
0.0
 11
300.402901
 21
156.98186
 31
0.0
 70
   128
 13
270.623156
 23
144.521295
 33
0.0
 14
330.623156
 24
144.521295
 34
0.0
1001
ACAD
1000
DSTYLE
1002
{
1070
    78
1070
     8
1070
   288
1070
     1
1070
   140
1040
2.0
1070
    74
1070
     0
1070
   172
1070
     1
1070
    73
1070
     0
1070
    77
1070
     1
1070
   147
1040
1.0
1070
    42
1040
0.625
1070
    44
1040
1.25
1070
    43
1040
3.75
1070
   271
1070
     2
1070
   141
1040
1.0
1070
   275
1070
     1
1070
    41
1040
2.0
1070
   273
1070
     8
1070
   274
1070
     4
1070
   143
1040
0.0394
1070
   171
1070
     4
1002
}
  0
DIMENSION
  5
BB8
  8
MATEN
  2
*D19
 10
252.257565
 20
-4.8385
 30
0.0
 11
252.257565
 21
10.0015
 31
0.0
 70
   128
 13
216.35507
 23
24.8415
 33
0.0
 14
216.35507
 24
-4.8385
 34
0.0
 50
90.0
1001
ACAD
1000
DSTYLE
1002
{
1070
    78
1070
     8
1070
   288
1070
     1
1070
   140
1040
2.0
1070
    74
1070
     0
1070
   172
1070
     1
1070
    73
1070
     0
1070
    77
1070
     1
1070
   147
1040
1.0
1070
    42
1040
0.625
1070
    44
1040
1.25
1070
    43
1040
3.75
1070
   271
1070
     2
1070
   141
1040
1.0
1070
   275
1070
     1
1070
    41
1040
2.0
1070
   273
1070
     8
1070
   274
1070
     4
1070
   143
1040
0.0394
1070
   171
1070
     4
1002
}
  0
DIMENSION
  5
BD0
  8
MATEN
  2
*D20
 10
301.745658
 20
102.121295
 30
0.0
 11
301.745658
 21
117.021295
 31
0.0
 70
   128
 13
288.977449
 23
131.921295
 33
0.0
 14
288.977449
 24
102.121295
 34
0.0
 50
90.0
1001
ACAD
1000
DSTYLE
1002
{
1070
    78
1070
     8
1070
   288
1070
     1
1070
   140
1040
2.0
1070
    74
1070
     0
1070
   172
1070
     1
1070
    73
1070
     0
1070
    77
1070
     1
1070
   147
1040
1.0
1070
    42
1040
0.625
1070
    44
1040
1.25
1070
    43
1040
3.75
1070
   271
1070
     2
1070
   141
1040
1.0
1070
   275
1070
     1
1070
    41
1040
2.0
1070
   273
1070
     8
1070
   274
1070
     4
1070
   143
1040
0.0394
1070
   171
1070
     4
1002
}
  0
LINE
  5
BF4
  8
0
 10
312.313864
 20
102.121295
 30
0.0
 11
312.313864
 21
131.921295
 31
0.0
  0
LINE
  5
BF5
  8
0
 10
288.932449
 20
102.121295
 30
0.0
 11
288.932449
 21
131.921295
 31
0.0
  0
LINE
  5
BF6
  8
0
 10
288.932449
 20
131.921295
 30
0.0
 11
312.313864
 21
131.921295
 31
0.0
  0
DIMENSION
  5
C03
  8
MATEN
  2
*D21
 10
312.313864
 20
95.440943
 30
0.0
 11
301.252715
 21
95.440943
 31
0.0
 70
   128
 13
288.932449
 23
102.121295
 33
0.0
 14
312.313864
 24
102.121295
 34
0.0
1001
ACAD
1000
DSTYLE
1002
{
1070
    78
1070
     8
1070
   288
1070
     1
1070
   140
1040
2.0
1070
    74
1070
     0
1070
   172
1070
     1
1070
    73
1070
     0
1070
    77
1070
     1
1070
   147
1040
1.0
1070
    42
1040
0.625
1070
    44
1040
1.25
1070
    43
1040
3.75
1070
   271
1070
     2
1070
   141
1040
1.0
1070
   275
1070
     1
1070
    41
1040
2.0
1070
   273
1070
     8
1070
   274
1070
     4
1070
   143
1040
0.0394
1070
   171
1070
     4
1002
}
  0
DIMENSION
  5
C1B
  8
MATEN
  2
*D22
 10
340.051933
 20
52.078887
 30
0.0
 11
340.051933
 21
38.977503
 31
0.0
 70
   128
 13
330.623156
 23
27.078887
 33
0.0
 14
330.623156
 24
52.078887
 34
0.0
 50
90.0
1001
ACAD
1000
DSTYLE
1002
{
1070
    78
1070
     8
1070
   288
1070
     1
1070
   140
1040
2.0
1070
    74
1070
     0
1070
   172
1070
     1
1070
    73
1070
     0
1070
    77
1070
     1
1070
   147
1040
1.0
1070
    42
1040
0.625
1070
    44
1040
1.25
1070
    43
1040
3.75
1070
   271
1070
     2
1070
   141
1040
1.0
1070
   275
1070
     1
1070
    41
1040
2.0
1070
   273
1070
     8
1070
   274
1070
     4
1070
   143
1040
0.0394
1070
   171
1070
     4
1002
}
  0
ARC
  5
C2F
  8
MATEN
  6
ACAD_ISO02W100
 10
7.490005
 20
9.4915
 30
0.0
 40
15.35
 50
254.481585
 51
286.20617
  0
CIRCLE
  5
C34
  8
0
 10
300.623156
 20
42.408887
 30
0.0
 40
9.0
  0
DIMENSION
  5
C41
  8
MATEN
  2
*D23
 10
334.93437
 20
27.078887
 30
0.0
 11
334.93437
 21
35.24228
 31
0.0
 70
   128
 13
300.623156
 23
42.408887
 33
0.0
 14
312.268864
 24
27.078887
 34
0.0
 50
90.0
1001
ACAD
1000
DSTYLE
1002
{
1070
    78
1070
     8
1070
   288
1070
     1
1070
   140
1040
2.0
1070
    74
1070
     0
1070
   172
1070
     1
1070
    73
1070
     0
1070
    77
1070
     1
1070
   147
1040
1.0
1070
    42
1040
0.625
1070
    44
1040
1.25
1070
    43
1040
3.75
1070
   271
1070
     2
1070
   141
1040
1.0
1070
   275
1070
     1
1070
    41
1040
2.0
1070
   273
1070
     8
1070
   274
1070
     4
1070
   143
1040
0.0394
1070
   171
1070
     4
1002
}
  0
DIMENSION
  5
C8E
  8
MATEN
  2
*D24
 10
297.294952
 20
34.046886
 30
0.0
 11
308.37281
 21
61.879631
 31
0.0
 70
   131
 15
303.95136
 25
50.770887
 35
0.0
 40
0.0
1001
ACAD
1000
DSTYLE
1002
{
1070
    78
1070
     8
1070
   288
1070
     1
1070
   140
1040
2.0
1070
    74
1070
     0
1070
   172
1070
     1
1070
    73
1070
     0
1070
    77
1070
     1
1070
   147
1040
1.0
1070
    42
1040
0.625
1070
    44
1040
1.25
1070
    43
1040
3.75
1070
   271
1070
     2
1070
   141
1040
1.0
1070
   275
1070
     1
1070
    41
1040
2.0
1070
   273
1070
     8
1070
   274
1070
     4
1070
   143
1040
0.0394
1070
   171
1070
     4
1002
}
  0
DIMENSION
  5
C9D
  8
MATEN
  2
*D25
 10
312.268864
 20
62.721937
 30
0.0
 11
314.56315
 21
62.721937
 31
0.0
 70
   128
 13
316.857437
 23
39.578887
 33
0.0
 14
312.268864
 24
52.078887
 34
0.0
1001
ACAD
1000
DSTYLE
1002
{
1070
    78
1070
     8
1070
   288
1070
     1
1070
   140
1040
2.0
1070
    74
1070
     0
1070
   172
1070
     1
1070
    73
1070
     0
1070
    77
1070
     1
1070
   147
1040
1.0
1070
    42
1040
0.625
1070
    44
1040
1.25
1070
    43
1040
3.75
1070
   271
1070
     2
1070
   141
1040
1.0
1070
   275
1070
     1
1070
    41
1040
2.0
1070
   273
1070
     8
1070
   274
1070
     4
1070
   143
1040
0.0394
1070
   171
1070
     4
1002
}
  0
TEXT
  8
0
  40
5
  5
CC4
  72
0
  71
0
 10
269.039
 20
4.97562
 30
0.000000
  1
Trapezium moer ophanging 
  0
TEXT
  8
0
  40
5
  5
CC5
  72
0
  71
0
 10
269.039
 20
-1.52438
 30
0.000000
  1
centerend t.o.v. de X as
  0
TEXT
  8
0
  40
5
  5
CC6
  72
0
  71
0
 10
269.039
 20
-8.02438
 30
0.000000
  1
J.Stinissen 07-12-2000 
  0
ENDSEC
  0
EOF
